Subcategories

V.A. - The authentic voices of the greek laiko song (10CD, 2013)

Posted By: Speedyclick
V.A. - The authentic voices of the greek laiko song (10CD, 2013)

V.A. - The authentic voices of the greek laiko song (10CD, 2013)
EAC Rip | FLAC (image & cue & log) & mp3 @ 320 kbps | tracks: 150 | Scans | 7:56:51 | ~ 3,31 Gb & 1,15 Gb
Label: Bestend A.E. | 5% recovery record | Original recordings | World, folk, rebetika

Superb collection of "laika" (folk) and rebetika greek songs interpreted by ten legendary singers. Genuine songs, selected from personal albums or recorded at rare live performances will guide you through the treasures of the folk greek music. Enjoy Prodromos Tsaousakis, Haroula Lambraki, Keti Grey, Christakis, Alexandra, Dimitris Efstathiou, Keti Dali, Vangelis Perpiniadis, Poly Panou and Takis Mpinis in a unique musical journey of 8 hours. A collector's item in lossless.

V.A. - The authentic voices of the greek laiko song (10CD, 2013)

CD01:Christakis (28:13 | ~ 258 Mb & 118 Mb)

TRACKLIST
01. The bird (To pouli)
02. The baglamas are playing (Pezoun ta baglamadakia)
03. God bless your eyes (Na haris ta matiasou kale)
04. Damn girls (Ah re paliomisoforia)
05. She was not a lady (Den itane kiria)
06. The player (O pehtis)
07. Where to find (Pou na vris)
08. The doctor(O giatros)
09. They say that you are a tough guy (Emetha pos ise magkas)
10. The cat (I yata)

Exact Audio Copy V1.0 beta 3 from 29. August 2011

EAC extraction logfile from 16. February 2013, 4:28

Christakis / Authentic folk voices CD01

Used drive : HL-DT-STDVDRAM GH10N Adapter: 1 ID: 1

Read mode : Secure
Utilize accurate stream : Yes
Defeat audio cache : Yes
Make use of C2 pointers : No

Read offset correction : 667
Overread into Lead-In and Lead-Out : No
Fill up missing offset samples with silence : Yes
Delete leading and trailing silent blocks : No
Null samples used in CRC calculations : Yes
Used interface : Native Win32 interface for Win NT & 2000

Used output format : User Defined Encoder
Selected bitrate : 1024 kBit/s
Quality : High
Add ID3 tag : Yes
Command line compressor : C:\Program Files\Exact Audio Copy New\Flac\flac.exe
Additional command line options : -V -5 -T "artist=%artist%" -T "title=%title%" -T "album=%albumtitle%" -T "tracknumber=%tracknr2%" -T "genre=%genre%" -5 %source%


TOC of the extracted CD

Track | Start | Length | Start sector | End sector
––––––––––––––––––––––––––––-
1 | 0:00.00 | 3:04.25 | 0 | 13824
2 | 3:04.25 | 2:41.42 | 13825 | 25941
3 | 5:45.67 | 2:47.24 | 25942 | 38490
4 | 8:33.16 | 2:44.49 | 38491 | 50839
5 | 11:17.65 | 2:58.11 | 50840 | 64200
6 | 14:16.01 | 2:33.04 | 64201 | 75679
7 | 16:49.05 | 2:45.06 | 75680 | 88060
8 | 19:34.11 | 2:23.38 | 88061 | 98823
9 | 21:57.49 | 3:08.53 | 98824 | 112976
10 | 25:06.27 | 3:07.10 | 112977 | 127011


Range status and errors

Selected range

Filename S:\MUSIC\Uploaded\GREEK\Aythentikes Fones Laikou (10CD)\CD01 - Xrhstakhs\Christakis - Authentic folk voices CD01.wav

Peak level 99.9 %
Extraction speed 1.7 X
Range quality 99.9 %
Test CRC 44FACCAD
Copy CRC 44FACCAD
Copy OK

No errors occurred


AccurateRip summary

Track 1 accurately ripped (confidence 1) [F59FD1B5] (AR v1)
Track 2 accurately ripped (confidence 1) [5ABE58DB] (AR v1)
Track 3 accurately ripped (confidence 1) [17F760E1] (AR v1)
Track 4 accurately ripped (confidence 1) [2918911C] (AR v1)
Track 5 accurately ripped (confidence 1) [28F37DA9] (AR v1)
Track 6 accurately ripped (confidence 1) [737032D2] (AR v1)
Track 7 accurately ripped (confidence 1) [06278E23] (AR v1)
Track 8 accurately ripped (confidence 1) [AC4F6FD5] (AR v1)
Track 9 accurately ripped (confidence 1) [402AD8EE] (AR v1)
Track 10 accurately ripped (confidence 1) [7CA82BDA] (AR v1)

All tracks accurately ripped

End of status report

–– CUETools DB Plugin V2.1.3

[CTDB TOCID: sYvWZD8Msj36Wqu_VG6ueWNBuTM-] disk not present in database, Submit result: sYvWZD8Msj36Wqu_VG6ueWNBuTM- has been uploaded


==== Log checksum 881CBDFD5CF646C3ED691F0B78017E005730625352AB4163196760A64FE551CE ====

V.A. - The authentic voices of the greek laiko song (10CD, 2013)

CD02:Keti Grey (43:46 | ~ 311 Mb & 108 Mb)

TRACKLIST
01. Little birds (Helidonakia)
02. Forget me (Xehase me)
03. Dignity (Axioprepia)
04. You don't remember me anymore (De me thimase pia)
05. Put the black clothes (Fora ta mavra)
06. Your mother is cruel (Ine kakourga i mana sou)
07. The coatrack (Kremastra sto sakaki sou)
08. I don't know you friend (De se xero file)
09. Girl from Smirni (Smirniotopoula)
10. The tavern owner lady (Kira mou taverniarisa)
11. The butcher boy (To hasapaki)
12. Why you don't tell us (Ma giati de mas to les)
13. The tavern (To kapilio)
14. Dimitrakis
15. Love at first site (Keravnovolos o erotas sou)
16. The eighth miracle (Ogdoo thavma)

Exact Audio Copy V1.0 beta 3 from 29. August 2011

EAC extraction logfile from 16. February 2013, 7:24

Keti Grey / Authentic folk singers CD02

Used drive : HL-DT-STDVDRAM GH10N Adapter: 1 ID: 1

Read mode : Secure
Utilize accurate stream : Yes
Defeat audio cache : Yes
Make use of C2 pointers : No

Read offset correction : 667
Overread into Lead-In and Lead-Out : No
Fill up missing offset samples with silence : Yes
Delete leading and trailing silent blocks : No
Null samples used in CRC calculations : Yes
Used interface : Native Win32 interface for Win NT & 2000

Used output format : User Defined Encoder
Selected bitrate : 1024 kBit/s
Quality : High
Add ID3 tag : Yes
Command line compressor : C:\Program Files\Exact Audio Copy New\Flac\flac.exe
Additional command line options : -V -5 -T "artist=%artist%" -T "title=%title%" -T "album=%albumtitle%" -T "tracknumber=%tracknr2%" -T "genre=%genre%" -5 %source%


TOC of the extracted CD

Track | Start | Length | Start sector | End sector
––––––––––––––––––––––––––––-
1 | 0:00.00 | 2:38.70 | 0 | 11919
2 | 2:38.70 | 3:00.39 | 11920 | 25458
3 | 5:39.34 | 3:12.53 | 25459 | 39911
4 | 8:52.12 | 3:15.48 | 39912 | 54584
5 | 12:07.60 | 3:33.39 | 54585 | 70598
6 | 15:41.24 | 2:36.22 | 70599 | 82320
7 | 18:17.46 | 3:07.50 | 82321 | 96395
8 | 21:25.21 | 2:45.00 | 96396 | 108770
9 | 24:10.21 | 3:18.15 | 108771 | 123635
10 | 27:28.36 | 2:41.13 | 123636 | 135723
11 | 30:09.49 | 2:26.00 | 135724 | 146673
12 | 32:35.49 | 2:14.44 | 146674 | 156767
13 | 34:50.18 | 1:08.58 | 156768 | 161925
14 | 35:59.01 | 2:10.62 | 161926 | 171737
15 | 38:09.63 | 3:29.09 | 171738 | 187421
16 | 41:38.72 | 2:07.22 | 187422 | 196968


Range status and errors

Selected range

Filename S:\MUSIC\Uploaded\GREEK\Aythentikes Fones Laikou (10CD)\CD02 - Kaith Grey\Keti Grey - Authentic folk singers CD02.wav

Peak level 97.7 %
Extraction speed 1.9 X
Range quality 100.0 %
Test CRC 9A9FAED3
Copy CRC 9A9FAED3
Copy OK

No errors occurred


AccurateRip summary

Track 1 accurately ripped (confidence 1) [1553B429] (AR v1)
Track 2 accurately ripped (confidence 1) [2907D31B] (AR v1)
Track 3 accurately ripped (confidence 1) [A85A3447] (AR v1)
Track 4 accurately ripped (confidence 1) [725266D8] (AR v1)
Track 5 accurately ripped (confidence 1) [70716E53] (AR v1)
Track 6 accurately ripped (confidence 1) [CAD3714D] (AR v1)
Track 7 accurately ripped (confidence 1) [9A33B6CD] (AR v1)
Track 8 accurately ripped (confidence 1) [DB5A988E] (AR v1)
Track 9 accurately ripped (confidence 1) [F6086ED1] (AR v1)
Track 10 accurately ripped (confidence 1) [ADDEB4DE] (AR v1)
Track 11 accurately ripped (confidence 1) [D416A4BA] (AR v1)
Track 12 accurately ripped (confidence 1) [0D3B0925] (AR v1)
Track 13 accurately ripped (confidence 1) [89566FF7] (AR v1)
Track 14 accurately ripped (confidence 1) [CC18FDA0] (AR v1)
Track 15 accurately ripped (confidence 1) [6ADC09CD] (AR v1)
Track 16 accurately ripped (confidence 1) [B03D1FE5] (AR v1)

All tracks accurately ripped

End of status report

–– CUETools DB Plugin V2.1.3

[CTDB TOCID: 6lrIyuqeznFRma_9hHLWizVR2Wo-] disk not present in database, Submit result: 6lrIyuqeznFRma_9hHLWizVR2Wo- has been uploaded


==== Log checksum 14576338D2235AB175862B4964E82CB3F12E9FC5FAF258CC42E97A03B7F47330 ====

V.A. - The authentic voices of the greek laiko song (10CD, 2013)

CD03:Vangelis Perpiniadis (54:54 | ~ 402 Mb & 138 Mb)

TRACKLIST
01. News from Alexandra (Ta nea tis Alexandras)
02. I wish I was the sheet (Na 'mouna to sentonaki)
03. Maharani
04. I step up the staircase (Aneveno skalopatia)
05. A mother's sigh (Kapia mana anastenazi)
06. There is no smoke without fire (Horis fotia kapnos de vgeni)
07. Get out of my way (Araxte magkes na peraso)
08. How the evening will pass (Pos tha perasi i vradia)
09. Enjoy your life man (Anthrope glenta ti zoi)
10. Those that I helped (Se osous ekana kalo)
11. A handsome guy and a doll (Enas kouklos ke mia koukla)
12. While I was in trouble (Mes' tin poli skotoura mou)
13. I don't have money and palaces (Den eho palatia ke lefta)
14. My Maili (Maili mou Maili)
15. Don't leave me alone (Mi m' afinis mono mou)
16. Noble lady (Kira ki arhontissa)

Exact Audio Copy V1.0 beta 3 from 29. August 2011

EAC extraction logfile from 16. February 2013, 12:23

Vangelis Perpiniadis / Authentic folk voices CD03

Used drive : HL-DT-STDVDRAM GH10N Adapter: 1 ID: 1

Read mode : Secure
Utilize accurate stream : Yes
Defeat audio cache : Yes
Make use of C2 pointers : No

Read offset correction : 667
Overread into Lead-In and Lead-Out : No
Fill up missing offset samples with silence : Yes
Delete leading and trailing silent blocks : No
Null samples used in CRC calculations : Yes
Used interface : Native Win32 interface for Win NT & 2000

Used output format : User Defined Encoder
Selected bitrate : 1024 kBit/s
Quality : High
Add ID3 tag : Yes
Command line compressor : C:\Program Files\Exact Audio Copy New\Flac\flac.exe
Additional command line options : -V -5 -T "artist=%artist%" -T "title=%title%" -T "album=%albumtitle%" -T "tracknumber=%tracknr2%" -T "genre=%genre%" -5 %source%


TOC of the extracted CD

Track | Start | Length | Start sector | End sector
––––––––––––––––––––––––––––-
1 | 0:00.00 | 3:15.57 | 0 | 14681
2 | 3:15.57 | 2:57.66 | 14682 | 28022
3 | 6:13.48 | 3:25.15 | 28023 | 43412
4 | 9:38.63 | 3:53.17 | 43413 | 60904
5 | 13:32.05 | 2:48.72 | 60905 | 73576
6 | 16:21.02 | 2:27.23 | 73577 | 84624
7 | 18:48.25 | 2:37.29 | 84625 | 96428
8 | 21:25.54 | 3:22.43 | 96429 | 111621
9 | 24:48.22 | 3:01.53 | 111622 | 125249
10 | 27:50.00 | 4:26.19 | 125250 | 145218
11 | 32:16.19 | 3:53.03 | 145219 | 162696
12 | 36:09.22 | 3:17.24 | 162697 | 177495
13 | 39:26.46 | 5:05.02 | 177496 | 200372
14 | 44:31.48 | 3:28.74 | 200373 | 216046
15 | 48:00.47 | 3:25.08 | 216047 | 231429
16 | 51:25.55 | 3:28.31 | 231430 | 247060


Range status and errors

Selected range

Filename S:\MUSIC\Uploaded\GREEK\Aythentikes Fones Laikou (10CD)\CD03 - Baggelhs Perpiniadis\Vangelis Perpiniadis - Authentic folk voices CD03.wav

Peak level 99.9 %
Extraction speed 5.8 X
Range quality 100.0 %
Test CRC FFD17C36
Copy CRC FFD17C36
Copy OK

No errors occurred


AccurateRip summary

Track 1 not present in database
Track 2 not present in database
Track 3 not present in database
Track 4 not present in database
Track 5 not present in database
Track 6 not present in database
Track 7 not present in database
Track 8 not present in database
Track 9 not present in database
Track 10 not present in database
Track 11 not present in database
Track 12 not present in database
Track 13 not present in database
Track 14 not present in database
Track 15 not present in database
Track 16 not present in database

None of the tracks are present in the AccurateRip database

End of status report

–– CUETools DB Plugin V2.1.3

[CTDB TOCID: u3KpiOUaDIYmtIa.gCNUiBMV4qk-] disk not present in database, Submit result: u3KpiOUaDIYmtIa.gCNUiBMV4qk- has been uploaded


==== Log checksum 2430041BE0CB4B0AC7351D8EA556E6A3427E2D75A1ABD74385EFF97750E008BA ====

V.A. - The authentic voices of the greek laiko song (10CD, 2013)

CD04:Haroula Lambraki (45:52 | ~ 357 Mb & 111 Mb)

TRACKLIST
01. I was befooled (Me paresire to rema)
02. The guy that just entered (To pedi pou mpike tora)
03. I am drunk (Methismeni ime)
04. All the good things of the world (Ta kala olou tou kosmou)
05. No more sorrow (Exo ntertia ke kaimi)
06. I want to ask God (Thelo to Theo na rotiso)
07. Prisons - Monasteries - Madhouses (Filakes - Monastiria - Treladika)
08. Why you waked me up so early (Giati me xipnises proi)
09. Loser (Hameno kormi)
10. A wounded bird (Ena pligomeno helidoni)
11. I will get a new heart (Th' alaxo kardia)
12. So you've got married (Pantreftikes lipon)
13. You don't have a good time (Den pernas kala)
14. I am that woman (Ego ime ekini)
15. Come here to talk (Ela na ta poume)
16. As long as you berate me (Oso me malonis)

Exact Audio Copy V1.0 beta 1 from 15. November 2010

EAC extraction logfile from 31. July 2011, 8:45

Χαρούλα Λαμπράκη / Αυθεντικές Φωνές CD4

Used drive : HL-DT-STDVDRAM GH10N Adapter: 3 ID: 0

Read mode : Secure
Utilize accurate stream : Yes
Defeat audio cache : Yes
Make use of C2 pointers : No

Read offset correction : 667
Overread into Lead-In and Lead-Out : No
Fill up missing offset samples with silence : Yes
Delete leading and trailing silent blocks : No
Null samples used in CRC calculations : Yes
Used interface : Native Win32 interface for Win NT & 2000

Used output format : User Defined Encoder
Selected bitrate : 1024 kBit/s
Quality : High
Add ID3 tag : No
Command line compressor : C:\Program Files\FLAC\flac.exe
Additional command line options : -V -5 -T "artist=%a" -T "title=%t" -T "album=%g" -T "date=%y" -T "tracknumber=%n" -T "genre=%m" -5 %s


TOC of the extracted CD

Track | Start | Length | Start sector | End sector
––––––––––––––––––––––––––––-
1 | 0:00.00 | 2:53.26 | 0 | 13000
2 | 2:53.26 | 1:56.64 | 13001 | 21764
3 | 4:50.15 | 4:34.01 | 21765 | 42315
4 | 9:24.16 | 3:18.15 | 42316 | 57180
5 | 12:42.31 | 2:03.49 | 57181 | 66454
6 | 14:46.05 | 4:02.44 | 66455 | 84648
7 | 18:48.49 | 2:04.14 | 84649 | 93962
8 | 20:52.63 | 3:10.23 | 93963 | 108235
9 | 24:03.11 | 2:00.35 | 108236 | 117270
10 | 26:03.46 | 2:25.11 | 117271 | 128156
11 | 28:28.57 | 2:23.59 | 128157 | 138940
12 | 30:52.41 | 2:32.74 | 138941 | 150414
13 | 33:25.40 | 3:18.19 | 150415 | 165283
14 | 36:43.59 | 2:42.30 | 165284 | 177463
15 | 39:26.14 | 3:10.17 | 177464 | 191730
16 | 42:36.31 | 3:16.04 | 191731 | 206434


Range status and errors

Selected range

Filename U:\EAC Rips\GREEK\Aythentikes Fones Laikou\CD4 - Xaroula Lampraki\Χαρούλα Λαμπράκη - Αυθεντικές Φωνές CD4.wav

Peak level 98.8 %
Extraction speed 0.4 X
Range quality 100.0 %
Copy CRC F53B6425
Copy OK

No errors occurred


AccurateRip summary

Track 1 not present in database
Track 2 not present in database
Track 3 not present in database
Track 4 not present in database
Track 5 not present in database
Track 6 not present in database
Track 7 not present in database
Track 8 not present in database
Track 9 not present in database
Track 10 not present in database
Track 11 not present in database
Track 12 not present in database
Track 13 not present in database
Track 14 not present in database
Track 15 not present in database
Track 16 not present in database

None of the tracks are present in the AccurateRip database

End of status report

==== Log checksum 92661481187B75ACDC02391797A2F0B3EE92699DC4D8D79526D2A5DF6849ED04 ====

V.A. - The authentic voices of the greek laiko song (10CD, 2013)

CD05:Prodromos Tsaousakis (36:41 | ~ 254 Mb & 87 Mb)

TRACKLIST
01. Tuesday, Thursday spaghetti (Triti, Pempti makaronia)
02. Die, naughty girl (Na pethanis atahti)
03. Behave yourself at last (Simorfosou pia)
04. In front of Agios Spiridonas (Mpros ton Agio Spiridona)
05. They criticize me unfairly (Adika me katakrinoun)
06. Leave me, leave me (Ase me, ase me)
07. Why my neighbor girl (Giati kale gitonisa)
08. Your blue windows (Ta ble parathira sou)
09. I sit in a wagon (S' ena vagoni kathome)
10. I try not to go mad (Na mi mou stripsoun ta miala)
11. Blame on your brothers (Anathema ta adelfia sou)
12. Why, my little girl (Giati mikroula mou)

Exact Audio Copy V1.0 beta 1 from 15. November 2010

EAC extraction logfile from 8. August 2011, 11:32

Πρόδρομος Τσαουσάκης / Οι Αυθεντικές Φωνές του Λαϊκού Τραγουδιού

Used drive : HL-DT-STDVDRAM GH10N Adapter: 3 ID: 0

Read mode : Secure
Utilize accurate stream : Yes
Defeat audio cache : Yes
Make use of C2 pointers : No

Read offset correction : 667
Overread into Lead-In and Lead-Out : No
Fill up missing offset samples with silence : Yes
Delete leading and trailing silent blocks : No
Null samples used in CRC calculations : Yes
Used interface : Native Win32 interface for Win NT & 2000

Used output format : User Defined Encoder
Selected bitrate : 1024 kBit/s
Quality : High
Add ID3 tag : No
Command line compressor : C:\Program Files\FLAC\flac.exe
Additional command line options : -V -5 -T "artist=%a" -T "title=%t" -T "album=%g" -T "date=%y" -T "tracknumber=%n" -T "genre=%m" -5 %s


TOC of the extracted CD

Track | Start | Length | Start sector | End sector
––––––––––––––––––––––––––––-
1 | 0:00.00 | 3:06.02 | 0 | 13951
2 | 3:06.02 | 3:50.35 | 13952 | 31236
3 | 6:56.37 | 3:17.68 | 31237 | 46079
4 | 10:14.30 | 2:43.56 | 46080 | 58360
5 | 12:58.11 | 3:00.43 | 58361 | 71903
6 | 15:58.54 | 4:20.29 | 71904 | 91432
7 | 20:19.08 | 2:55.58 | 91433 | 104615
8 | 23:14.66 | 2:16.54 | 104616 | 114869
9 | 25:31.45 | 2:10.06 | 114870 | 124625
10 | 27:41.51 | 2:39.63 | 124626 | 136613
11 | 30:21.39 | 3:35.00 | 136614 | 152738
12 | 33:56.39 | 2:45.26 | 152739 | 165139


Range status and errors

Selected range

Filename U:\EAC Rips\GREEK\Aythentikes Fones Laikou\CD5 - Prodromos Tsaousakis\Πρόδρομος Τσαουσάκης - Οι Αυθεντικές Φωνές του Λαϊκού Τραγουδιού.wav

Peak level 97.7 %
Extraction speed 0.4 X
Range quality 100.0 %
Copy CRC 95065A34
Copy OK

No errors occurred


AccurateRip summary

Track 1 not present in database
Track 2 not present in database
Track 3 not present in database
Track 4 not present in database
Track 5 not present in database
Track 6 not present in database
Track 7 not present in database
Track 8 not present in database
Track 9 not present in database
Track 10 not present in database
Track 11 not present in database
Track 12 not present in database

None of the tracks are present in the AccurateRip database

End of status report

==== Log checksum 7F742CB4577EA5991C2893DC02337FCFEEBFEE2372E9717818F1351AC24F942C ====

V.A. - The authentic voices of the greek laiko song (10CD, 2013)

CD06:Alexandra (49:55 | ~ 343 Mb & 118 Mb)

TRACKLIST
01. Seashores-evenings (Akrogialies-dilina)
02. I will brake cups (Tha spaso koupes)
03. The ship (To karavi)
04. The doll of the neighborhood (To koukli tis gitonias)
05. A passing guy (Enas diavatis)
06. The hands of the strangers (Ta xena heria)
07. Gipsy girl through the cards (Rixe tsigana ta hartia)
08. Don't pass again (Min xanapernas)
09. Don't bother (Ti se meli esena)
10. Besiege (Poliorkia)
11. My sweetheart (Manaki mou)
12. Nun (Kalogria)
13. How the evening is going to pass (Pos tha perasi i vradia)
14. Nostalgia (Nostalgia)
15. Our love (I diki mas i agapi)
16. The path (To monopati)

Exact Audio Copy V1.0 beta 1 from 15. November 2010

EAC extraction logfile from 13. August 2011, 18:13

Alexandra / Afthentikes Fwnes Laikou CD6

Used drive : HL-DT-STDVDRAM GH10N Adapter: 3 ID: 0

Read mode : Secure
Utilize accurate stream : Yes
Defeat audio cache : Yes
Make use of C2 pointers : No

Read offset correction : 667
Overread into Lead-In and Lead-Out : No
Fill up missing offset samples with silence : Yes
Delete leading and trailing silent blocks : No
Null samples used in CRC calculations : Yes
Used interface : Native Win32 interface for Win NT & 2000

Used output format : User Defined Encoder
Selected bitrate : 1024 kBit/s
Quality : High
Add ID3 tag : No
Command line compressor : C:\Program Files\FLAC\flac.exe
Additional command line options : -V -5 -T "artist=%a" -T "title=%t" -T "album=%g" -T "date=%y" -T "tracknumber=%n" -T "genre=%m" -5 %s


TOC of the extracted CD

Track | Start | Length | Start sector | End sector
––––––––––––––––––––––––––––-
1 | 0:00.00 | 3:17.55 | 0 | 14829
2 | 3:17.55 | 2:47.26 | 14830 | 27380
3 | 6:05.06 | 3:08.50 | 27381 | 41530
4 | 9:13.56 | 3:05.19 | 41531 | 55424
5 | 12:19.00 | 3:13.02 | 55425 | 69901
6 | 15:32.02 | 3:44.22 | 69902 | 86723
7 | 19:16.24 | 3:01.63 | 86724 | 100361
8 | 22:18.12 | 3:01.54 | 100362 | 113990
9 | 25:19.66 | 2:59.62 | 113991 | 127477
10 | 28:19.53 | 3:00.18 | 127478 | 140995
11 | 31:19.71 | 2:58.35 | 140996 | 154380
12 | 34:18.31 | 2:49.43 | 154381 | 167098
13 | 37:07.74 | 2:46.36 | 167099 | 179584
14 | 39:54.35 | 3:11.32 | 179585 | 193941
15 | 43:05.67 | 3:14.21 | 193942 | 208512
16 | 46:20.13 | 3:34.68 | 208513 | 224630


Range status and errors

Selected range

Filename U:\EAC Rips\GREEK\Aythentikes Fones Laikou\CD6 - Alexandra\Alexandra - Afthentikes Fwnes Laikou CD6.wav

Peak level 99.9 %
Extraction speed 0.2 X
Range quality 100.0 %
Copy CRC AEB00B5D
Copy OK

No errors occurred


AccurateRip summary

Track 1 not present in database
Track 2 not present in database
Track 3 not present in database
Track 4 not present in database
Track 5 not present in database
Track 6 not present in database
Track 7 not present in database
Track 8 not present in database
Track 9 not present in database
Track 10 not present in database
Track 11 not present in database
Track 12 not present in database
Track 13 not present in database
Track 14 not present in database
Track 15 not present in database
Track 16 not present in database

None of the tracks are present in the AccurateRip database

End of status report

==== Log checksum DFC3D00583C70590C40A922CD01974A79359D8A76C36C6838A8AFD7146EDB32D ====

V.A. - The authentic voices of the greek laiko song (10CD, 2013)

CD07:Dimitris Efstathiou (47:23 | ~ 315 Mb & 108 Mb)

TRACKLIST
01. Work creates the men (I doulia kani tous antres)
02. The ship from Iran (To vapori ap' tin Persia)
03. The black kompoloi (To mavro kompoloi)
04. I was lost for the seek of a woman (Gia mia gineka hathika)
05. Hemp trees (Kanavouries)
06. Under the chicory plant (Kato ap' to radiki)
07. The procession of the tough guy (I litania tou magka)
08. When I'll die on the ship (San pethano sto karavi)
09. Don't challenge me (Mi mou patate to zonari)
10. The sober (O harmanis)
11. I've lost it all at a dice game (Mou ta fagane sta zaria)
12. They met charon (Ton haro ton antamosan)
13. Your tramp my lady (To alani sou kira mou)
14. I am amazed (Vre ti mou les)
15. A tramp died (Enas alitis ehi pethani)
16. They are after our hookah (Mas kinigoun ton argile)

Exact Audio Copy V1.0 beta 1 from 15. November 2010

EAC extraction logfile from 20. August 2011, 9:57

Dimitris Efstathiou / Afthentikes Fwnes CD7

Used drive : HL-DT-STDVDRAM GH10N Adapter: 3 ID: 0

Read mode : Secure
Utilize accurate stream : Yes
Defeat audio cache : Yes
Make use of C2 pointers : No

Read offset correction : 667
Overread into Lead-In and Lead-Out : No
Fill up missing offset samples with silence : Yes
Delete leading and trailing silent blocks : No
Null samples used in CRC calculations : Yes
Used interface : Native Win32 interface for Win NT & 2000

Used output format : User Defined Encoder
Selected bitrate : 1024 kBit/s
Quality : High
Add ID3 tag : No
Command line compressor : C:\Program Files\FLAC\flac.exe
Additional command line options : -V -5 -T "artist=%a" -T "title=%t" -T "album=%g" -T "date=%y" -T "tracknumber=%n" -T "genre=%m" -5 %s


TOC of the extracted CD

Track | Start | Length | Start sector | End sector
––––––––––––––––––––––––––––-
1 | 0:00.00 | 2:08.30 | 0 | 9629
2 | 2:08.30 | 3:07.06 | 9630 | 23660
3 | 5:15.36 | 2:55.36 | 23661 | 36821
4 | 8:10.72 | 3:06.39 | 36822 | 50810
5 | 11:17.36 | 2:36.26 | 50811 | 62536
6 | 13:53.62 | 2:17.25 | 62537 | 72836
7 | 16:11.12 | 2:59.56 | 72837 | 86317
8 | 19:10.68 | 3:18.29 | 86318 | 101196
9 | 22:29.22 | 2:32.71 | 101197 | 112667
10 | 25:02.18 | 2:44.20 | 112668 | 124987
11 | 27:46.38 | 2:55.56 | 124988 | 138168
12 | 30:42.19 | 4:06.01 | 138169 | 156619
13 | 34:48.20 | 2:52.17 | 156620 | 169536
14 | 37:40.37 | 4:28.07 | 169537 | 189643
15 | 42:08.44 | 2:54.61 | 189644 | 202754
16 | 45:03.30 | 2:20.05 | 202755 | 213259


Range status and errors

Selected range

Filename U:\EAC Rips\GREEK\Aythentikes Fones Laikou\CD7 - Dimitris Efstathiou\Dimitris Efstathiou - Afthentikes Fwnes CD7.wav

Peak level 98.7 %
Extraction speed 0.2 X
Range quality 99.9 %
Copy CRC B09EE12F
Copy OK

No errors occurred


AccurateRip summary

Track 1 not present in database
Track 2 not present in database
Track 3 not present in database
Track 4 not present in database
Track 5 not present in database
Track 6 not present in database
Track 7 not present in database
Track 8 not present in database
Track 9 not present in database
Track 10 not present in database
Track 11 not present in database
Track 12 not present in database
Track 13 not present in database
Track 14 not present in database
Track 15 not present in database
Track 16 not present in database

None of the tracks are present in the AccurateRip database

End of status report

==== Log checksum 0A790A6665FDC62403DEFA69EF0F3B9A0CBD88871333486F0E63571DFBF293EA ====

V.A. - The authentic voices of the greek laiko song (10CD, 2013)

CD08:Keti Dali (59:46 | ~ 389 Mb & 138 Mb)

TRACKLIST
01. Don't ever leave me again (Mi mou xanafigis pia)
02. Street's guy (Pedi tou dromou)
03. The guilt (I enohi)
04. The waiter (To gkarsoni)
05. High end junkies (Prigkipomastourides)
06. Wrong plans (Horis ton xenodoho logariazame)
07. An eye for an eye (Maheran edoses)
08. Trusty woman (Derbederissa)
09. It is late (Ine arga)
10. You left without asking (Efiges horis na me rotisis)
11. Your sin (To diko sou amartima)
12. Complaining heart (Kardia paraponiara)
13. Hemp trees (Kanavouries)
14. The mountain (To vouno)
15. I never love (Ego pote den agapo)
16. I've loved and I've hated (Agapisa ke misisa)

Exact Audio Copy V1.0 beta 1 from 15. November 2010

EAC extraction logfile from 27. August 2011, 13:20

Kaiti Ntali / Afthentikes Fones Laikou CD8

Used drive : HL-DT-STDVDRAM GH10N Adapter: 3 ID: 0

Read mode : Secure
Utilize accurate stream : Yes
Defeat audio cache : Yes
Make use of C2 pointers : No

Read offset correction : 667
Overread into Lead-In and Lead-Out : No
Fill up missing offset samples with silence : Yes
Delete leading and trailing silent blocks : No
Null samples used in CRC calculations : Yes
Used interface : Native Win32 interface for Win NT & 2000

Used output format : User Defined Encoder
Selected bitrate : 1024 kBit/s
Quality : High
Add ID3 tag : No
Command line compressor : C:\Program Files\FLAC\flac.exe
Additional command line options : -V -5 -T "artist=%a" -T "title=%t" -T "album=%g" -T "date=%y" -T "tracknumber=%n" -T "genre=%m" -5 %s


TOC of the extracted CD

Track | Start | Length | Start sector | End sector
––––––––––––––––––––––––––––-
1 | 0:00.00 | 5:03.49 | 0 | 22773
2 | 5:03.49 | 4:00.15 | 22774 | 40788
3 | 9:03.64 | 4:09.24 | 40789 | 59487
4 | 13:13.13 | 4:16.10 | 59488 | 78697
5 | 17:29.23 | 3:45.45 | 78698 | 95617
6 | 21:14.68 | 3:35.51 | 95618 | 111793
7 | 24:50.44 | 4:25.74 | 111794 | 131742
8 | 29:16.43 | 4:11.12 | 131743 | 150579
9 | 33:27.55 | 2:42.51 | 150580 | 162780
10 | 36:10.31 | 2:55.61 | 162781 | 175966
11 | 39:06.17 | 3:29.05 | 175967 | 191646
12 | 42:35.22 | 3:48.65 | 191647 | 208811
13 | 46:24.12 | 2:37.70 | 208812 | 220656
14 | 49:02.07 | 3:32.16 | 220657 | 236572
15 | 52:34.23 | 3:14.17 | 236573 | 251139
16 | 55:48.40 | 3:58.04 | 251140 | 268993


Range status and errors

Selected range

Filename U:\EAC Rips\GREEK\Aythentikes Fones Laikou\CD8 - Kaith Ntalh\Kaiti Ntali - Afthentikes Fones Laikou CD8.wav

Peak level 99.9 %
Extraction speed 0.3 X
Range quality 100.0 %
Copy CRC F5FDB677
Copy OK

No errors occurred


AccurateRip summary

Track 1 not present in database
Track 2 not present in database
Track 3 not present in database
Track 4 not present in database
Track 5 not present in database
Track 6 not present in database
Track 7 not present in database
Track 8 not present in database
Track 9 not present in database
Track 10 not present in database
Track 11 not present in database
Track 12 not present in database
Track 13 not present in database
Track 14 not present in database
Track 15 not present in database
Track 16 not present in database

None of the tracks are present in the AccurateRip database

End of status report

==== Log checksum 2D0532F88F960A116CC70BD0B455E6C76A8AFB7175516E9CDDCA61E586A620FA ====

V.A. - The authentic voices of the greek laiko song (10CD, 2013)

CD09:Takis Mpinis (50:18 | ~ 327 Mb & 113 Mb)

TRACKLIST
01. The sky is full of smoke (Ntoumaniase o ouranos)
02. Our God (Pater imon)
03. Obviously in secret (Zoula averta fanera)
04. I am miserable away from home (Sernoume sta xena)
05. At Pireaus' port (Stou Pirea to limani)
06. If you'll treat me right (An mou ferthis analoga)
07. Sunk dreams (Onira navagismena)
08. I will change way now (Tora th' alaxo pia violi)
09. Sweet dominating woman (Glikia satrapisa)
10. Look at your shame (San den kitas tin tifla sou)
11. At the staircases of the neighborhood (Stis gitonias tis skales)
12. The snitch won't pull off (To karfi de tha glitosi)
13. Drunk, out of law and sleepless (Pioto, paranomia ke xenihti)
14. All wrong (Koutsa, strava ki' anapoda)
15. In the sack with the cat (Sto tsouvali me ti gata)
16. Detailed work (Psilovelonia doulevis)

Exact Audio Copy V1.0 beta 1 from 15. November 2010

EAC extraction logfile from 3. September 2011, 8:56

Takis Mpinis / Aythentikes fwnes laikou CD9

Used drive : HL-DT-STDVDRAM GH10N Adapter: 3 ID: 0

Read mode : Secure
Utilize accurate stream : Yes
Defeat audio cache : Yes
Make use of C2 pointers : No

Read offset correction : 667
Overread into Lead-In and Lead-Out : No
Fill up missing offset samples with silence : Yes
Delete leading and trailing silent blocks : No
Null samples used in CRC calculations : Yes
Used interface : Native Win32 interface for Win NT & 2000

Used output format : User Defined Encoder
Selected bitrate : 1024 kBit/s
Quality : High
Add ID3 tag : No
Command line compressor : C:\Program Files\FLAC\flac.exe
Additional command line options : -V -5 -T "artist=%a" -T "title=%t" -T "album=%g" -T "date=%y" -T "tracknumber=%n" -T "genre=%m" -5 %s


TOC of the extracted CD

Track | Start | Length | Start sector | End sector
––––––––––––––––––––––––––––-
1 | 0:00.00 | 3:08.45 | 0 | 14144
2 | 3:08.45 | 3:00.33 | 14145 | 27677
3 | 6:09.03 | 2:57.47 | 27678 | 40999
4 | 9:06.50 | 3:50.27 | 41000 | 58276
5 | 12:57.02 | 3:17.69 | 58277 | 73120
6 | 16:14.71 | 3:39.05 | 73121 | 89550
7 | 19:54.01 | 5:10.65 | 89551 | 112865
8 | 25:04.66 | 2:22.26 | 112866 | 123541
9 | 27:27.17 | 2:26.37 | 123542 | 134528
10 | 29:53.54 | 3:10.65 | 134529 | 148843
11 | 33:04.44 | 2:52.26 | 148844 | 161769
12 | 35:56.70 | 2:13.30 | 161770 | 171774
13 | 38:10.25 | 2:55.21 | 171775 | 184920
14 | 41:05.46 | 2:32.41 | 184921 | 196361
15 | 43:38.12 | 3:41.22 | 196362 | 212958
16 | 47:19.34 | 2:58.52 | 212959 | 226360


Range status and errors

Selected range

Filename U:\EAC Rips\GREEK\Aythentikes Fones Laikou\CD09 - Takis Mpinis\Takis Mpinis - Aythentikes fwnes laikou CD9.wav

Peak level 97.7 %
Extraction speed 0.3 X
Range quality 99.9 %
Copy CRC 9A8A9F4D
Copy OK

No errors occurred


AccurateRip summary

Track 1 not present in database
Track 2 not present in database
Track 3 not present in database
Track 4 not present in database
Track 5 not present in database
Track 6 not present in database
Track 7 not present in database
Track 8 not present in database
Track 9 not present in database
Track 10 not present in database
Track 11 not present in database
Track 12 not present in database
Track 13 not present in database
Track 14 not present in database
Track 15 not present in database
Track 16 not present in database

None of the tracks are present in the AccurateRip database

End of status report

==== Log checksum 91445BE4AAC4E6E378D2C7C8041987D5F9C23CE8D7023111382D810C2474F2D5 ====

V.A. - The authentic voices of the greek laiko song (10CD, 2013)

CD10:Poly Panou (1:00:03 | ~ 430 Mb & 140 Mb)

TRACKLIST
01. Am I the reason that you get drunk (Ti sou 'kana ke pinis)
02. The net (To dihti)
03. A ship from Pireaus (Ena karavi ap' ton Perea)
04. The luxurious car (I coursa)
05. Down at Passalimani (Kato sto Passalimani)
06. Red lanterns (Kokina fanaria)
07. My God what eyes (Panagia mou kati matia)
08. A morning in Pireaus (Kapio proino ston Pirea)
09. My love (Agapi mou)
10. Two friends from Pireaus (Dio fili Pireotes)
11. It is cloudy in Pireaus (Ston Pirea sinefiase)
12. Serah
13. From Zea's port (Ap' tis Zeas to limani)
14. The mountain (To vouno)
15. Come on dude (Trava re magka ke alani)
16. Come and be naughty (Ela na mpermpantepsis)

Exact Audio Copy V1.0 beta 1 from 15. November 2010

EAC extraction logfile from 10. September 2011, 10:26

Poly Panou / Afthentikes fwnes laikou

Used drive : HL-DT-STDVDRAM GH10N Adapter: 3 ID: 0

Read mode : Secure
Utilize accurate stream : Yes
Defeat audio cache : Yes
Make use of C2 pointers : No

Read offset correction : 667
Overread into Lead-In and Lead-Out : No
Fill up missing offset samples with silence : Yes
Delete leading and trailing silent blocks : No
Null samples used in CRC calculations : Yes
Used interface : Native Win32 interface for Win NT & 2000

Used output format : User Defined Encoder
Selected bitrate : 1024 kBit/s
Quality : High
Add ID3 tag : No
Command line compressor : C:\Program Files\FLAC\flac.exe
Additional command line options : -V -5 -T "artist=%a" -T "title=%t" -T "album=%g" -T "date=%y" -T "tracknumber=%n" -T "genre=%m" -5 %s


TOC of the extracted CD

Track | Start | Length | Start sector | End sector
––––––––––––––––––––––––––––-
1 | 0:00.00 | 2:21.41 | 0 | 10615
2 | 2:21.41 | 4:56.34 | 10616 | 32849
3 | 7:18.00 | 3:52.13 | 32850 | 50262
4 | 11:10.13 | 3:21.42 | 50263 | 65379
5 | 14:31.55 | 2:29.11 | 65380 | 76565
6 | 17:00.66 | 5:15.35 | 76566 | 100225
7 | 22:16.26 | 3:18.33 | 100226 | 115108
8 | 25:34.59 | 3:13.52 | 115109 | 129635
9 | 28:48.36 | 3:07.41 | 129636 | 143701
10 | 31:56.02 | 3:23.02 | 143702 | 158928
11 | 35:19.04 | 3:10.51 | 158929 | 173229
12 | 38:29.55 | 5:18.00 | 173230 | 197079
13 | 43:47.55 | 2:49.25 | 197080 | 209779
14 | 46:37.05 | 6:49.61 | 209780 | 240515
15 | 53:26.66 | 3:25.64 | 240516 | 255954
16 | 56:52.55 | 3:10.21 | 255955 | 270225


Range status and errors

Selected range

Filename U:\EAC Rips\GREEK\Aythentikes Fones Laikou\CD10 - Poly Panou\Poly Panou - Afthentikes fwnes laikou.wav

Peak level 97.7 %
Extraction speed 0.1 X
Range quality 100.0 %
Test CRC 26A1B102
Copy CRC 26A1B102
Copy OK

No errors occurred


AccurateRip summary

Track 1 not present in database
Track 2 not present in database
Track 3 not present in database
Track 4 not present in database
Track 5 not present in database
Track 6 not present in database
Track 7 not present in database
Track 8 not present in database
Track 9 not present in database
Track 10 not present in database
Track 11 not present in database
Track 12 not present in database
Track 13 not present in database
Track 14 not present in database
Track 15 not present in database
Track 16 not present in database

None of the tracks are present in the AccurateRip database

End of status report

==== Log checksum 749B43A169F1D50A85DBF435A5DEE3FAC2206FF1A1745AE07F0F0DF68ED42EC2 ====