Subcategories

Babatunde Olatunji - Drums Of Passion And More (1959-66) {4CD Box Set Bear Family Records BCD 15 747 DI rel 1994}

Posted By: ruskaval
Babatunde Olatunji - Drums Of Passion And More (1959-66) {4CD Box Set Bear Family Records BCD 15 747 DI rel 1994}

Babatunde Olatunji - Drums Of Passion And More (1959-66) {4CD Box Set Bear Family Records BCD 15 747 DI rel 1994}
EAC rip (secure mode) | FLAC (tracks)+CUE+LOG -> 1.54 Gb | MP3 @320 -> 578 Mb
Full Artwork @ 300 dpi (jpg) -> 48 Mb | 5% repair rar
© 1959-66, 1994 Bear Family Records | BCD 15 747 DI
World Music / African Folk / Worldbeat / African Traditions / World Fusion

Having come to the U.S. from his native Nigeria to study medicine, percussionist Babatunde Olatunji eventually became one of the first African music stars in the States. He also soon counted jazz heavyweights like John Coltrane ("Tunji") and Dizzy Gillespie among his admirers (Gillespie had, a decade earlier, also courted many Cuban music stars via his trailblazing Latin jazz recordings). And, in spite of it being viewed by some as a symbol of African chic, Drums of Passion is still a substantial record thanks to Olatunji's complex and raw drumming.
Babatunde Olatunji - Drums Of Passion And More (1959-66) {4CD Box Set Bear Family Records BCD 15 747 DI rel 1994}

Along with a cadre of backup singers and two other percussionists, Olatunji works through eight traditional drum and chorus cuts originally used to celebrate a variety of things in Nigeria: "Akiwowo" and "Shango" are chants to a train conductor and the God of Thunder, respectively, while "Baba Jinde" is a celebration of the dance of flirtation and "Odun De! Odun De!" serves as a New Year's greeting. The choruses do sound a bit overwrought and even too slick at times (partly due to the fact that most of the singers are not African), but thankfully the drumming is never less than engaging. The many curious world music fans who are likely to check this album out should also be sure to look into even better African drumming by native groups like the Drummers of Burundi and the percussion outfits featured on various field recordings.
Babatunde Olatunji - Drums Of Passion And More (1959-66) {4CD Box Set Bear Family Records BCD 15 747 DI rel 1994}

This is an excellent collector's set. Complete with 24 page booklet containing authoratative writing on the music, discography, and rare photos from original recording sessions. It speaks volumes about the youth-culture driven recording industry in the U.S. (and perhaps the mark of a major cultural difference regarding the importance of music to society) that this difinitive collection of Olatunji's recordings was produced by a German label that does not even specialize in African or World Beat music. The owner of the label was so taken by Olatunji's music it became his pet project to do the box set so it is thorough, well designed and will more than satisfy the archivist as well as the fan. The box set includes rare singles ('Lady Kennedy', written and performed for Jackie at a democratic fundraiser in the 60's) along with all the full-length recordings for the major U.S. labels. Because of multi-instrumentation centered on drums and percussion, which even today with advances in technology remain a challenge to record, and because of the technique of recording 'live' much of the collection resonates with an historical timbre.
Babatunde Olatunji - Drums Of Passion And More (1959-66) {4CD Box Set Bear Family Records BCD 15 747 DI rel 1994}


Olatunji is the original, historic figure who brought traditional African music to the commercial record industry at a time when rock'n'roll was about to transform it. His recording career began in 1959 and as of 2002 he was still a working musician. The appeal and influence of his music was broad based, leading top jazz musicians as well as popular music artists from Coltrane to Dylan, Dizzy Gillespie to Joan Baez and Carlos Santana, to take serious notice. This is music that is undeniably powerful, moody, exhilarating and joyous, qualities artists sought to achieve in every genre, and qualities that easily make any music a hit with record buyers. It is evident one of Olatunji's greater talents was in bringing together large and small ensembles to present African music as a very positive artistic force. Because of his wide range of activities as musician, cultural ambassador, teacher, cultural activist, there will be more efforts that will seek to collect his work. But this is the first. It is extremely well done, and way overdue.
Babatunde Olatunji - Drums Of Passion And More (1959-66) {4CD Box Set Bear Family Records BCD 15 747 DI rel 1994}


tracklist:
CD1 - 1959

01 - Menu De Ge Ogbener
02 - Odun De Odun De
03 - Odun De Odun De
04 - Kiyakiya
05 - Jin-Go-Lo-Ba
06 - Oyin Momo Ado
07 - Oya
08 - Shango
09 - Akiwowo
10 - Baba Jinde
11 - Jolly Mensah
12 - Philistine
13 - Masque Dance
14 - Ajua

Babatunde Olatunji - Drums Of Passion And More (1959-66) {4CD Box Set Bear Family Records BCD 15 747 DI rel 1994}


CD2 - 1961
01 - Zungo
02 - Menu Diyeh
03 - Gelewenwe
04 - Jolly Mensah
05 - Eskum Buka Wa-Ya
06 - Jolly Mensah
07 - Lumumba
08 - Abana
09 - African Spiritual
10 - World Without End
11 - Eyo She-She
12 - Uhuru
13 - Hail The King
14 - Adofo
15 - Hail The King
16 - Mystery Of Love

Babatunde Olatunji - Drums Of Passion And More (1959-66) {4CD Box Set Bear Family Records BCD 15 747 DI rel 1994}


CD3 - 1962
01 - Saturday Night Limbo
02 - Lady Kennedy
03 - Eyo-Sese
04 - Ashafa
05 - Ojo Davis
06 - Bo-Su-Aye
07 - Someday
08 - Saturday Night Limbo
09 - African Waltz
10 - Totofioko
11 - Dye Ko Dide

Babatunde Olatunji - Drums Of Passion And More (1959-66) {4CD Box Set Bear Family Records BCD 15 747 DI rel 1994}


CD4 - 1964
01 - Ayinde
02 - Omo Pupa
03 - Bethelehemu
04 - Alose
05 - Ire Dodo Ye
06 - Frekoba
07 - Wasalu
08 - Mbira

Babatunde Olatunji - Drums Of Passion And More (1959-66) {4CD Box Set Bear Family Records BCD 15 747 DI rel 1994}


Exact Audio Copy V0.99 prebeta 5 from 4. May 2009

EAC extraction logfile from 19. November 2009, 7:17

Babatunde Olatunji / Drums Of Passion And More

Used drive : TSSTcorpCDDVDW SH-S203N Adapter: 0 ID: 2

Read mode : Secure
Utilize accurate stream : Yes
Defeat audio cache : Yes
Make use of C2 pointers : No

Read offset correction : 6
Overread into Lead-In and Lead-Out : No
Fill up missing offset samples with silence : Yes
Delete leading and trailing silent blocks : No
Null samples used in CRC calculations : Yes
Used interface : Installed external ASPI interface
Gap handling : Appended to previous track

Used output format : User Defined Encoder
Selected bitrate : 768 kBit/s
Quality : High
Add ID3 tag : No
Command line compressor : C:\Program Files\Exact Audio Copy\Flac\flac.exe
Additional command line options : -8 -V -T "ARTIST=%a" -T "TITLE=%t" -T "ALBUM=%g" -T "DATE=%y" -T "TRACKNUMBER=%n" -T "TOTALTRACKS=%x" -T "GENRE=%m" -T "ALBUMARTIST=%v" -T "ALBUM ARTIST=%v" -T "COMMENT=EAC V0.99 pb5, Secure Mode, Test & Copy, AccurateRip,


TOC of the extracted CD

Track | Start | Length | Start sector | End sector
––––––––––––––––––––––––––––-
1 | 0:00.00 | 2:39.47 | 0 | 11971
2 | 2:39.47 | 6:30.20 | 11972 | 41241
3 | 9:09.67 | 5:05.70 | 41242 | 64186
4 | 14:15.62 | 4:17.43 | 64187 | 83504
5 | 18:33.30 | 3:32.15 | 83505 | 99419
6 | 22:05.45 | 5:46.22 | 99420 | 125391
7 | 27:51.67 | 5:37.10 | 125392 | 150676
8 | 33:29.02 | 7:09.73 | 150677 | 182924
9 | 40:39.00 | 4:45.70 | 182925 | 204369
10 | 45:24.70 | 5:32.00 | 204370 | 229269
11 | 50:56.70 | 6:57.12 | 229270 | 260556
12 | 57:54.07 | 4:42.23 | 260557 | 281729
13 | 62:36.30 | 10:03.55 | 281730 | 327009
14 | 72:40.10 | 6:50.70 | 327010 | 357829


Track 1

Filename J:\New Rips\Babatunde Olatunji - Drums Of Passion And More (1959-66) [FLAC] {Bear Family}\disc 1of4\01 - Menu De Ge Ogbener.wav

Pre-gap length 0:00:02.00

Peak level 86.8 %
Track quality 100.0 %
Test CRC 02C93E6F
Copy CRC 02C93E6F
Accurately ripped (confidence 1) [C4E19FA0]
Copy OK

Track 2

Filename J:\New Rips\Babatunde Olatunji - Drums Of Passion And More (1959-66) [FLAC] {Bear Family}\disc 1of4\02 - Odun Dei Odun Dei.wav

Pre-gap length 0:00:03.56

Peak level 85.3 %
Track quality 100.0 %
Test CRC 0B574DF3
Copy CRC 0B574DF3
Accurately ripped (confidence 1) [0528DC54]
Copy OK

Track 3

Filename J:\New Rips\Babatunde Olatunji - Drums Of Passion And More (1959-66) [FLAC] {Bear Family}\disc 1of4\03 - Odun Dei Odun Dei Remake.wav

Pre-gap length 0:00:03.42

Peak level 85.2 %
Track quality 100.0 %
Test CRC 29EBDA3F
Copy CRC 29EBDA3F
Accurately ripped (confidence 1) [93BED5C3]
Copy OK

Track 4

Filename J:\New Rips\Babatunde Olatunji - Drums Of Passion And More (1959-66) [FLAC] {Bear Family}\disc 1of4\04 - Kiy Akiya.wav

Pre-gap length 0:00:03.69

Peak level 83.1 %
Track quality 100.0 %
Test CRC 67E4779D
Copy CRC 67E4779D
Accurately ripped (confidence 1) [3075C80E]
Copy OK

Track 5

Filename J:\New Rips\Babatunde Olatunji - Drums Of Passion And More (1959-66) [FLAC] {Bear Family}\disc 1of4\05 - Jin-Go-Lo-Ba.wav

Pre-gap length 0:00:03.64

Peak level 88.0 %
Track quality 99.9 %
Test CRC 5DEDCBDC
Copy CRC 5DEDCBDC
Accurately ripped (confidence 1) [BC7156E8]
Copy OK

Track 6

Filename J:\New Rips\Babatunde Olatunji - Drums Of Passion And More (1959-66) [FLAC] {Bear Family}\disc 1of4\06 - Oyin Momo Ado.wav

Pre-gap length 0:00:04.13

Peak level 89.8 %
Track quality 100.0 %
Test CRC 492E1403
Copy CRC 492E1403
Accurately ripped (confidence 1) [45BD6653]
Copy OK

Track 7

Filename J:\New Rips\Babatunde Olatunji - Drums Of Passion And More (1959-66) [FLAC] {Bear Family}\disc 1of4\07 - Oya.wav

Pre-gap length 0:00:03.33

Peak level 86.0 %
Track quality 100.0 %
Test CRC 683C8B28
Copy CRC 683C8B28
Accurately ripped (confidence 1) [0792E648]
Copy OK

Track 8

Filename J:\New Rips\Babatunde Olatunji - Drums Of Passion And More (1959-66) [FLAC] {Bear Family}\disc 1of4\08 - Shango.wav

Pre-gap length 0:00:03.80

Peak level 85.0 %
Track quality 100.0 %
Test CRC 645340D5
Copy CRC 645340D5
Accurately ripped (confidence 1) [2B36C382]
Copy OK

Track 9

Filename J:\New Rips\Babatunde Olatunji - Drums Of Passion And More (1959-66) [FLAC] {Bear Family}\disc 1of4\09 - Akiwowo.wav

Pre-gap length 0:00:03.44

Peak level 86.2 %
Track quality 100.0 %
Test CRC BAC8B838
Copy CRC BAC8B838
Accurately ripped (confidence 1) [95BBD9AE]
Copy OK

Track 10

Filename J:\New Rips\Babatunde Olatunji - Drums Of Passion And More (1959-66) [FLAC] {Bear Family}\disc 1of4\10 - Baba Jinde.wav

Pre-gap length 0:00:03.50

Peak level 83.5 %
Track quality 100.0 %
Test CRC E60ED9C7
Copy CRC E60ED9C7
Accurately ripped (confidence 1) [6A7EE144]
Copy OK

Track 11

Filename J:\New Rips\Babatunde Olatunji - Drums Of Passion And More (1959-66) [FLAC] {Bear Family}\disc 1of4\11 - Jolly Mensah.wav

Pre-gap length 0:00:02.44

Peak level 81.3 %
Track quality 100.0 %
Test CRC 11F737E9
Copy CRC 11F737E9
Accurately ripped (confidence 1) [D5F0C7B4]
Copy OK

Track 12

Filename J:\New Rips\Babatunde Olatunji - Drums Of Passion And More (1959-66) [FLAC] {Bear Family}\disc 1of4\12 - Philistine.wav

Pre-gap length 0:00:03.09

Peak level 93.7 %
Track quality 100.0 %
Test CRC 04E0D288
Copy CRC 04E0D288
Accurately ripped (confidence 1) [AFC9379B]
Copy OK

Track 13

Filename J:\New Rips\Babatunde Olatunji - Drums Of Passion And More (1959-66) [FLAC] {Bear Family}\disc 1of4\13 - Masque Dance.wav

Pre-gap length 0:00:03.00

Peak level 90.6 %
Track quality 100.0 %
Test CRC 29124F8B
Copy CRC 29124F8B
Accurately ripped (confidence 1) [2469303F]
Copy OK

Track 14

Filename J:\New Rips\Babatunde Olatunji - Drums Of Passion And More (1959-66) [FLAC] {Bear Family}\disc 1of4\14 - Ajua.wav

Pre-gap length 0:00:01.97

Peak level 87.2 %
Track quality 100.0 %
Test CRC D0AFE3F1
Copy CRC D0AFE3F1
Accurately ripped (confidence 1) [9E423701]
Copy OK


All tracks accurately ripped

No errors occurred

End of status report

Exact Audio Copy V0.99 prebeta 5 from 4. May 2009

EAC extraction logfile from 20. November 2009, 7:56

Babatunde Olatunji / Drums Of Passion And More

Used drive : TSSTcorpCDDVDW SH-S203N Adapter: 0 ID: 2

Read mode : Secure
Utilize accurate stream : Yes
Defeat audio cache : Yes
Make use of C2 pointers : No

Read offset correction : 6
Overread into Lead-In and Lead-Out : No
Fill up missing offset samples with silence : Yes
Delete leading and trailing silent blocks : No
Null samples used in CRC calculations : Yes
Used interface : Installed external ASPI interface
Gap handling : Appended to previous track

Used output format : User Defined Encoder
Selected bitrate : 768 kBit/s
Quality : High
Add ID3 tag : No
Command line compressor : C:\Program Files\Exact Audio Copy\Flac\flac.exe
Additional command line options : -8 -V -T "ARTIST=%a" -T "TITLE=%t" -T "ALBUM=%g" -T "DATE=%y" -T "TRACKNUMBER=%n" -T "TOTALTRACKS=%x" -T "GENRE=%m" -T "ALBUMARTIST=%v" -T "ALBUM ARTIST=%v" -T "COMMENT=EAC V0.99 pb5, Secure Mode, Test & Copy, AccurateRip,


TOC of the extracted CD

Track | Start | Length | Start sector | End sector
––––––––––––––––––––––––––––-
1 | 0:00.00 | 4:16.40 | 0 | 19239
2 | 4:16.40 | 5:49.37 | 19240 | 45451
3 | 10:06.02 | 4:26.20 | 45452 | 65421
4 | 14:32.22 | 7:04.68 | 65422 | 97289
5 | 21:37.15 | 5:14.22 | 97290 | 120861
6 | 26:51.37 | 2:59.10 | 120862 | 134296
7 | 29:50.47 | 3:15.50 | 134297 | 148971
8 | 33:06.22 | 4:15.25 | 148972 | 168121
9 | 37:21.47 | 2:55.10 | 168122 | 181256
10 | 40:16.57 | 5:54.45 | 181257 | 207851
11 | 46:11.27 | 2:59.10 | 207852 | 221286
12 | 49:10.37 | 4:10.55 | 221287 | 240091
13 | 53:21.17 | 10:15.73 | 240092 | 286289
14 | 63:37.15 | 3:38.60 | 286290 | 302699
15 | 67:16.00 | 6:22.35 | 302700 | 331384
16 | 73:38.35 | 3:08.32 | 331385 | 345516


Track 1

Filename J:\New Rips\Babatunde Olatunji - Drums Of Passion And More (1959-66) [FLAC] {Bear Family}\disc 2of4\01 - Zungo.wav

Pre-gap length 0:00:02.00

Peak level 88.0 %
Track quality 100.0 %
Test CRC B5B8468B
Copy CRC B5B8468B
Accurately ripped (confidence 1) [104BB41F]
Copy OK

Track 2

Filename J:\New Rips\Babatunde Olatunji - Drums Of Passion And More (1959-66) [FLAC] {Bear Family}\disc 2of4\02 - Menu Diyeh.wav

Pre-gap length 0:00:03.24

Peak level 92.2 %
Track quality 100.0 %
Test CRC D32D7DDD
Copy CRC D32D7DDD
Accurately ripped (confidence 1) [4F07DD6C]
Copy OK

Track 3

Filename J:\New Rips\Babatunde Olatunji - Drums Of Passion And More (1959-66) [FLAC] {Bear Family}\disc 2of4\03 - Gelewenwe.wav

Pre-gap length 0:00:04.02

Peak level 95.6 %
Track quality 100.0 %
Test CRC 603672B9
Copy CRC 603672B9
Accurately ripped (confidence 1) [AE70DAA2]
Copy OK

Track 4

Filename J:\New Rips\Babatunde Olatunji - Drums Of Passion And More (1959-66) [FLAC] {Bear Family}\disc 2of4\04 - Jolly Mensah.wav

Pre-gap length 0:00:03.33

Peak level 84.2 %
Track quality 100.0 %
Test CRC F0FCA40C
Copy CRC F0FCA40C
Accurately ripped (confidence 1) [A04C16FA]
Copy OK

Track 5

Filename J:\New Rips\Babatunde Olatunji - Drums Of Passion And More (1959-66) [FLAC] {Bear Family}\disc 2of4\05 - Eskum Buka Wa-Ya.wav

Pre-gap length 0:00:03.90

Peak level 88.1 %
Track quality 100.0 %
Test CRC 428CBD95
Copy CRC 428CBD95
Accurately ripped (confidence 1) [01A83E56]
Copy OK

Track 6

Filename J:\New Rips\Babatunde Olatunji - Drums Of Passion And More (1959-66) [FLAC] {Bear Family}\disc 2of4\06 - Jolly Mensah.wav

Pre-gap length 0:00:04.02

Peak level 89.2 %
Track quality 100.0 %
Test CRC 3BB41CC6
Copy CRC 3BB41CC6
Accurately ripped (confidence 1) [4A5007E4]
Copy OK

Track 7

Filename J:\New Rips\Babatunde Olatunji - Drums Of Passion And More (1959-66) [FLAC] {Bear Family}\disc 2of4\07 - Lumumba.wav

Pre-gap length 0:00:03.89

Peak level 91.1 %
Track quality 100.0 %
Test CRC 68F0A2B6
Copy CRC 68F0A2B6
Accurately ripped (confidence 1) [B901E7B5]
Copy OK

Track 8

Filename J:\New Rips\Babatunde Olatunji - Drums Of Passion And More (1959-66) [FLAC] {Bear Family}\disc 2of4\08 - Abana.wav

Pre-gap length 0:00:03.73

Peak level 84.8 %
Track quality 99.9 %
Test CRC C78C82FD
Copy CRC C78C82FD
Accurately ripped (confidence 1) [C94129D2]
Copy OK

Track 9

Filename J:\New Rips\Babatunde Olatunji - Drums Of Passion And More (1959-66) [FLAC] {Bear Family}\disc 2of4\09 - African Spiritual.wav

Pre-gap length 0:00:03.60

Peak level 90.5 %
Track quality 100.0 %
Test CRC 622A3E4C
Copy CRC 622A3E4C
Accurately ripped (confidence 1) [B33DF790]
Copy OK

Track 10

Filename J:\New Rips\Babatunde Olatunji - Drums Of Passion And More (1959-66) [FLAC] {Bear Family}\disc 2of4\10 - World Without End.wav

Pre-gap length 0:00:03.66

Peak level 92.5 %
Track quality 100.0 %
Test CRC E6F4DEB0
Copy CRC E6F4DEB0
Accurately ripped (confidence 1) [D614EA29]
Copy OK

Track 11

Filename J:\New Rips\Babatunde Olatunji - Drums Of Passion And More (1959-66) [FLAC] {Bear Family}\disc 2of4\11 - Eyo She-She.wav

Pre-gap length 0:00:03.76

Peak level 85.3 %
Track quality 100.0 %
Test CRC BB03E35B
Copy CRC BB03E35B
Accurately ripped (confidence 1) [6A921FF0]
Copy OK

Track 12

Filename J:\New Rips\Babatunde Olatunji - Drums Of Passion And More (1959-66) [FLAC] {Bear Family}\disc 2of4\12 - Uhuru.wav

Pre-gap length 0:00:04.20

Peak level 85.9 %
Track quality 99.9 %
Test CRC D473ACDE
Copy CRC D473ACDE
Accurately ripped (confidence 1) [1289FE5F]
Copy OK

Track 13

Filename J:\New Rips\Babatunde Olatunji - Drums Of Passion And More (1959-66) [FLAC] {Bear Family}\disc 2of4\13 - Hail The King.wav

Pre-gap length 0:00:02.86

Peak level 87.6 %
Track quality 99.9 %
Test CRC 01151585
Copy CRC 01151585
Accurately ripped (confidence 1) [3C268259]
Copy OK

Track 14

Filename J:\New Rips\Babatunde Olatunji - Drums Of Passion And More (1959-66) [FLAC] {Bear Family}\disc 2of4\14 - Adofo.wav

Pre-gap length 0:00:03.80

Peak level 89.6 %
Track quality 99.9 %
Test CRC 91CF9ABC
Copy CRC 91CF9ABC
Accurately ripped (confidence 1) [6D838677]
Copy OK

Track 15

Filename J:\New Rips\Babatunde Olatunji - Drums Of Passion And More (1959-66) [FLAC] {Bear Family}\disc 2of4\15 - Hail The King.wav

Pre-gap length 0:00:03.57

Peak level 89.9 %
Track quality 100.0 %
Test CRC BB997459
Copy CRC BB997459
Accurately ripped (confidence 1) [A65F0762]
Copy OK

Track 16

Filename J:\New Rips\Babatunde Olatunji - Drums Of Passion And More (1959-66) [FLAC] {Bear Family}\disc 2of4\16 - Mystery Of Love.wav

Pre-gap length 0:00:03.57

Peak level 88.8 %
Track quality 100.0 %
Test CRC 9F2E8B57
Copy CRC 9F2E8B57
Accurately ripped (confidence 1) [10B28B1C]
Copy OK


All tracks accurately ripped

No errors occurred

End of status report

Exact Audio Copy V0.99 prebeta 5 from 4. May 2009

EAC extraction logfile from 21. November 2009, 12:46

Babatunde Olatunji / Drums Of Passion And More

Used drive : TSSTcorpCDDVDW SH-S203N Adapter: 0 ID: 2

Read mode : Secure
Utilize accurate stream : Yes
Defeat audio cache : Yes
Make use of C2 pointers : No

Read offset correction : 6
Overread into Lead-In and Lead-Out : No
Fill up missing offset samples with silence : Yes
Delete leading and trailing silent blocks : No
Null samples used in CRC calculations : Yes
Used interface : Installed external ASPI interface
Gap handling : Appended to previous track

Used output format : User Defined Encoder
Selected bitrate : 768 kBit/s
Quality : High
Add ID3 tag : No
Command line compressor : C:\Program Files\Exact Audio Copy\Flac\flac.exe
Additional command line options : -8 -V -T "ARTIST=%a" -T "TITLE=%t" -T "ALBUM=%g" -T "DATE=%y" -T "TRACKNUMBER=%n" -T "TOTALTRACKS=%x" -T "GENRE=%m" -T "ALBUMARTIST=%v" -T "ALBUM ARTIST=%v" -T "COMMENT=EAC V0.99 pb5, Secure Mode, Test & Copy, AccurateRip,


TOC of the extracted CD

Track | Start | Length | Start sector | End sector
––––––––––––––––––––––––––––-
1 | 0:00.00 | 2:48.30 | 0 | 12629
2 | 2:48.30 | 2:55.40 | 12630 | 25794
3 | 5:43.70 | 3:05.67 | 25795 | 39736
4 | 8:49.62 | 2:58.50 | 39737 | 53136
5 | 11:48.37 | 2:48.18 | 53137 | 65754
6 | 14:36.55 | 3:23.25 | 65755 | 81004
7 | 18:00.05 | 3:28.25 | 81005 | 96629
8 | 21:28.30 | 2:47.57 | 96630 | 109211
9 | 24:16.12 | 6:52.18 | 109212 | 140129
10 | 31:08.30 | 5:20.30 | 140130 | 164159
11 | 36:28.60 | 2:03.52 | 164160 | 173436


Track 1

Filename J:\New Rips\Babatunde Olatunji - Drums Of Passion And More (1959-66) [FLAC] {Bear Family}\disc 3of4\01 - Saturday Night Limbo.wav

Pre-gap length 0:00:02.00

Peak level 81.8 %
Track quality 100.0 %
Test CRC 6C185F1E
Copy CRC 6C185F1E
Accurately ripped (confidence 1) [4E579B90]
Copy OK

Track 2

Filename J:\New Rips\Babatunde Olatunji - Drums Of Passion And More (1959-66) [FLAC] {Bear Family}\disc 3of4\02 - Lady Kennedy.wav

Pre-gap length 0:00:03.33

Peak level 85.3 %
Track quality 100.0 %
Test CRC B050B856
Copy CRC B050B856
Accurately ripped (confidence 1) [6CB32E91]
Copy OK

Track 3

Filename J:\New Rips\Babatunde Olatunji - Drums Of Passion And More (1959-66) [FLAC] {Bear Family}\disc 3of4\03 - Eyo-Sese.wav

Pre-gap length 0:00:03.17

Peak level 84.1 %
Track quality 100.0 %
Test CRC 7AEC4E81
Copy CRC 7AEC4E81
Accurately ripped (confidence 1) [DBB017E8]
Copy OK

Track 4

Filename J:\New Rips\Babatunde Olatunji - Drums Of Passion And More (1959-66) [FLAC] {Bear Family}\disc 3of4\04 - Ashafa.wav

Pre-gap length 0:00:03.33

Peak level 81.4 %
Track quality 99.9 %
Test CRC 398B6868
Copy CRC 398B6868
Accurately ripped (confidence 1) [A8C9ED8F]
Copy OK

Track 5

Filename J:\New Rips\Babatunde Olatunji - Drums Of Passion And More (1959-66) [FLAC] {Bear Family}\disc 3of4\05 - Ojo Davis.wav

Pre-gap length 0:00:03.29

Peak level 82.3 %
Track quality 100.0 %
Test CRC C65273FD
Copy CRC C65273FD
Accurately ripped (confidence 1) [9F927D8C]
Copy OK

Track 6

Filename J:\New Rips\Babatunde Olatunji - Drums Of Passion And More (1959-66) [FLAC] {Bear Family}\disc 3of4\06 - Bo-Su-Aye.wav

Pre-gap length 0:00:03.50

Peak level 83.1 %
Track quality 100.0 %
Test CRC 85FBBF47
Copy CRC 85FBBF47
Accurately ripped (confidence 1) [3086A516]
Copy OK

Track 7

Filename J:\New Rips\Babatunde Olatunji - Drums Of Passion And More (1959-66) [FLAC] {Bear Family}\disc 3of4\07 - Someday.wav

Pre-gap length 0:00:03.46

Peak level 74.9 %
Track quality 100.0 %
Test CRC D5CD7E12
Copy CRC D5CD7E12
Accurately ripped (confidence 1) [772A4211]
Copy OK

Track 8

Filename J:\New Rips\Babatunde Olatunji - Drums Of Passion And More (1959-66) [FLAC] {Bear Family}\disc 3of4\08 - Saturday Night Limbo.wav

Pre-gap length 0:00:03.60

Peak level 86.5 %
Track quality 100.0 %
Test CRC C31141E5
Copy CRC C31141E5
Accurately ripped (confidence 1) [597E11C2]
Copy OK

Track 9

Filename J:\New Rips\Babatunde Olatunji - Drums Of Passion And More (1959-66) [FLAC] {Bear Family}\disc 3of4\09 - African Waltz.wav

Pre-gap length 0:00:03.33

Peak level 84.0 %
Track quality 100.0 %
Test CRC 54259340
Copy CRC 54259340
Accurately ripped (confidence 1) [2A735F44]
Copy OK

Track 10

Filename J:\New Rips\Babatunde Olatunji - Drums Of Passion And More (1959-66) [FLAC] {Bear Family}\disc 3of4\10 - Totofioko.wav

Pre-gap length 0:00:03.44

Peak level 84.7 %
Track quality 100.0 %
Test CRC 4401E419
Copy CRC 4401E419
Accurately ripped (confidence 1) [E320FB0A]
Copy OK

Track 11

Filename J:\New Rips\Babatunde Olatunji - Drums Of Passion And More (1959-66) [FLAC] {Bear Family}\disc 3of4\11 - Dye Ko Dide.wav

Pre-gap length 0:00:03.44

Peak level 86.7 %
Track quality 100.0 %
Test CRC 4FCEE2D8
Copy CRC 4FCEE2D8
Accurately ripped (confidence 1) [97E1B784]
Copy OK


All tracks accurately ripped

No errors occurred

End of status report

Exact Audio Copy V0.99 prebeta 5 from 4. May 2009

EAC extraction logfile from 21. November 2009, 17:34

Babatunde Olatunji / Drums Of Passion And More

Used drive : TSSTcorpCDDVDW SH-S203N Adapter: 0 ID: 2

Read mode : Secure
Utilize accurate stream : Yes
Defeat audio cache : Yes
Make use of C2 pointers : No

Read offset correction : 6
Overread into Lead-In and Lead-Out : No
Fill up missing offset samples with silence : Yes
Delete leading and trailing silent blocks : No
Null samples used in CRC calculations : Yes
Used interface : Installed external ASPI interface
Gap handling : Appended to previous track

Used output format : User Defined Encoder
Selected bitrate : 768 kBit/s
Quality : High
Add ID3 tag : No
Command line compressor : C:\Program Files\Exact Audio Copy\Flac\flac.exe
Additional command line options : -8 -V -T "ARTIST=%a" -T "TITLE=%t" -T "ALBUM=%g" -T "DATE=%y" -T "TRACKNUMBER=%n" -T "TOTALTRACKS=%x" -T "GENRE=%m" -T "ALBUMARTIST=%v" -T "ALBUM ARTIST=%v" -T "COMMENT=EAC V0.99 pb5, Secure Mode, Test & Copy, AccurateRip,


TOC of the extracted CD

Track | Start | Length | Start sector | End sector
––––––––––––––––––––––––––––-
1 | 0:00.00 | 6:58.07 | 0 | 31356
2 | 6:58.07 | 7:04.28 | 31357 | 63184
3 | 14:02.35 | 4:25.22 | 63185 | 83081
4 | 18:27.57 | 8:25.33 | 83082 | 120989
5 | 26:53.15 | 4:20.67 | 120990 | 140556
6 | 31:14.07 | 9:01.13 | 140557 | 181144
7 | 40:15.20 | 4:12.05 | 181145 | 200049
8 | 44:27.25 | 8:25.47 | 200050 | 237971


Track 1

Filename J:\New Rips\Babatunde Olatunji - Drums Of Passion And More (1959-66) [FLAC] {Bear Family}\disc 4of4\01 - Ayinde.wav

Pre-gap length 0:00:02.00

Peak level 87.5 %
Track quality 99.9 %
Test CRC A2F90F6B
Copy CRC A2F90F6B
Accurately ripped (confidence 1) [460A268B]
Copy OK

Track 2

Filename J:\New Rips\Babatunde Olatunji - Drums Of Passion And More (1959-66) [FLAC] {Bear Family}\disc 4of4\02 - Omo Pupa.wav

Pre-gap length 0:00:04.40

Peak level 79.7 %
Track quality 99.9 %
Test CRC BADE5CD1
Copy CRC BADE5CD1
Accurately ripped (confidence 1) [1D3F4EBB]
Copy OK

Track 3

Filename J:\New Rips\Babatunde Olatunji - Drums Of Passion And More (1959-66) [FLAC] {Bear Family}\disc 4of4\03 - Bethelehemu.wav

Pre-gap length 0:00:03.97

Peak level 72.9 %
Track quality 100.0 %
Test CRC 4169A1D7
Copy CRC 4169A1D7
Accurately ripped (confidence 1) [3567DE5C]
Copy OK

Track 4

Filename J:\New Rips\Babatunde Olatunji - Drums Of Passion And More (1959-66) [FLAC] {Bear Family}\disc 4of4\04 - Alose.wav

Pre-gap length 0:00:03.53

Peak level 89.5 %
Track quality 100.0 %
Test CRC B6EA7693
Copy CRC B6EA7693
Accurately ripped (confidence 1) [4308A6F6]
Copy OK

Track 5

Filename J:\New Rips\Babatunde Olatunji - Drums Of Passion And More (1959-66) [FLAC] {Bear Family}\disc 4of4\05 - Ire Dodo Ye.wav

Pre-gap length 0:00:04.86

Peak level 87.8 %
Track quality 100.0 %
Test CRC 0480F9CC
Copy CRC 0480F9CC
Accurately ripped (confidence 1) [1AF4BA0F]
Copy OK

Track 6

Filename J:\New Rips\Babatunde Olatunji - Drums Of Passion And More (1959-66) [FLAC] {Bear Family}\disc 4of4\06 - Frekoba.wav

Pre-gap length 0:00:04.60

Peak level 75.8 %
Track quality 100.0 %
Test CRC 0308DF54
Copy CRC 0308DF54
Accurately ripped (confidence 1) [23246A96]
Copy OK

Track 7

Filename J:\New Rips\Babatunde Olatunji - Drums Of Passion And More (1959-66) [FLAC] {Bear Family}\disc 4of4\07 - Wasalu.wav

Pre-gap length 0:00:03.97

Peak level 90.4 %
Track quality 100.0 %
Test CRC E7CAA1A5
Copy CRC E7CAA1A5
Accurately ripped (confidence 1) [2A87AD30]
Copy OK

Track 8

Filename J:\New Rips\Babatunde Olatunji - Drums Of Passion And More (1959-66) [FLAC] {Bear Family}\disc 4of4\08 - Mbira.wav

Pre-gap length 0:00:03.90

Peak level 86.3 %
Track quality 100.0 %
Test CRC E57EA97C
Copy CRC E57EA97C
Accurately ripped (confidence 1) [B4E70F96]
Copy OK


All tracks accurately ripped

No errors occurred

End of status report


Babatunde Olatunji - Drums Of Passion And More (1959-66) {4CD Box Set Bear Family Records BCD 15 747 DI rel 1994}


All thanks goes to the original releaser!