Subcategories

J. S. Bach - Le Petite Bande, Kuijken - Violinkonzerte BWV1041-43 (1981, CD ReIssue 1987)

Posted By: luckburz
J. S. Bach - Le Petite Bande, Kuijken - Violinkonzerte BWV1041-43 (1981, CD ReIssue 1987)

Johann Sebastian Bach - Violinkonzerte BWV1041-43
La Petite Bande, Lucy van Dael, Sigiswald Kuijken
EAC+LOG+CUE | FLAC: 248 MB | Artwork | 5% Recovery Info
Label/Cat#: DHM, EMI # CDC 7 47817 2 | Country/Year: Europe 1987, 1981
Genre: Classical | Style: Baroque

MD5 [X] CUE [X] LOG [X] INFO TEXT [X] ARTWORK [X]

selfrip [] not my rip [X]

J. S. Bach - Le Petite Bande, Kuijken - Violinkonzerte BWV1041-43 (1981, CD ReIssue 1987)


Exact Audio Copy V0.99 prebeta 5 from 4. May 2009

EAC extraction logfile from 11. January 2012, 12:53

Johann Sebastian Bach / Violinkonzerte BWV 1041-1043

Used drive : Optiarc DVD RW AD-7243S Adapter: 6 ID: 0

Read mode : Secure
Utilize accurate stream : Yes
Defeat audio cache : Yes
Make use of C2 pointers : No

Read offset correction : 48
Overread into Lead-In and Lead-Out : No
Fill up missing offset samples with silence : Yes
Delete leading and trailing silent blocks : No
Null samples used in CRC calculations : Yes
Used interface : Native Win32 interface for Win NT & 2000

Used output format : User Defined Encoder
Selected bitrate : 768 kBit/s
Quality : High
Add ID3 tag : No
Command line compressor : D:\Program Files\Exact Audio Copy\FLAC\FLAC.EXE
Additional command line options : -6 -V -T "ARTIST=%a" -T "TITLE=%t" -T "ALBUM=%g" -T "DATE=%y" -T "TRACKNUMBER=%n" -T "GENRE=%m" -T "COMMENT=%e" %s -o %d


TOC of the extracted CD

Track | Start | Length | Start sector | End sector
––––––––––––––––––––––––––––-
1 | 0:00.33 | 3:46.50 | 33 | 17032
2 | 3:47.08 | 6:40.50 | 17033 | 47082
3 | 10:27.58 | 3:44.25 | 47083 | 63907
4 | 14:12.08 | 7:45.50 | 63908 | 98832
5 | 21:57.58 | 6:43.00 | 98833 | 129057
6 | 28:40.58 | 2:55.00 | 129058 | 142182
7 | 31:35.58 | 3:46.00 | 142183 | 159132
8 | 35:21.58 | 7:40.25 | 159133 | 193657
9 | 43:02.08 | 4:41.02 | 193658 | 214734


Range status and errors

Selected range

Filename E:\CDImage.wav

Peak level 93.3 %
Range quality 100.0 %
Test CRC 121F48CE
Copy CRC 121F48CE
Copy OK

No errors occurred


AccurateRip summary

Track 1 accurately ripped (confidence 4) [B98ACB97]
Track 2 accurately ripped (confidence 4) [F7ED412C]
Track 3 accurately ripped (confidence 4) [B6A42168]
Track 4 accurately ripped (confidence 4) [2C3A794D]
Track 5 accurately ripped (confidence 4) [70320C69]
Track 6 accurately ripped (confidence 4) [2897D131]
Track 7 accurately ripped (confidence 4) [EEE23C14]
Track 8 accurately ripped (confidence 4) [22FA3DDB]
Track 9 accurately ripped (confidence 4) [D67D87D2]

All tracks accurately ripped

End of status report

auCDtect: CD records authenticity detector, version 0.8.2
Copyright © 2004 Oleg Berngardt. All rights reserved.
Copyright © 2004 Alexander Djourik. All rights reserved.

Detect mode (0..40 with 0 = most accurate): 8 (default)


––––––––––––––––––––––––––––––
[CDImage.wav]
Detected average hi-boundary frequency: 2.055224e+004 Hz
Detected average lo-boundary frequency: 1.485618e+004 Hz
Detected average hi-cut frequency: 2.120299e+004 Hz
Detected average lo-cut frequency: 1.773376e+004 Hz
Maximum probablis boundary frequency: 2.092200e+004 Hz
Coefficient of nonlinearity of a phase: 3.236639e-001
First order smothness: 3.487195e-001
Second order smothness: 8.752233e-001
––––––––––––––––––––––––––––––
This track looks like CDDA with probability 100%.

foobar2000 1.1.14a / Dynamic Range Meter 1.1.1
log date: 2012-11-13 18:56:33

––––––––––––––––––––––––––––––––––––––––
Analyzed: Johann Sebastian Bach / Violinkonzerte BWV 1041-1043
––––––––––––––––––––––––––––––––––––––––

DR Peak RMS Duration Track
––––––––––––––––––––––––––––––––––––––––
DR14 -0.68 dB -18.66 dB 3:47 01-Konzert a-moll, BWV 1041: Allegro
DR15 -4.35 dB -23.78 dB 6:41 02-Konzert a-moll, BWV 1041: Andante
DR13 -1.78 dB -19.35 dB 3:44 03-Konzert a-moll, BWV 1041: Allegro assai
DR14 -0.60 dB -18.71 dB 7:46 04-Konzert E-dur, BWV 1042: Allegro - Adagio - Allegro
DR15 -1.50 dB -22.33 dB 6:43 05-Konzert E-dur, BWV 1042: Adagio
DR13 -0.68 dB -18.11 dB 2:55 06-Konzert E-dur, BWV 1042: Allegro assai
DR14 -0.88 dB -17.28 dB 3:46 07-Konzert d-moll, BWV 1043: Vivace
DR13 -5.07 dB -21.97 dB 7:40 08-Konzert d-moll, BWV 1043: Largo, ma non tanto
DR14 -1.00 dB -17.59 dB 4:41 09-Konzert d-moll, BWV 1043: Allegro
––––––––––––––––––––––––––––––––––––––––

Number of tracks: 9
Official DR value: DR14

Samplerate: 44100 Hz
Channels: 2
Bits per sample: 16
Bitrate: 726 kbps
Codec: FLAC
================================================================================



CD Info:

Johann Sebastian Bach - Violinkonzerte BWV 1041-1043

La Petite Bande, Lucy van Dael, Sigiswald Kuijken

Label: Deutsche Harmonia Mundi / EMI
Catalog#: CDC 7 47817 2
Format: CD, Album
Country: Europe
Released: 1987, 1981
Genre: Classical
Style: Baroque

J. S. Bach - Le Petite Bande, Kuijken - Violinkonzerte BWV1041-43 (1981, CD ReIssue 1987)


Tracklist:

Konzert a-moll, BWV 1041
für Solovioline, Streicher und Basso continuo

[01] Allegro
[02] Andante
[03] Allegro assai

Konzert E-dur, BWV 1042
für Solovioline, Streicher und Basso continuo

[04] Allegro - Adagio - Allegro
[05] Adagio
[06] Allegro assai

Konzert d-moll, BWV 1043
für 2 Soloviolinen, Streicher und Basso continuo

[07] Vivace
[08] Largo, ma non tanto
[09] Allegro

LA PETITE BANDE
Sigiswald Kuijken, 1. Solovioline
Lucy van Dael, 2. Solovioline

Recorded 22. - 26.06.1981, Evagelische Kirche, Honrath

Thanks to aqr!
J. S. Bach - Le Petite Bande, Kuijken - Violinkonzerte BWV1041-43 (1981, CD ReIssue 1987)

// classical music \\
// all of my uploads \\
________________

Download:

Filepost FLAC & ART

________________