Subcategories

Backstreet Girls - Boogie Till You Puke (1988)

Posted By: Toxxy
Backstreet Girls - Boogie Till You Puke (1988)

Backstreet Girls - Boogie Till You Puke
Year: 1988 Polygram/Mercury | CD#: 834 476-2 | File-host: RS.com
FLAC-image + Mp3 @320 CBR | Complete Artwork (600dpi) | WinRAR Recovery 5%
Hard Boogie-Rock | CD-length 49:07 | 403 MB (FLAC) | 113 MB (Mp3)

EAC Secure-rip + LOG + CUE | Source: my CD-collection

Backstreet Girls - Boogie Till You Puke (1988)

Their second album, with a new lead singer, Bjørn Muller. Possibly the best album from the Backstreet Girls ever! Not ONE second of boredom or weakness here! Power on, plug in - BOOGIE!
Rock?!! Fuckin' Love Em!! Pump?! Fuckin' Oath!! Drink?! Fuck Me Dead!! More Energy Than A Power Station!!! More Stayin' Power Than A Porn Stud!! Fuck Me Sideways, I Love The Backstreet Girls!! If They Had Pussy's I'd Fuck Em!! Rock Lives!! [Rockin' Rob Riley, Rose Tattoo]


The title says it all..!

As the title of the album says, "Boogie 'till you puke". This is hard boogie/rock n'roll of high quality. The band from Oslo, Norway, show signs of what to come on the next album, "Party on Elm Street". If you like AC/DC, Ramones or Status Quo, you will probably like this too. The only reason I give it only 4 stars, is that the production lacks a bit of power. The music is superb. [Amazon user review]

Backstreet Girls homepage

Backstreet Girls at MySpace

Backstreet Girls at Wikipedia


The members of Backstreet Girls are a testament to the meaning of a “real” band. No fancy gimmicks; no silly recording tricks; no compromises. Listeners are instinctively confident that they are experiencing the empathy, excitement, and the “hard sweat factor” of “live” musicians; rather than an index finger on a digital sound module. I was impressed with the enthusiasm and attitude of the Backstreet Girls, when I was introduced to them at on of my concerts in Norway. It reminded me of when “Status Quo” started to emerge on the “rock scene”; very confident, very sure, and very much their own band. I hear wafts of the original Status Quo-sound. I like the “weighty” but relaxed and controlled feel of the Bass & Drums; the precision and energy of the Rhythm Guitar (superb control of it’s powerful sound); the intelligent licks, solos and syncopation of the Lead Guitar, empathising with the vocalist; the Vocals’ strong low notes and powerful highs, “living” the lyrics, through tragedy, fun & humour – a special and unique vocal quality (in tone & performance), which is “coolly” understated. There are no keyboards…. The member’s have been together for many years, and have more than paid their dues: writing; performing; and recording with passion. Surely this band is only a blink away from the “big time”. [Alan Lancaster, Status Quo]

Track List:

1. See And Be Seen
2. Walking Downtown
3. Bondage Boogie
4. Sexual
5. Tattoo Boy
6. Gypo
7. Boys Don't Go
8. The Hunt
9. Hangover In Hamburg
10. Mexican Town
11. Tougher Than The Train
12. Boys In The City



FLAC-image:
Part 1
Part 2
Part 3
Part 4
Part 5

Mp3 @320 CBR:
Part 1
Part 2

Complete scanned artwork (600dpi):
Download


Password = thetoxxster

5% WinRar Recovery Record for ALL files.

Enjoy the tunes ;-)

NO mirror linx please!


Exact Audio Copy V0.99 prebeta 4 from 23. January 2008

EAC extraction logfile from 29. April 2009, 9:36

Backstreet Girls / Boogie Till You Puke

Used drive : TSSTcorpCDDVDW SH-S202N Adapter: 0 ID: 0

Read mode : Secure
Utilize accurate stream : Yes
Defeat audio cache : Yes
Make use of C2 pointers : No

Read offset correction : 6
Overread into Lead-In and Lead-Out : No
Fill up missing offset samples with silence : Yes
Delete leading and trailing silent blocks : No
Null samples used in CRC calculations : No
Used interface : Installed external ASPI interface

Used output format : User Defined Encoder
Selected bitrate : 320 kBit/s
Quality : High
Add ID3 tag : No
Command line compressor : C:\Programmer\Exact Audio Copy\Flac\flac.exe
Additional command line options : -V -8 -T "artist=%a" -T "title=%t" -T "album=%g" -T "date=%y" -T "tracknumber=%n" -T "genre=%m" %s


TOC of the extracted CD

Track | Start | Length | Start sector | End sector
––––––––––––––––––––––––––––-
1 | 0:00.33 | 4:42.05 | 33 | 21187
2 | 4:42.38 | 3:38.05 | 21188 | 37542
3 | 8:20.43 | 4:06.37 | 37543 | 56029
4 | 12:27.05 | 4:50.30 | 56030 | 77809
5 | 17:17.35 | 4:11.10 | 77810 | 96644
6 | 21:28.45 | 6:04.23 | 96645 | 123967
7 | 27:32.68 | 3:17.47 | 123968 | 138789
8 | 30:50.40 | 3:07.68 | 138790 | 152882
9 | 33:58.33 | 4:16.17 | 152883 | 172099
10 | 38:14.50 | 3:31.00 | 172100 | 187924
11 | 41:45.50 | 2:57.65 | 187925 | 201264
12 | 44:43.40 | 4:22.05 | 201265 | 220919


Range status and errors

Selected range

Filename D:\Backstreet Girls - Boogie Till You Puke.wav

Peak level 100.0 %
Range quality 100.0 %
Copy CRC B5496085
Copy OK

No errors occurred


AccurateRip summary

Track 1 accurately ripped (confidence 2) [18AB1BDA]
Track 2 accurately ripped (confidence 2) [4FFA9F79]
Track 3 accurately ripped (confidence 2) [6BAD68F6]
Track 4 accurately ripped (confidence 2) [39CC99F0]
Track 5 accurately ripped (confidence 2) [0028007D]
Track 6 accurately ripped (confidence 2) [182963F1]
Track 7 accurately ripped (confidence 2) [CFBA48CD]
Track 8 accurately ripped (confidence 2) [812E6D81]
Track 9 accurately ripped (confidence 2) [40FCBCDD]
Track 10 accurately ripped (confidence 2) [A9328249]
Track 11 accurately ripped (confidence 2) [524C96BA]
Track 12 accurately ripped (confidence 2) [56D9DC63]

All tracks accurately ripped

End of status report



Lookin' for the debut album with Backstreet Girls? It's here!


Future posts from me includes:

The Business - The Complete Singles Collection
The Bottom Feeders - Big Six
Sloppy Seconds - More Trouble Than They're Worth
Sloppy Seconds - Live: No Time for Tuning
Sloppy Seconds - Garbage Days Regurgitated (CD-EP)
Huntingtons - Plastic Surgery
Huntingtons & Darlington - Split CD
Backstreet Girls - Party On Elm Street
Backstreet Girls - Coming Down Hard
Backstreet Girls - Let's Have It
Backstreet Girls - Live - Get Yer Yo-Yo's Out!
Backstreet Girls - Hellway To High
Backstreet Girls - Christmas Crusher

All the above CD's will be available in both lossless and and lossy.