Subcategories

Backstreet Girls - Live, Get Yer Yo-Yo's Out!

Posted By: Toxxy
Backstreet Girls - Live, Get Yer Yo-Yo's Out!

Backstreet Girls - Live, Get Yer Yo-Yo's Out!
Year: 1993 Revolution Records | CD#: REX CD 05 | File-host: RS.com
FLAC-image + Mp3 @320 CBR | Complete Artwork (600dpi) | WinRAR Recovery 5%
Hard Boogie-Rock | CD-length 50:21 | 390 MB (FLAC) | 115 MB (Mp3)

EAC Secure-rip + LOG + CUE | Source: my CD-collection

Backstreet Girls - Live, Get Yer Yo-Yo's Out!


Great live album by the Norwegian hardrock-boogie band…BACKSTREET GIRLS! Play LOUD!!!



Backstreet Girls homepage

Backstreet Girls at Wikipedia

Backstreet Girls at MySpace


Track List:

Recorded live at Sentrum Scene, Oslo, Norway, December 11th 1992.

1. Hard Work
2. Bondage Boogie
3. Circles
4. Sexual
5. Crazy John Bang
6. Boys Don't Go
7. Blackbird
8. Walking Downtown
9. Any Minute Now
10. London
11. Left Hook
12. Gimme Just a Second


Exact Audio Copy V0.99 prebeta 4 from 23. January 2008

EAC extraction logfile from 29. April 2009, 11:30

Backstreet Girls / Live, Get Yer Yo-Yo's Out!

Used drive : TSSTcorpCDDVDW SH-S202N Adapter: 0 ID: 0

Read mode : Secure
Utilize accurate stream : Yes
Defeat audio cache : Yes
Make use of C2 pointers : No

Read offset correction : 6
Overread into Lead-In and Lead-Out : No
Fill up missing offset samples with silence : Yes
Delete leading and trailing silent blocks : No
Null samples used in CRC calculations : No
Used interface : Installed external ASPI interface
Gap handling : Not detected, thus appended to previous track

Used output format : User Defined Encoder
Selected bitrate : 320 kBit/s
Quality : High
Add ID3 tag : Yes
Command line compressor : C:\Programmer\Exact Audio Copy\Lame\lame.exe
Additional command line options : -b 320 %s %d


TOC of the extracted CD

Track | Start | Length | Start sector | End sector
––––––––––––––––––––––––––––-
1 | 0:00.00 | 3:47.27 | 0 | 17051
2 | 3:47.27 | 3:59.58 | 17052 | 35034
3 | 7:47.10 | 4:11.35 | 35035 | 53894
4 | 11:58.45 | 5:19.27 | 53895 | 77846
5 | 17:17.72 | 3:31.58 | 77847 | 93729
6 | 20:49.55 | 3:43.72 | 93730 | 110526
7 | 24:33.52 | 5:24.35 | 110527 | 134861
8 | 29:58.12 | 3:39.10 | 134862 | 151296
9 | 33:37.22 | 3:16.20 | 151297 | 166016
10 | 36:53.42 | 2:50.63 | 166017 | 178829
11 | 39:44.30 | 2:07.47 | 178830 | 188401
12 | 41:52.02 | 8:29.05 | 188402 | 226581


Track 1

Filename D:\01. Backstreet Girls - Hard work.wav

Peak level 97.7 %
Track quality 99.9 %
Copy CRC 61AFA5F4
Accurately ripped (confidence 1) [33C84EE8]
Copy OK

Track 2

Filename D:\02. Backstreet Girls - Bondage boogie.wav

Peak level 97.7 %
Track quality 100.0 %
Copy CRC 1F409A55
Accurately ripped (confidence 1) [58D64203]
Copy OK

Track 3

Filename D:\03. Backstreet Girls - Circles.wav

Peak level 97.7 %
Track quality 100.0 %
Copy CRC 586E5B4F
Accurately ripped (confidence 1) [3A635151]
Copy OK

Track 4

Filename D:\04. Backstreet Girls - Sexual.wav

Peak level 97.7 %
Track quality 100.0 %
Copy CRC FF9CD6EB
Accurately ripped (confidence 1) [E6EF3BF2]
Copy OK

Track 5

Filename D:\05. Backstreet Girls - Crazy John Bang.wav

Peak level 97.7 %
Track quality 100.0 %
Copy CRC 671F2DA5
Accurately ripped (confidence 1) [70E1769B]
Copy OK

Track 6

Filename D:\06. Backstreet Girls - Boys don't go.wav

Peak level 97.7 %
Track quality 100.0 %
Copy CRC 9CEC9507
Accurately ripped (confidence 1) [2ECF21DA]
Copy OK

Track 7

Filename D:\07. Backstreet Girls - Blackbird.wav

Peak level 97.7 %
Track quality 100.0 %
Copy CRC B52A8606
Accurately ripped (confidence 1) [29342CC2]
Copy OK

Track 8

Filename D:\08. Backstreet Girls - Walking downtown.wav

Peak level 97.7 %
Track quality 99.9 %
Copy CRC 50D67E51
Accurately ripped (confidence 1) [FB801AFF]
Copy OK

Track 9

Filename D:\09. Backstreet Girls - Any minute now.wav

Peak level 97.7 %
Track quality 100.0 %
Copy CRC EFBAC0C4
Accurately ripped (confidence 1) [FAAD9460]
Copy OK

Track 10

Filename D:\10. Backstreet Girls - London.wav

Peak level 97.7 %
Track quality 100.0 %
Copy CRC A5C2833D
Accurately ripped (confidence 1) [BAB8EC65]
Copy OK

Track 11

Filename D:\11. Backstreet Girls - Left hook.wav

Peak level 97.7 %
Track quality 100.0 %
Copy CRC D4C340FA
Accurately ripped (confidence 1) [A3F8119F]
Copy OK

Track 12

Filename D:\12. Backstreet Girls - Gimme just a second.wav

Peak level 97.7 %
Track quality 99.9 %
Copy CRC 151D6992
Accurately ripped (confidence 1) [7A0B58D7]
Copy OK


All tracks accurately ripped

No errors occurred

End of status report


FLAC-image:
Part 1
Part 2
Part 3
Part 4

Mp3 @320 CBR:
Part 1
Part 2

Complete scanned artwork (600dpi):
Download


5% WinRar Recovery Record for ALL files.

Password = thetoxxster

Enjoy the tunes ;-)


NO mirror linx please!