Subcategories

Bad Company - Live At Red Rocks (2017)

Posted By: Domestos
Bad Company - Live At Red Rocks (2017)

Bad Company - Live At Red Rocks (2017)
EAC Rip | FLAC (tracks+.cue, log) ~ 503.19 Mb + 30.15 Mb (Scans) | 01:11:59
Hard, Classic Rock | Country: United Kingdom | Label: BMG Soundstage - 538277920

A new “secret” Bad Company live CD and DVD set taken from their most recent tour has gone on sale exclusively at Walmart. Bad Company Live at Red Rocks contains 14 songs from a May 15, 2016, stop on the band’s U.S. tour with Joe Walsh. Co-founding original member Mick Ralphs, regular band sideman Howard Leese and touring guest Rich Robinson are all credited on guitar, though Ralphs withdrew prior to the tour and later suffered a stroke from which he’s still recovering.

You can see the album's cover art and track listing below. There were few other details provided by Walmart’s website, but Bad Company Live at Red Rocks – which is currently available in stores – had already started creating a buzz.
“I couldn't find anything listed online about it, but I am a big Paul Rodgers fan, so I scooped it up," a poster at the SteveHoffman.tv music forum reported. "You couldn’t tell from the packaging but this one has both Rich Robinson of the Black Crowes and the customary Howard Leese on guitars. I guess this was recorded after Mick Ralphs’ health problems arose."

Ralphs has been part of every major incarnation of the group, going back to Bad Company's 1973 founding. He hailed the arrival of Robinson, who in turn said he grew up loving their music. "I've been a big fan of Paul Rodgers and his work throughout his career, from Bad Company and beyond," Robinson said last year. "Simon Kirke is one of my all-time favorite drummers. To be able to play with Paul and Simon is such an honor.” ~ MARTIN KIELTY

Track List:
01. Live For The Music
02. Feel Like Makin' Love
03. Gone, Gone, Gone
04. Burnin' Sky
05. Electricland
06. Ready For Love
07. Crazy Circles
08. Seagull
09. Rock 'N' Roll Fantasy
10. Shooting Star
11. Movin' On
12. Can't Get Enough
13. Bad Company
14. Rock Steady

Bad Company - Live At Red Rocks (2017)

Exact Audio Copy V1.3 from 2. September 2016

EAC extraction logfile from 26. November 2017, 10:07

Bad Company / Live At Red Rocks

Used drive : ASUS SDRW-08U5S-U Adapter: 1 ID: 1

Read mode : Secure
Utilize accurate stream : Yes
Defeat audio cache : Yes
Make use of C2 pointers : No

Read offset correction : 6
Overread into Lead-In and Lead-Out : No
Fill up missing offset samples with silence : Yes
Delete leading and trailing silent blocks : No
Null samples used in CRC calculations : Yes
Used interface : Native Win32 interface for Win NT & 2000
Gap handling : Appended to previous track

Used output format : User Defined Encoder
Selected bitrate : 128 kBit/s
Quality : High
Add ID3 tag : No
Command line compressor : C:\Program Files (x86)\Exact Audio Copy\Flac\flac.exe
Additional command line options : -8 -V -T "ARTIST=%artist%" -T "TITLE=%title%" -T "ALBUM=%albumtitle%" -T "DATE=%year%" -T "TRACKNUMBER=%tracknr%" -T "TOTALTRACKS=%numtracks%" -T "GENRE=%genre%" -T "ALBUMARTIST=%albumartist%" -T "ALBUM ARTIST=%albumartist%" -T "COMMENT=EAC Secure Mode, Test & Copy, AccurateRip, FLAC -8" %source%

TOC of the extracted CD

Track | Start | Length | Start sector | End sector
––––––––––––––––––––––––––––-
1 | 0:00.00 | 3:22.33 | 0 | 15182
2 | 3:22.33 | 5:24.44 | 15183 | 39526
3 | 8:47.02 | 4:32.53 | 39527 | 59979
4 | 13:19.55 | 6:38.49 | 59980 | 89878
5 | 19:58.29 | 4:46.51 | 89879 | 111379
6 | 24:45.05 | 7:30.68 | 111380 | 145197
7 | 32:15.73 | 3:47.59 | 145198 | 162281
8 | 36:03.57 | 4:46.23 | 162282 | 183754
9 | 40:50.05 | 4:55.66 | 183755 | 205945
10 | 45:45.71 | 7:24.06 | 205946 | 239251
11 | 53:10.02 | 3:34.53 | 239252 | 255354
12 | 56:44.55 | 4:26.19 | 255355 | 275323
13 | 61:10.74 | 5:49.44 | 275324 | 301542
14 | 67:00.43 | 4:58.69 | 301543 | 323961

Track 1

Filename E:\Uploads\Bad Company - Live At Red Rocks (2017) [FLAC] {CD and DVD9 NTSC}\01 - Live For The Music.wav

Pre-gap length 0:00:02.00

Peak level 100.0 %
Extraction speed 2.1 X
Track quality 100.0 %
Test CRC 5F8E4AD3
Copy CRC 5F8E4AD3
Track not present in AccurateRip database
Copy OK

Track 2

Filename E:\Uploads\Bad Company - Live At Red Rocks (2017) [FLAC] {CD and DVD9 NTSC}\02 - Feel Like Makin' Love.wav

Peak level 100.0 %
Extraction speed 2.5 X
Track quality 100.0 %
Test CRC 1131CAB2
Copy CRC 1131CAB2
Track not present in AccurateRip database
Copy OK

Track 3

Filename E:\Uploads\Bad Company - Live At Red Rocks (2017) [FLAC] {CD and DVD9 NTSC}\03 - Gone, Gone, Gone.wav

Peak level 100.0 %
Extraction speed 2.7 X
Track quality 100.0 %
Test CRC 49FD80AE
Copy CRC 49FD80AE
Track not present in AccurateRip database
Copy OK

Track 4

Filename E:\Uploads\Bad Company - Live At Red Rocks (2017) [FLAC] {CD and DVD9 NTSC}\04 - Burnin' Sky.wav

Peak level 100.0 %
Extraction speed 2.9 X
Track quality 100.0 %
Test CRC C8CD9414
Copy CRC C8CD9414
Track not present in AccurateRip database
Copy OK

Track 5

Filename E:\Uploads\Bad Company - Live At Red Rocks (2017) [FLAC] {CD and DVD9 NTSC}\05 - Electricland.wav

Peak level 100.0 %
Extraction speed 3.1 X
Track quality 100.0 %
Test CRC 5CEEA1B4
Copy CRC 5CEEA1B4
Track not present in AccurateRip database
Copy OK

Track 6

Filename E:\Uploads\Bad Company - Live At Red Rocks (2017) [FLAC] {CD and DVD9 NTSC}\06 - Ready For Love.wav

Peak level 100.0 %
Extraction speed 3.6 X
Track quality 100.0 %
Test CRC 5EC4FD44
Copy CRC 5EC4FD44
Track not present in AccurateRip database
Copy OK

Track 7

Filename E:\Uploads\Bad Company - Live At Red Rocks (2017) [FLAC] {CD and DVD9 NTSC}\07 - Crazy Circles.wav

Peak level 100.0 %
Extraction speed 3.5 X
Track quality 100.0 %
Test CRC 55C9AE8D
Copy CRC 55C9AE8D
Track not present in AccurateRip database
Copy OK

Track 8

Filename E:\Uploads\Bad Company - Live At Red Rocks (2017) [FLAC] {CD and DVD9 NTSC}\08 - Seagull.wav

Peak level 100.0 %
Extraction speed 4.7 X
Track quality 100.0 %
Test CRC 2B97735F
Copy CRC 2B97735F
Track not present in AccurateRip database
Copy OK

Track 9

Filename E:\Uploads\Bad Company - Live At Red Rocks (2017) [FLAC] {CD and DVD9 NTSC}\09 - Rock 'N' Roll Fantasy.wav

Peak level 100.0 %
Extraction speed 4.9 X
Track quality 100.0 %
Test CRC 08D6415F
Copy CRC 08D6415F
Track not present in AccurateRip database
Copy OK

Track 10

Filename E:\Uploads\Bad Company - Live At Red Rocks (2017) [FLAC] {CD and DVD9 NTSC}\10 - Shooting Star.wav

Peak level 100.0 %
Extraction speed 5.4 X
Track quality 100.0 %
Test CRC E5811DC9
Copy CRC E5811DC9
Track not present in AccurateRip database
Copy OK

Track 11

Filename E:\Uploads\Bad Company - Live At Red Rocks (2017) [FLAC] {CD and DVD9 NTSC}\11 - Movin' On.wav

Peak level 100.0 %
Extraction speed 5.1 X
Track quality 100.0 %
Test CRC BD332477
Copy CRC BD332477
Track not present in AccurateRip database
Copy OK

Track 12

Filename E:\Uploads\Bad Company - Live At Red Rocks (2017) [FLAC] {CD and DVD9 NTSC}\12 - Can't Get Enough.wav

Peak level 100.0 %
Extraction speed 4.5 X
Track quality 99.9 %
Test CRC 09C16DDB
Copy CRC 09C16DDB
Track not present in AccurateRip database
Copy OK

Track 13

Filename E:\Uploads\Bad Company - Live At Red Rocks (2017) [FLAC] {CD and DVD9 NTSC}\13 - Bad Company.wav

Peak level 100.0 %
Extraction speed 5.0 X
Track quality 99.9 %
Test CRC F56C6AFC
Copy CRC F56C6AFC
Track not present in AccurateRip database
Copy OK

Track 14

Filename E:\Uploads\Bad Company - Live At Red Rocks (2017) [FLAC] {CD and DVD9 NTSC}\14 - Rock Steady.wav

Peak level 100.0 %
Extraction speed 5.9 X
Track quality 100.0 %
Test CRC 7F346A50
Copy CRC 7F346A50
Track not present in AccurateRip database
Copy OK

None of the tracks are present in the AccurateRip database

No errors occurred

End of status report

–– CUETools DB Plugin V2.1.6

[CTDB TOCID: MzcdbOiUGAVqIclt3XSWnEoNB2A-] found
Submit result: MzcdbOiUGAVqIclt3XSWnEoNB2A- has been confirmed
Track | CTDB Status
1 | (5/5) Accurately ripped
2 | (5/5) Accurately ripped
3 | (5/5) Accurately ripped
4 | (5/5) Accurately ripped
5 | (5/5) Accurately ripped
6 | (5/5) Accurately ripped
7 | (5/5) Accurately ripped
8 | (5/5) Accurately ripped
9 | (5/5) Accurately ripped
10 | (5/5) Accurately ripped
11 | (5/5) Accurately ripped
12 | (5/5) Accurately ripped
13 | (5/5) Accurately ripped
14 | (5/5) Accurately ripped

==== Log checksum 4F69A5143D46F9ED5F3FB290991A31A6CECBC0548EEC4A7561F032CE29F8C1D8 ====

All thanks go to the Zoloft

More Music in My Blog
Follow My RSS Channel