Subcategories

Bad Company - Holy Water (1990) RE-UP

Posted By: perfecta
Bad Company - Holy Water (1990) RE-UP

Bad Company - Holy Water (1990)
EAC-FLAC Image with CUE & LOG - 408 MB | Full Scans | MP3 CBR 320 Kbps - 136 MB
Hard Rock / Blues-Rock | TT - 53:44 minutes | Label: Atco Records | Catalogue # 91371-2

Holy Water is the ninth studio album by hard rock band Bad Company, and their third with Brian Howe in place of Paul Rodgers as lead vocalist, released in June 1990. The singles on the album all received significant radio airplay. These included "Holy Water", "Boys Cry Tough", "Walk Through Fire", and "If You Needed Somebody", all of which charted fairly well. To date, this is the last album by Bad Company to go platinum.

allmusic.com says: Bad Company's last platinum album, Holy Water is a formulaic yet reasonably engaging collection of AOR hard rock. Although the only original members on Holy Water are guitarist Mick Ralphs and drummer Simon Kirke, the band does a fair job of approximating the sound of classic Bad Company while adding enough elements of '80s pop-metal to make the record appealing to teenagers who grew up on power ballads. And the band does turn in a first-rate power ballad with "If You Needed Somebody," which rose all the way to number 16 on the singles chart. Surprisingly, that was one of three hits from the album – "Holy Water" and "Walk Through Fire" also received a fair amount of airplay. What that success signals is not a creative rebirth for Bad Company, but that the group knew how to follow a formula very well. Holy Water hasn't aged as well as their original hit albums – instead of the clean, ballsy attack of Bad Company and Straight Shooter, it's awash in echo and synths – but it is a finely crafted, big-budget record of the late '80s and early '90s. It's just as indicative of its era as Bad Company is.

Tracks:

01. Holy Water
02. Walk Through Fire
03. Stranger Stranger
04. If You Needed Somebody
05. Fearless
06. Lay Your Love On Me
07. Boys Cry Tough
08. With You In A Heartbeat
09. I Don't Care
10. Never Too Late
11. Dead Of The Night
12. I Can't Live Without You
13. 100 Miles

Produced by Terry Thomas.

- Brian Howe: vocals
- Mick Ralphs: guitar
- Simon Kirke: drums, acoustic guitar, lead vocals on "13"
- Felix Krish: bass

Exact Audio Copy V0.99 prebeta 5 from 4. May 2009

Отчёт EAC об извлечении, выполненном 12. мая 2010, 1:43

Bad Company / Holy Water

Дисковод: Optiarc DVD RW AD-7200S Adapter: 2 ID: 0

Режим чтения : Достоверность
Использование точного потока : Да
Отключение кэша аудио : Да
Использование указателей C2 : Нет

Коррекция смещения при чтении : 48
Способность читать области Lead-in и Lead-out : Нет
Заполнение пропущенных сэмплов тишиной : Да
Удаление блоков с тишиной в начале и конце : Нет
При вычислениях CRC использовались нулевые сэмплы : Да
Интерфейс : Установленный внешний ASPI-интерфейс

Выходной формат : Внутренние WAV-операции
Формат сэмплов : 44.100 Гц; 16 бит; стерео


TOC извлечённого CD

Трек | Старт | Длительность | Начальный сектор | Конечный сектор
––––––––––––––––––––––––––––––––––-
1 | 0:00.33 | 4:07.42 | 33 | 18599
2 | 4:08.00 | 4:48.70 | 18600 | 40269
3 | 8:56.70 | 4:52.10 | 40270 | 62179
4 | 13:49.05 | 4:21.28 | 62180 | 81782
5 | 18:10.33 | 3:33.12 | 81783 | 97769
6 | 21:43.45 | 4:05.08 | 97770 | 116152
7 | 25:48.53 | 5:35.22 | 116153 | 141299
8 | 31:24.00 | 4:34.43 | 141300 | 161892
9 | 35:58.43 | 4:33.72 | 161893 | 182439
10 | 40:32.40 | 3:41.73 | 182440 | 199087
11 | 44:14.38 | 3:41.40 | 199088 | 215702
12 | 47:56.03 | 3:51.02 | 215703 | 233029
13 | 51:47.05 | 1:57.15 | 233030 | 241819


Характеристики диапазона извлечения и сообщения об ошибках

Выбранный диапазон

Имя файла E:\МОИ РАЗДАЧИ\Bad Company - Holy Water 1990\Bad Company - Holy Water.wav

Пиковый уровень 97.7 %
Качество диапазона 100.0 %
CRC теста 130190F8
CRC копии 130190F8
Копирование… OK

Ошибок не произошло


AccurateRip: сводка

Трек 1 точное извлечение (доверие 9) [3EF2C98D]
Трек 2 точное извлечение (доверие 9) [190BEC29]
Трек 3 точное извлечение (доверие 8) [08C8412B]
Трек 4 точное извлечение (доверие 8) [162FF868]
Трек 5 точное извлечение (доверие 8) [BF97F76F]
Трек 6 точное извлечение (доверие 8) [A5092BEC]
Трек 7 точное извлечение (доверие 8) [922F2EF0]
Трек 8 точное извлечение (доверие 7) [682AE8D3]
Трек 9 точное извлечение (доверие 8) [0E17EAED]
Трек 10 точное извлечение (доверие 8) [44A2A309]
Трек 11 точное извлечение (доверие 8) [0C85639B]
Трек 12 точное извлечение (доверие 8) [2474FC07]
Трек 13 точное извлечение (доверие 8) [3B3B362C]

Все треки извлечены точно

Конец отчёта


Thanks to Виктор Юрьевич!

Japanese Cardboard Sleeve Reissues

FLAC lossless | MP3 320

All scans included.