Subcategories

Barry Manilow - Barry Manilow (European Ariola 1989)

Posted By: luckburz
Barry Manilow - Barry Manilow (European Ariola 1989)

Barry Manilow - Barry Manilow
EAC+LOG+CUE | FLAC: 314 MB | Full Artwork: 40 MB | 5% Recovery Info
Label/Cat#: BMG Ariola, Arista # 259 927 | Country/Year: Europe 1989
Genre: Rock, Pop | Style: Pop, Pop Rock, Ballad

MD5 [X] CUE [X] LOG [X] INFO TEXT [X] ARTWORK [X]

my rip [X] not my rip []

Barry Manilow - Barry Manilow (European Ariola 1989)


Exact Audio Copy V1.0 beta 3 from 29. August 2011

EAC extraction logfile from 26. June 2013, 12:35

Barry Manilow / Barry Manilow

Used drive : PIONEER BD-RW BDR-206 Adapter: 0 ID: 2

Read mode : Secure
Utilize accurate stream : Yes
Defeat audio cache : Yes
Make use of C2 pointers : No

Read offset correction : 667
Overread into Lead-In and Lead-Out : No
Fill up missing offset samples with silence : Yes
Delete leading and trailing silent blocks : No
Null samples used in CRC calculations : Yes
Used interface : Native Win32 interface for Win NT & 2000

Used output format : User Defined Encoder
Selected bitrate : 1024 kBit/s
Quality : High
Add ID3 tag : Yes
Command line compressor : C:\Program Files\FLAC\flac.exe
Additional command line options : -5 -T "Artist=%artist%" -T "Title=%title%" -T "Album=%albumtitle%" -T "Date=%year%" -T "Tracknumber=%tracknr%" -T "Genre=%genre%" %source% -o %dest%


TOC of the extracted CD

Track | Start | Length | Start sector | End sector
––––––––––––––––––––––––––––-
1 | 0:00.00 | 5:38.12 | 0 | 25361
2 | 5:38.12 | 4:36.73 | 25362 | 46134
3 | 10:15.10 | 4:17.35 | 46135 | 65444
4 | 14:32.45 | 3:56.70 | 65445 | 83214
5 | 18:29.40 | 4:31.35 | 83215 | 103574
6 | 23:01.00 | 4:50.05 | 103575 | 125329
7 | 27:51.05 | 4:14.37 | 125330 | 144416
8 | 32:05.42 | 4:00.45 | 144417 | 162461
9 | 36:06.12 | 4:45.68 | 162462 | 183904
10 | 40:52.05 | 4:24.27 | 183905 | 203731
11 | 45:16.32 | 4:27.43 | 203732 | 223799


Range status and errors

Selected range

Filename F:\=== VINYL RIPS ===\=== EAC===\X FRESH RIP\Barry Manilow - Barry Manilow.wav

Peak level 98.2 %
Extraction speed 1.7 X
Range quality 99.9 %
Copy CRC E1493E3A
Copy OK

No errors occurred


AccurateRip summary

Track 1 accurately ripped (confidence 2) [047E4287] (AR v2)
Track 2 accurately ripped (confidence 6) [85123DE0] (AR v1)
Track 3 accurately ripped (confidence 2) [CEB1749D] (AR v2)
Track 4 accurately ripped (confidence 2) [DAE4FC71] (AR v2)
Track 5 accurately ripped (confidence 2) [5730FFC3] (AR v2)
Track 6 accurately ripped (confidence 2) [A4246EDB] (AR v2)
Track 7 accurately ripped (confidence 2) [B9B7369E] (AR v2)
Track 8 accurately ripped (confidence 2) [E139FEDF] (AR v2)
Track 9 accurately ripped (confidence 2) [65F04B63] (AR v2)
Track 10 accurately ripped (confidence 2) [FB41A6B6] (AR v2)
Track 11 accurately ripped (confidence 2) [C1E9D20C] (AR v2)

All tracks accurately ripped

End of status report

–– CUETools DB Plugin V2.1.3

[CTDB TOCID: jSHcwWAixnqZQJQbF.p.GzrS0Cs-] found, Submit result: jSHcwWAixnqZQJQbF.p.GzrS0Cs- has been confirmed
[1eea8451] (1/3) Accurately ripped
[248a592d] (1/3) Differs in 13 samples @27:50:38
[433da828] (1/3) Differs in 24 samples @27:50:38-27:50:39
You can use CUETools to repair this rip.


==== Log checksum 38412DC219068BAEB91C46ADDE0306972D0D31FA4C2B5B4BAE511801288C252C ====

foobar2000 1.1.14a / Dynamic Range Meter 1.1.1
log date: 2013-06-26 14:00:38

––––––––––––––––––––––––––––––––––––––––
Analyzed: Barry Manilow / Barry Manilow
––––––––––––––––––––––––––––––––––––––––

DR Peak RMS Duration Track
––––––––––––––––––––––––––––––––––––––––
DR15 -0.40 dB -19.77 dB 5:38 01-Please Don't Be Scared
DR12 -0.42 dB -15.15 dB 4:37 02-Keep Each Other Warm
DR14 -0.71 dB -19.18 dB 4:17 03-Once and for All
DR12 -0.67 dB -14.94 dB 3:57 04-The One that Got Away
DR14 -0.40 dB -19.33 dB 4:31 05-When the Good Times Come Again
DR12 -1.36 dB -16.04 dB 4:50 06-Some Good Things Never Last
DR12 -0.88 dB -15.63 dB 4:14 07-In Another World
DR14 -0.16 dB -18.34 dB 4:01 08-You Begin Again
DR13 -0.28 dB -17.58 dB 4:46 09-My Moonlight Memories of You
DR14 -0.17 dB -15.72 dB 4:24 10-Anyone Can Do the Heartbreak
DR10 -3.74 dB -17.17 dB 4:28 11-A Little Travelling Music, Please
––––––––––––––––––––––––––––––––––––––––

Number of tracks: 11
Official DR value: DR13

Samplerate: 44100 Hz
Channels: 2
Bits per sample: 16
Bitrate: 842 kbps
Codec: FLAC
================================================================================



CD Info:

Barry Manilow - Barry Manilow

Label: Arista
Distrib.: BMG Ariola
Catalog#: 259 927
Format: CD, Album
Country: Europe
Released: 1989
Genre: Rock, Pop
Style: Pop, Pop Rock, Ballad

Tracklist:

1 Please Don't Be Scared 5:38
2 Keep Each Other Warm 4:37
3 Once and for All 4:17
4 The One that Got Away 3:57
5 When the Good Times Come Again 4:31
6 Some Good Things Never Last 4:50
7 In Another World 4:14
8 You Begin Again 4:01
9 My Moonlight Memories of You 4:46
10 Anyone Can Do the Heartbreak 4:24
11 A Little Travelling Music, Please 4:28

Made in Germany by TOPAC.

By combining his deft skills as a tunesmith, an uncanny knack for catchy melodies, and a romantically appealing lyrical sensibility, Barry Manilow created a commercial package so effective that it ensured phenomenal success as an entertainer throughout the '70s, '80s, and '90s. This 1989 release finds Manilow in fine form, concentrating primarily on ballads swelling with dramatic arrangements (counting the number of ascending key changes from one end of the disc to the other is a fun game) and lyrics that concentrate on the trials and tribulations of relationships.

The opener, "Please Don't Be Scared," is an direct appeal to a friend or lover for emotional honesty. Manilow uses his gift for melody and his plaintive voice to construct another of his signature heartstring-tugging gems. "Once And For All" is a tender ballad, while "The One That Got Away" adds programming and synthesizers to the up-tempo side of Barry's songwriting palette. Even dressed in more contemporary clothes, Manilow is still a romantic bard for the people, and this self-titled disc is up to his usual crowd-pleasing standards. allmusicguide
Barry Manilow - Barry Manilow (European Ariola 1989)

Barry Manilow - Barry Manilow (European Ariola 1989)


all of my uploads in my blog
________________

Download:

Music
&
Artwork

________________