B.B. King - King Of The Blues (1992) [4CD Box Set]

Posted By: ruskaval
B.B. King - King Of The Blues (1992) [4CD Box Set]

B.B. King - King Of The Blues (1992) [4CD Box Set]
EAC rip (secure mode) | FLAC+CUE+LOG -> 1,73 Gb | MP3 @320 -> 649 Mb
Artwork @ 300 dpi (jpg) -> 6 Mb (web)
© 1992 MCA Records | MCAD4-10677
Blues / Soul Blues / Modern Electric Blues


B.B. King - King Of The Blues (1992) [4CD Box Set]

No way can a mere four discs cover every facet of the blues king's amazing recording career, but MCA makes a valiant stab at it. The first two discs, as expected, are immaculate: opening with his Bullet Records debut ("Miss Martha King"), the box continues with a handful of pivotal RPM/Kent masters before digging into his 1960s ABC-Paramount material ("I'm Gonna Sit in 'til You Give In" and "My Baby's Comin' Home" are little-recalled gems). The hits – "The Thrill Is Gone," "Why I Sing the Blues," "To Know You Is to Love You" – are all here, and if much of the fourth disc is pretty disposable, it only mirrors King's own winding down in the studio.
This 4-CD box set contains 7 previously unreleased tracks and 12 rarities. KING OF THE BLUES begins with B.B.'s first-ever recording, 1949's "Miss Martha King," and culminates 40 years later with 1991's "Since I Met You Baby," a duet with Gary Moore
Disc 1 features King's earliest Memphis work, where he began his career as a disc jockey, then progresses to a selection of music he recorded for the Bihari brothers (Kent, Modern and RPM labels), and concludes with recordings made for ABC Records. On this disc you can hear King's guitar playing gradually evolve, moving from his roots in Charlie Christian and T-Bone Walker, into the sweet, sensual, concise melodic style which became his trademark.
Disc 2 chronicles King's rise to blues stardom, while Disc 3 shows him crossing over to reach the rock and pop audience. "The Thrill Is Gone" (his breakthrough single) set the standard for King's collaborations with rock and jazz royalty that make up much of Discs 3 and 4. No matter what the setting was, no matter who the collaborators were, B.B. King has always maintained his sound, his style and his focus.
Personnel includes: B.B. King (vocals, guitar, piano); Bobby Bland, Bonnie Raitt (vocals); Hugh McCracken, Joe Walsh, Mac "Dr. John" Rebennack, Ray Parker, Jr., Dean Parks, Bobby Caldwell (guitar); Ernie Watts, Hank Crawford (alto saxophone); Bobby Forte, David "Fathead" Newman (tenor saxophone); Ronald Cuber (baritone saxophone); Ben Webster (saxophone); Carole King, Gary Wright (electric piano); Johnny Ace, Al Kooper, Leon Russell (piano); Stevie Wonder (keyboards); Red Callender, Brian Garofalo (bass); Sonny Freeman, Russ Kunkel, Ringo Starr, Jim Keltner, Wil Calhoun (drums); Paulinho Da Costa (percussion); Merry Clayton (background vocals). U2: Bono (vocals); The Edge (guitar); Adam Clayton (bass); Larry Mullen (drums). The Crusaders: Wilton Felder (guitar); Joe Sample (keyboards); Stix Hooper (drums). The Memphis Horns: Andrew Love, Wayne Jackson (horns).

tracklist:
CD1
01. Miss Martha King - (previously unreleased)
02. She's Dynamite
03. Three O'Clock Blues
04. Please Love Me
05. You Upset Me Baby
06. Everyday I Have the Blues
07. Rock Me Baby
08. Recession Blues
09. Don't Get Around Much Anymore
10. I'm Gonna Sit in 'Til You Give In
11. Blues at Midnight
12. Sneakin' Around
13. My Baby's Comin' Home
14. Slowly Losing My Mind - (previously unreleased)
15. How Blue Can You Get - (previously unreleased)
16. Rockin' Awhile - (previously unreleased)
17. Help the Poor - (previously unreleased)
18. Stop Leadin' Me On - (previously unreleased)
19. Never Trust a Woman - (previously unreleased)
20. Sweet Little Angel
21. All Over Again
22. Sloppy Drunk - (previously unreleased)
23. Don't Answer the Door (Parts 1 & 2)
24. I Done Got Wise
25. Think It Over
26. Gambler's Blues

CD2
01. Goin' Down Slow - (previously unreleased)
02. Tired of Your Jive
03. Sweet Sixteen (Parts 1 & 2) - (previously unreleased)
04. Paying the Cost to Be the Boss
05. I'm Gonna Do What They Do to Me
06. Lucille
07. Watch Yourself
08. You Put It on Me
09. Get Myself Somebody - (previously unreleased)
10. I Want You So Bad
11. Why I Sing the Blues
12. Get Off My Back Woman
13. Please Accept My Love
14. Fools Get Wise - (previously unreleased)
15. No Good
16. So Excited

CD3
01. Thrill Is Gone, The
02. Confessin' the Blues
03. Nobody Loves Me But My Mother
04. Hummingbird - (with Leon Russell/Joe Walsh)
05. Ask Me No Questions
06. Chains and Things - (with Carole King)
07. Eyesight to the Blind - (previously unreleased)
08. Niji Baby - (previously unreleased)
09. Blue Shadows
10. Ghetto Woman - (with Ringo Starr)
11. Ain't Nobody Home
12. I Got Some Help I Don't Need - (previously unreleased)
13. Five Long Years
14. To Know You Is to Love You
15. I Like to Live the Love
16. Don't Make Me Pay For His Mistakes

CD4
01. Let the Good Times Roll - (with Bobby Bland)
02. Don't You Lie to Me
03. Mother Fuyer
04. Never Make a Move Too Soon - (with The Crusaders)
05. When It All Comes Down (I'll Still Be Around)
06. Better Not Look Down
07. Caldonia
08. There Music Be a Better World Somewhere - (with Dr. John)
09. Play With You Poodle - (previously unreleased)
10. Darlin' You Know I Love You
11. Inflation Blues
12. Make Love to Me - (previously unreleased, piano solo)
13. Into the Night (Theme)
14. Six Silver Strings
15. When Love Comes to Town - (7" mix, previously unreleased, with U2)
16. Right Time, Wrong Place - (with Bonnie Raitt)
17. Many Miles Travelled -(Previously Unreleased)
18. I'm Moving On
19. Since I Met You Baby - (with Gary Moore)

B.B. King - King Of The Blues (1992) [4CD Box Set]

Exact Audio Copy V0.99 prebeta 5 from 4. May 2009

EAC extraction logfile from 15. November 2009, 17:17

B.B. King / King Of The Blues (1949-1966) (CD1)

Used drive : TSSTcorpCD/DVDW TS-H552L Adapter: 3 ID: 0

Read mode : Secure
Utilize accurate stream : Yes
Defeat audio cache : Yes
Make use of C2 pointers : No

Read offset correction : 6
Overread into Lead-In and Lead-Out : No
Fill up missing offset samples with silence : Yes
Delete leading and trailing silent blocks : No
Null samples used in CRC calculations : Yes
Used interface : Native Win32 interface for Win NT & 2000
Gap handling : Appended to previous track

Used output format : User Defined Encoder
Selected bitrate : 1024 kBit/s
Quality : High
Add ID3 tag : No
Command line compressor : C:\Program Files\FLAC\flac.exe
Additional command line options : -6 -V -T "ARTIST=%a" -T "TITLE=%t" -T "ALBUM=%g" -T "DATE=%y" -T "TRACKNUMBER=%n" -T "GENRE=%m" -T "COMMENT=EAC FLAC -6" %s


TOC of the extracted CD

Track | Start | Length | Start sector | End sector
––––––––––––––––––––––––––––-
1 | 0:00.00 | 2:42.72 | 0 | 12221
2 | 2:42.72 | 2:31.30 | 12222 | 23576
3 | 5:14.27 | 3:02.25 | 23577 | 37251
4 | 8:16.52 | 2:48.18 | 37252 | 49869
5 | 11:04.70 | 3:02.20 | 49870 | 63539
6 | 14:07.15 | 2:48.72 | 63540 | 76211
7 | 16:56.12 | 3:02.68 | 76212 | 89929
8 | 19:59.05 | 2:21.22 | 89930 | 100526
9 | 22:20.27 | 3:15.55 | 100527 | 115206
10 | 25:36.07 | 2:13.33 | 115207 | 125214
11 | 27:49.40 | 2:59.32 | 125215 | 138671
12 | 30:48.72 | 2:07.18 | 138672 | 148214
13 | 32:56.15 | 2:08.52 | 148215 | 157866
14 | 35:04.67 | 2:31.68 | 157867 | 169259
15 | 37:36.60 | 2:42.07 | 169260 | 181416
16 | 40:18.67 | 2:44.00 | 181417 | 193716
17 | 43:02.67 | 2:38.65 | 193717 | 205631
18 | 45:41.57 | 2:22.43 | 205632 | 216324
19 | 48:04.25 | 2:37.15 | 216325 | 228114
20 | 50:41.40 | 3:50.12 | 228115 | 245376
21 | 54:31.52 | 2:35.70 | 245377 | 257071
22 | 57:07.47 | 3:11.20 | 257072 | 271416
23 | 60:18.67 | 5:10.45 | 271417 | 294711
24 | 65:29.37 | 2:20.68 | 294712 | 305279
25 | 67:50.30 | 2:51.17 | 305280 | 318121
26 | 70:41.47 | 3:16.20 | 318122 | 332841


Track 1

Filename C:\B.B. King - King Of The Blues (1992) [4CD Box Set]\CD1\01 - Miss Martha King (Previously Unissued On U.S. LP).wav

Pre-gap length 0:00:02.00

Peak level 99.9 %
Track quality 100.0 %
Test CRC D370D2C2
Copy CRC D370D2C2
Accurately ripped (confidence 21) [E404AB8A]
Copy OK

Track 2

Filename C:\B.B. King - King Of The Blues (1992) [4CD Box Set]\CD1\02 - She's Dynamite.wav

Pre-gap length 0:00:01.70

Peak level 90.3 %
Track quality 99.9 %
Test CRC B08EE88D
Copy CRC B08EE88D
Accurately ripped (confidence 21) [17BBE351]
Copy OK

Track 3

Filename C:\B.B. King - King Of The Blues (1992) [4CD Box Set]\CD1\03 - Three O'Clock Blues.wav

Pre-gap length 0:00:02.00

Peak level 97.2 %
Track quality 100.0 %
Test CRC 93CF04EB
Copy CRC 93CF04EB
Accurately ripped (confidence 21) [49500946]
Copy OK

Track 4

Filename C:\B.B. King - King Of The Blues (1992) [4CD Box Set]\CD1\04 - Please Love Me.wav

Pre-gap length 0:00:01.65

Peak level 92.2 %
Track quality 100.0 %
Test CRC 47816347
Copy CRC 47816347
Accurately ripped (confidence 21) [27B0521E]
Copy OK

Track 5

Filename C:\B.B. King - King Of The Blues (1992) [4CD Box Set]\CD1\05 - You Upset Me Baby.wav

Peak level 98.5 %
Track quality 99.9 %
Test CRC 96D2C3CC
Copy CRC 96D2C3CC
Accurately ripped (confidence 21) [83ACE8C0]
Copy OK

Track 6

Filename C:\B.B. King - King Of The Blues (1992) [4CD Box Set]\CD1\06 - Everyday I Have The Blues.wav

Pre-gap length 0:00:02.00

Peak level 90.4 %
Track quality 100.0 %
Test CRC BCE2D7B7
Copy CRC BCE2D7B7
Accurately ripped (confidence 21) [F4274401]
Copy OK

Track 7

Filename C:\B.B. King - King Of The Blues (1992) [4CD Box Set]\CD1\07 - Rock Me Baby.wav

Pre-gap length 0:00:01.55

Peak level 100.0 %
Track quality 100.0 %
Test CRC 01DAB645
Copy CRC 01DAB645
Accurately ripped (confidence 21) [1477871E]
Copy OK

Track 8

Filename C:\B.B. King - King Of The Blues (1992) [4CD Box Set]\CD1\08 - Recession Blues.wav

Pre-gap length 0:00:03.35

Peak level 95.7 %
Track quality 100.0 %
Test CRC ADD9231D
Copy CRC ADD9231D
Accurately ripped (confidence 21) [BD25173C]
Copy OK

Track 9

Filename C:\B.B. King - King Of The Blues (1992) [4CD Box Set]\CD1\09 - Don't Get Around Much Anymore.wav

Pre-gap length 0:00:02.00

Peak level 100.0 %
Track quality 100.0 %
Test CRC DF50C3B1
Copy CRC DF50C3B1
Accurately ripped (confidence 21) [996F3670]
Copy OK

Track 10

Filename C:\B.B. King - King Of The Blues (1992) [4CD Box Set]\CD1\10 - I'm Gonna Sit In 'Til You Give In.wav

Pre-gap length 0:00:01.02

Peak level 99.9 %
Track quality 100.0 %
Test CRC 2E2423D8
Copy CRC 2E2423D8
Accurately ripped (confidence 21) [A1FB0AEB]
Copy OK

Track 11

Filename C:\B.B. King - King Of The Blues (1992) [4CD Box Set]\CD1\11 - Blues At Midnight.wav

Peak level 96.0 %
Track quality 100.0 %
Test CRC 1FF8AD39
Copy CRC 1FF8AD39
Accurately ripped (confidence 21) [5155B73D]
Copy OK

Track 12

Filename C:\B.B. King - King Of The Blues (1992) [4CD Box Set]\CD1\12 - Sneakin' Around.wav

Pre-gap length 0:00:01.55

Peak level 100.0 %
Track quality 100.0 %
Test CRC 4325F1E2
Copy CRC 4325F1E2
Accurately ripped (confidence 21) [641CFC9F]
Copy OK

Track 13

Filename C:\B.B. King - King Of The Blues (1992) [4CD Box Set]\CD1\13 - My Baby's Comin' Home.wav

Peak level 97.7 %
Track quality 100.0 %
Test CRC 8F46123E
Copy CRC 8F46123E
Accurately ripped (confidence 21) [1139C6D0]
Copy OK

Track 14

Filename C:\B.B. King - King Of The Blues (1992) [4CD Box Set]\CD1\14 - Slowly Losing My Mind (Previously Unissued On LP).wav

Pre-gap length 0:00:01.40

Peak level 97.9 %
Track quality 100.0 %
Test CRC 891A68DF
Copy CRC 891A68DF
Accurately ripped (confidence 21) [6DF2DB76]
Copy OK

Track 15

Filename C:\B.B. King - King Of The Blues (1992) [4CD Box Set]\CD1\15 - How Blue Can You Get (Previously Unissued On LP).wav

Peak level 95.6 %
Track quality 100.0 %
Test CRC 53CE45FD
Copy CRC 53CE45FD
Accurately ripped (confidence 21) [DC47CF48]
Copy OK

Track 16

Filename C:\B.B. King - King Of The Blues (1992) [4CD Box Set]\CD1\16 - Rockin' Awhile (Previously Unissued).wav

Pre-gap length 0:00:01.10

Peak level 97.8 %
Track quality 100.0 %
Test CRC AA6840A4
Copy CRC AA6840A4
Accurately ripped (confidence 21) [A0421EDE]
Copy OK

Track 17

Filename C:\B.B. King - King Of The Blues (1992) [4CD Box Set]\CD1\17 - Help The Poor (Previously Unissued On LP).wav

Pre-gap length 0:00:02.22

Peak level 96.5 %
Track quality 100.0 %
Test CRC 402AB861
Copy CRC 402AB861
Accurately ripped (confidence 21) [63C7B9D5]
Copy OK

Track 18

Filename C:\B.B. King - King Of The Blues (1992) [4CD Box Set]\CD1\18 - Stop Leadin' Me On (Previously Unissued On LP).wav

Pre-gap length 0:00:01.20

Peak level 95.8 %
Track quality 100.0 %
Test CRC 90228F13
Copy CRC 90228F13
Accurately ripped (confidence 21) [0696D6C0]
Copy OK

Track 19

Filename C:\B.B. King - King Of The Blues (1992) [4CD Box Set]\CD1\19 - Never Trust A Woman (Previously Unissued On LP).wav

Peak level 89.1 %
Track quality 100.0 %
Test CRC 29758850
Copy CRC 29758850
Accurately ripped (confidence 21) [BE72508A]
Copy OK

Track 20

Filename C:\B.B. King - King Of The Blues (1992) [4CD Box Set]\CD1\20 - Sweet Little Angel (Live 'Regal Theatre').wav

Peak level 88.9 %
Track quality 100.0 %
Test CRC 3CA533EB
Copy CRC 3CA533EB
Accurately ripped (confidence 21) [EFB40648]
Copy OK

Track 21

Filename C:\B.B. King - King Of The Blues (1992) [4CD Box Set]\CD1\21 - All Over Again.wav

Peak level 98.9 %
Track quality 100.0 %
Test CRC B877989B
Copy CRC B877989B
Accurately ripped (confidence 21) [D9AA4E46]
Copy OK

Track 22

Filename C:\B.B. King - King Of The Blues (1992) [4CD Box Set]\CD1\22 - Sloppy Drunk (Previously Unissued).wav

Peak level 100.0 %
Track quality 99.9 %
Test CRC B848D149
Copy CRC B848D149
Accurately ripped (confidence 21) [FD009904]
Copy OK

Track 23

Filename C:\B.B. King - King Of The Blues (1992) [4CD Box Set]\CD1\23 - Don't Answer The Door - Parts 1 & 2.wav

Pre-gap length 0:00:01.05

Peak level 99.6 %
Track quality 100.0 %
Test CRC 958F2C4B
Copy CRC 958F2C4B
Accurately ripped (confidence 21) [02B942EC]
Copy OK

Track 24

Filename C:\B.B. King - King Of The Blues (1992) [4CD Box Set]\CD1\24 - I Done Got Wise.wav

Pre-gap length 0:00:01.50

Peak level 100.0 %
Track quality 100.0 %
Test CRC 50578F5E
Copy CRC 50578F5E
Accurately ripped (confidence 21) [2FCDD49A]
Copy OK

Track 25

Filename C:\B.B. King - King Of The Blues (1992) [4CD Box Set]\CD1\25 - Think It Over.wav

Pre-gap length 0:00:01.13

Peak level 97.7 %
Track quality 100.0 %
Test CRC 0EB971FF
Copy CRC 0EB971FF
Accurately ripped (confidence 21) [DAE60264]
Copy OK

Track 26

Filename C:\B.B. King - King Of The Blues (1992) [4CD Box Set]\CD1\26 - Gambler's Blues (Live).wav

Peak level 100.0 %
Track quality 99.9 %
Test CRC 57256AD7
Copy CRC 57256AD7
Accurately ripped (confidence 21) [FB89B7E0]
Copy OK


All tracks accurately ripped

No errors occurred

End of status report
–––––––––––––––––––––––––––––––––––––––––––––––––––––––––––––––-
Exact Audio Copy V0.99 prebeta 5 from 4. May 2009

EAC extraction logfile from 15. November 2009, 17:39

B.B. King / King Of The Blues (1966-1969) (CD2)

Used drive : TSSTcorpCD/DVDW TS-H552L Adapter: 3 ID: 0

Read mode : Secure
Utilize accurate stream : Yes
Defeat audio cache : Yes
Make use of C2 pointers : No

Read offset correction : 6
Overread into Lead-In and Lead-Out : No
Fill up missing offset samples with silence : Yes
Delete leading and trailing silent blocks : No
Null samples used in CRC calculations : Yes
Used interface : Native Win32 interface for Win NT & 2000
Gap handling : Appended to previous track

Used output format : User Defined Encoder
Selected bitrate : 1024 kBit/s
Quality : High
Add ID3 tag : No
Command line compressor : C:\Program Files\FLAC\flac.exe
Additional command line options : -6 -V -T "ARTIST=%a" -T "TITLE=%t" -T "ALBUM=%g" -T "DATE=%y" -T "TRACKNUMBER=%n" -T "GENRE=%m" -T "COMMENT=EAC FLAC -6" %s


TOC of the extracted CD

Track | Start | Length | Start sector | End sector
––––––––––––––––––––––––––––-
1 | 0:00.00 | 6:30.47 | 0 | 29296
2 | 6:30.47 | 3:32.13 | 29297 | 45209
3 | 10:02.60 | 6:11.07 | 45210 | 73041
4 | 16:13.67 | 2:33.68 | 73042 | 84584
5 | 18:47.60 | 2:44.35 | 84585 | 96919
6 | 21:32.20 | 10:15.37 | 96920 | 143081
7 | 31:47.57 | 5:49.18 | 143082 | 169274
8 | 37:37.00 | 2:47.10 | 169275 | 181809
9 | 40:24.10 | 2:35.60 | 181810 | 193494
10 | 42:59.70 | 4:13.72 | 193495 | 212541
11 | 47:13.67 | 8:35.40 | 212542 | 251206
12 | 55:49.32 | 3:15.15 | 251207 | 265846
13 | 59:04.47 | 2:47.23 | 265847 | 278394
14 | 61:51.70 | 2:39.05 | 278395 | 290324
15 | 64:31.00 | 4:36.32 | 290325 | 311056
16 | 69:07.32 | 5:35.18 | 311057 | 336199


Track 1

Filename C:\B.B. King - King Of The Blues (1992) [4CD Box Set]\CD2\01 - Goin' Down Slow (Live - Previously Unissued).wav

Pre-gap length 0:00:02.00

Peak level 89.1 %
Track quality 100.0 %
Test CRC 93C5CD58
Copy CRC 93C5CD58
Accurately ripped (confidence 6) [ED33132A]
Copy OK

Track 2

Filename C:\B.B. King - King Of The Blues (1992) [4CD Box Set]\CD2\02 - Tired Of Your Jive (Live).wav

Peak level 78.7 %
Track quality 99.9 %
Test CRC D8340166
Copy CRC D8340166
Accurately ripped (confidence 6) [DA68B81B]
Copy OK

Track 3

Filename C:\B.B. King - King Of The Blues (1992) [4CD Box Set]\CD2\03 - Sweet Sixteen - Parts 1 & 2 (Live - Complete Version Previously Unissued On U.S. LP).wav

Peak level 85.4 %
Track quality 100.0 %
Test CRC 9E8EA834
Copy CRC 9E8EA834
Accurately ripped (confidence 6) [ED081C2C]
Copy OK

Track 4

Filename C:\B.B. King - King Of The Blues (1992) [4CD Box Set]\CD2\04 - Paying The Cost To Be The Boss.wav

Peak level 100.0 %
Track quality 100.0 %
Test CRC 2867C311
Copy CRC 2867C311
Accurately ripped (confidence 6) [30FA0208]
Copy OK

Track 5

Filename C:\B.B. King - King Of The Blues (1992) [4CD Box Set]\CD2\05 - I'm Gonna Do What They Do To Me.wav

Peak level 99.7 %
Track quality 100.0 %
Test CRC E72F3212
Copy CRC E72F3212
Accurately ripped (confidence 6) [814AE7EE]
Copy OK

Track 6

Filename C:\B.B. King - King Of The Blues (1992) [4CD Box Set]\CD2\06 - Lucille.wav

Peak level 98.5 %
Track quality 100.0 %
Test CRC 4ED6498B
Copy CRC 4ED6498B
Accurately ripped (confidence 6) [B4E50929]
Copy OK

Track 7

Filename C:\B.B. King - King Of The Blues (1992) [4CD Box Set]\CD2\07 - Watch Yourself.wav

Pre-gap length 0:00:01.15

Peak level 81.7 %
Track quality 100.0 %
Test CRC DA5178D7
Copy CRC DA5178D7
Accurately ripped (confidence 6) [0CC34B25]
Copy OK

Track 8

Filename C:\B.B. King - King Of The Blues (1992) [4CD Box Set]\CD2\08 - You Put It On Me.wav

Pre-gap length 0:00:01.41

Peak level 100.0 %
Track quality 100.0 %
Test CRC 114D001E
Copy CRC 114D001E
Accurately ripped (confidence 6) [CE9C05DF]
Copy OK

Track 9

Filename C:\B.B. King - King Of The Blues (1992) [4CD Box Set]\CD2\09 - Get Myself Somebody (Previously Unissued On LP).wav

Peak level 98.9 %
Track quality 100.0 %
Test CRC CC4B0715
Copy CRC CC4B0715
Accurately ripped (confidence 6) [7E12B991]
Copy OK

Track 10

Filename C:\B.B. King - King Of The Blues (1992) [4CD Box Set]\CD2\10 - I Want You So Bad.wav

Peak level 81.4 %
Track quality 100.0 %
Test CRC B9A54B98
Copy CRC B9A54B98
Accurately ripped (confidence 6) [48523FBC]
Copy OK

Track 11

Filename C:\B.B. King - King Of The Blues (1992) [4CD Box Set]\CD2\11 - Why I Sing The Blues.wav

Peak level 100.0 %
Track quality 100.0 %
Test CRC 3B381265
Copy CRC 3B381265
Accurately ripped (confidence 6) [EB54DA39]
Copy OK

Track 12

Filename C:\B.B. King - King Of The Blues (1992) [4CD Box Set]\CD2\12 - Get Off My Back Woman.wav

Peak level 94.0 %
Track quality 100.0 %
Test CRC CAD2001E
Copy CRC CAD2001E
Accurately ripped (confidence 6) [745AA451]
Copy OK

Track 13

Filename C:\B.B. King - King Of The Blues (1992) [4CD Box Set]\CD2\13 - Please Accept My Love (Live).wav

Peak level 93.8 %
Track quality 100.0 %
Test CRC C78690F2
Copy CRC C78690F2
Accurately ripped (confidence 6) [FFA731D0]
Copy OK

Track 14

Filename C:\B.B. King - King Of The Blues (1992) [4CD Box Set]\CD2\14 - Fools Get Wise (Previously Unissued).wav

Peak level 90.0 %
Track quality 99.9 %
Test CRC 10C22D68
Copy CRC 10C22D68
Accurately ripped (confidence 6) [0D78376D]
Copy OK

Track 15

Filename C:\B.B. King - King Of The Blues (1992) [4CD Box Set]\CD2\15 - No Good.wav

Peak level 97.0 %
Track quality 100.0 %
Test CRC FD75EC62
Copy CRC FD75EC62
Accurately ripped (confidence 6) [A105551F]
Copy OK

Track 16

Filename C:\B.B. King - King Of The Blues (1992) [4CD Box Set]\CD2\16 - So Excited.wav

Peak level 94.3 %
Track quality 100.0 %
Test CRC DB9CACA4
Copy CRC DB9CACA4
Accurately ripped (confidence 6) [BA7A5E98]
Copy OK


All tracks accurately ripped

No errors occurred

End of status report
–––––––––––––––––––––––––––––––––––––––––––––––––––––––––––––––
Exact Audio Copy V0.99 prebeta 5 from 4. May 2009

EAC extraction logfile from 15. November 2009, 18:02

B.B. King / King Of The Blues (1969-1975) (CD3)

Used drive : TSSTcorpCD/DVDW TS-H552L Adapter: 3 ID: 0

Read mode : Secure
Utilize accurate stream : Yes
Defeat audio cache : Yes
Make use of C2 pointers : No

Read offset correction : 6
Overread into Lead-In and Lead-Out : No
Fill up missing offset samples with silence : Yes
Delete leading and trailing silent blocks : No
Null samples used in CRC calculations : Yes
Used interface : Native Win32 interface for Win NT & 2000
Gap handling : Appended to previous track

Used output format : User Defined Encoder
Selected bitrate : 1024 kBit/s
Quality : High
Add ID3 tag : No
Command line compressor : C:\Program Files\FLAC\flac.exe
Additional command line options : -6 -V -T "ARTIST=%a" -T "TITLE=%t" -T "ALBUM=%g" -T "DATE=%y" -T "TRACKNUMBER=%n" -T "GENRE=%m" -T "COMMENT=EAC FLAC -6" %s


TOC of the extracted CD

Track | Start | Length | Start sector | End sector
––––––––––––––––––––––––––––-
1 | 0:00.00 | 5:26.35 | 0 | 24484
2 | 5:26.35 | 4:58.10 | 24485 | 46844
3 | 10:24.45 | 1:26.62 | 46845 | 53356
4 | 11:51.32 | 4:36.58 | 53357 | 74114
5 | 16:28.15 | 3:09.00 | 74115 | 88289
6 | 19:37.15 | 4:53.70 | 88290 | 110334
7 | 24:31.10 | 4:06.37 | 110335 | 128821
8 | 28:37.47 | 6:28.35 | 128822 | 157956
9 | 35:06.07 | 5:09.20 | 157957 | 181151
10 | 40:15.27 | 5:15.38 | 181152 | 204814
11 | 45:30.65 | 3:13.47 | 204815 | 219336
12 | 48:44.37 | 3:26.15 | 219337 | 234801
13 | 52:10.52 | 5:13.65 | 234802 | 258341
14 | 57:24.42 | 8:35.08 | 258342 | 296974
15 | 65:59.50 | 3:29.22 | 296975 | 312671
16 | 69:28.72 | 3:15.05 | 312672 | 327301


Track 1

Filename C:\B.B. King - King Of The Blues (1992) [4CD Box Set]\CD3\01 - The Thrill Is Gone.wav

Pre-gap length 0:00:02.00

Peak level 86.2 %
Track quality 100.0 %
Test CRC A2280770
Copy CRC A2280770
Accurately ripped (confidence 19) [7501406B]
Copy OK

Track 2

Filename C:\B.B. King - King Of The Blues (1992) [4CD Box Set]\CD3\02 - Confessin' The Blues.wav

Peak level 85.2 %
Track quality 100.0 %
Test CRC EF76E0B1
Copy CRC EF76E0B1
Accurately ripped (confidence 18) [72264FDE]
Copy OK

Track 3

Filename C:\B.B. King - King Of The Blues (1992) [4CD Box Set]\CD3\03 - Nobody Loves Me But My Mother.wav

Pre-gap length 0:00:02.48

Peak level 98.9 %
Track quality 100.0 %
Test CRC C5913712
Copy CRC C5913712
Accurately ripped (confidence 18) [6769924D]
Copy OK

Track 4

Filename C:\B.B. King - King Of The Blues (1992) [4CD Box Set]\CD3\04 - Hummingbird.wav

Peak level 92.9 %
Track quality 100.0 %
Test CRC 90614944
Copy CRC 90614944
Accurately ripped (confidence 19) [38D416AE]
Copy OK

Track 5

Filename C:\B.B. King - King Of The Blues (1992) [4CD Box Set]\CD3\05 - Ask Me No Questions.wav

Peak level 88.7 %
Track quality 100.0 %
Test CRC C0C159F3
Copy CRC C0C159F3
Accurately ripped (confidence 19) [C3A6B561]
Copy OK

Track 6

Filename C:\B.B. King - King Of The Blues (1992) [4CD Box Set]\CD3\06 - Chains And Things.wav

Pre-gap length 0:00:01.55

Peak level 91.8 %
Track quality 100.0 %
Test CRC 6E5CB97E
Copy CRC 6E5CB97E
Accurately ripped (confidence 17) [E24CF616]
Copy OK

Track 7

Filename C:\B.B. King - King Of The Blues (1992) [4CD Box Set]\CD3\07 - Eyesight To The Blind (Previously Unreleased).wav

Peak level 83.9 %
Track quality 100.0 %
Test CRC 70817E7D
Copy CRC 70817E7D
Accurately ripped (confidence 18) [29B8BAAA]
Copy OK

Track 8

Filename C:\B.B. King - King Of The Blues (1992) [4CD Box Set]\CD3\08 - Niji Baby (Previously Unreleased).wav

Peak level 88.0 %
Track quality 100.0 %
Test CRC 3D97C709
Copy CRC 3D97C709
Accurately ripped (confidence 19) [0E3F55B6]
Copy OK

Track 9

Filename C:\B.B. King - King Of The Blues (1992) [4CD Box Set]\CD3\09 - Blue Shadows.wav

Pre-gap length 0:00:03.00

Peak level 100.0 %
Track quality 100.0 %
Test CRC 24057388
Copy CRC 24057388
Accurately ripped (confidence 18) [62B1E43D]
Copy OK

Track 10

Filename C:\B.B. King - King Of The Blues (1992) [4CD Box Set]\CD3\10 - Ghetto Woman.wav

Pre-gap length 0:00:01.55

Peak level 98.8 %
Track quality 100.0 %
Test CRC D936E569
Copy CRC D936E569
Accurately ripped (confidence 18) [268A7FAD]
Copy OK

Track 11

Filename C:\B.B. King - King Of The Blues (1992) [4CD Box Set]\CD3\11 - Ain't Nobody Home.wav

Pre-gap length 0:00:01.70

Peak level 98.6 %
Track quality 100.0 %
Test CRC 5F3B0539
Copy CRC 5F3B0539
Accurately ripped (confidence 18) [DEF82E73]
Copy OK

Track 12

Filename C:\B.B. King - King Of The Blues (1992) [4CD Box Set]\CD3\12 - I Got Some Help I Don't Need (Single Edit) (Previously Unreleased).wav

Pre-gap length 0:00:02.15

Peak level 90.3 %
Track quality 99.9 %
Test CRC 5E010363
Copy CRC 5E010363
Accurately ripped (confidence 18) [9F356DDE]
Copy OK

Track 13

Filename C:\B.B. King - King Of The Blues (1992) [4CD Box Set]\CD3\13 - Five Long Years.wav

Pre-gap length 0:00:02.35

Peak level 90.1 %
Track quality 100.0 %
Test CRC 6A995D88
Copy CRC 6A995D88
Accurately ripped (confidence 19) [FE910761]
Copy OK

Track 14

Filename C:\B.B. King - King Of The Blues (1992) [4CD Box Set]\CD3\14 - To Know You Is To Love You.wav

Pre-gap length 0:00:02.12

Peak level 99.1 %
Track quality 100.0 %
Test CRC 9C3C5D2E
Copy CRC 9C3C5D2E
Accurately ripped (confidence 17) [5E6A686C]
Copy OK

Track 15

Filename C:\B.B. King - King Of The Blues (1992) [4CD Box Set]\CD3\15 - I Like To Live The Love.wav

Pre-gap length 0:00:02.65

Peak level 97.8 %
Track quality 100.0 %
Test CRC 6B9D82E4
Copy CRC 6B9D82E4
Accurately ripped (confidence 18) [255FC931]
Copy OK

Track 16

Filename C:\B.B. King - King Of The Blues (1992) [4CD Box Set]\CD3\16 - Don't Make Me Pay For His Mistakes.wav

Pre-gap length 0:00:02.42

Peak level 88.6 %
Track quality 100.0 %
Test CRC 83A7B1D1
Copy CRC 83A7B1D1
Accurately ripped (confidence 17) [99B14781]
Copy OK


All tracks accurately ripped

No errors occurred

End of status report
––––––––––––––––––––––––––––––––––––––––––––––––––––––––––––––––––––––
Exact Audio Copy V0.99 prebeta 5 from 4. May 2009

EAC extraction logfile from 15. November 2009, 18:23

B.B. King / King Of The Blues (1976-1991) (CD4)

Used drive : TSSTcorpCD/DVDW TS-H552L Adapter: 3 ID: 0

Read mode : Secure
Utilize accurate stream : Yes
Defeat audio cache : Yes
Make use of C2 pointers : No

Read offset correction : 6
Overread into Lead-In and Lead-Out : No
Fill up missing offset samples with silence : Yes
Delete leading and trailing silent blocks : No
Null samples used in CRC calculations : Yes
Used interface : Native Win32 interface for Win NT & 2000
Gap handling : Appended to previous track

Used output format : User Defined Encoder
Selected bitrate : 1024 kBit/s
Quality : High
Add ID3 tag : No
Command line compressor : C:\Program Files\FLAC\flac.exe
Additional command line options : -6 -V -T "ARTIST=%a" -T "TITLE=%t" -T "ALBUM=%g" -T "DATE=%y" -T "TRACKNUMBER=%n" -T "GENRE=%m" -T "COMMENT=EAC FLAC -6" %s


TOC of the extracted CD

Track | Start | Length | Start sector | End sector
––––––––––––––––––––––––––––-
1 | 0:00.00 | 5:33.30 | 0 | 25004
2 | 5:33.30 | 6:09.00 | 25005 | 52679
3 | 11:42.30 | 3:06.45 | 52680 | 66674
4 | 14:49.00 | 5:29.54 | 66675 | 91403
5 | 20:18.54 | 4:12.43 | 91404 | 110346
6 | 24:31.22 | 3:22.73 | 110347 | 125569
7 | 27:54.20 | 2:48.52 | 125570 | 138221
8 | 30:42.72 | 3:46.33 | 138222 | 155204
9 | 34:29.30 | 0:55.17 | 155205 | 159346
10 | 35:24.47 | 4:46.38 | 159347 | 180834
11 | 40:11.10 | 4:15.50 | 180835 | 200009
12 | 44:26.60 | 1:47.20 | 200010 | 208054
13 | 46:14.05 | 4:12.52 | 208055 | 227006
14 | 50:26.57 | 4:19.43 | 227007 | 246474
15 | 54:46.25 | 3:30.12 | 246475 | 262236
16 | 58:16.37 | 4:02.40 | 262237 | 280426
17 | 62:19.02 | 4:01.08 | 280427 | 298509
18 | 66:20.10 | 4:10.52 | 298510 | 317311
19 | 70:30.62 | 2:51.13 | 317312 | 330149


Track 1

Filename C:\B.B. King - King Of The Blues (1992) [4CD Box Set]\CD4\01 - Let The Good Times Roll (Live with Bobby Bland, ABC, 1976).wav

Pre-gap length 0:00:02.00

Peak level 99.9 %
Track quality 99.9 %
Test CRC 496E2C69
Copy CRC 496E2C69
Accurately ripped (confidence 19) [15CC6E9E]
Copy OK

Track 2

Filename C:\B.B. King - King Of The Blues (1992) [4CD Box Set]\CD4\02 - Don't You Lie To Me (ABC, 1976).wav

Pre-gap length 0:00:01.70

Peak level 88.9 %
Track quality 100.0 %
Test CRC 39415377
Copy CRC 39415377
Accurately ripped (confidence 19) [40CFDE99]
Copy OK

Track 3

Filename C:\B.B. King - King Of The Blues (1992) [4CD Box Set]\CD4\03 - Mother Fuyer (ABC, 1976).wav

Pre-gap length 0:00:01.60

Peak level 97.1 %
Track quality 99.9 %
Test CRC F6B12EC2
Copy CRC F6B12EC2
Accurately ripped (confidence 19) [1DD15302]
Copy OK

Track 4

Filename C:\B.B. King - King Of The Blues (1992) [4CD Box Set]\CD4\04 - Never Make A Move Too Soon (ABC, 1977).wav

Peak level 91.4 %
Track quality 99.9 %
Test CRC C4281779
Copy CRC C4281779
Accurately ripped (confidence 19) [4471CEB7]
Copy OK

Track 5

Filename C:\B.B. King - King Of The Blues (1992) [4CD Box Set]\CD4\05 - When It All Comes Down (I'll Still Be Around) (ABC, 1977).wav

Peak level 96.4 %
Track quality 100.0 %
Test CRC C9172726
Copy CRC C9172726
Accurately ripped (confidence 19) [3B726AE1]
Copy OK

Track 6

Filename C:\B.B. King - King Of The Blues (1992) [4CD Box Set]\CD4\06 - Better Not Look Down (MCA, 1978 & 1979).wav

Peak level 94.6 %
Track quality 100.0 %
Test CRC B152799B
Copy CRC B152799B
Accurately ripped (confidence 19) [D96473DE]
Copy OK

Track 7

Filename C:\B.B. King - King Of The Blues (1992) [4CD Box Set]\CD4\07 - Caldonia (Live 'Ole Miss,' MCA, 1979).wav

Pre-gap length 0:00:02.58

Peak level 95.2 %
Track quality 99.9 %
Test CRC 8A9D3725
Copy CRC 8A9D3725
Accurately ripped (confidence 19) [39A359EA]
Copy OK

Track 8

Filename C:\B.B. King - King Of The Blues (1992) [4CD Box Set]\CD4\08 - There Must Be A Better World Somewhere (MCA, 1980).wav

Pre-gap length 0:00:01.02

Peak level 99.2 %
Track quality 99.9 %
Test CRC D1320F37
Copy CRC D1320F37
Accurately ripped (confidence 19) [E8D11CE5]
Copy OK

Track 9

Filename C:\B.B. King - King Of The Blues (1992) [4CD Box Set]\CD4\09 - Play With Your Poodle (Solo) (1982, previously unreleased).wav

Pre-gap length 0:00:01.40

Peak level 97.5 %
Track quality 100.0 %
Test CRC F4B3FED3
Copy CRC F4B3FED3
Accurately ripped (confidence 19) [F4CB4488]
Copy OK

Track 10

Filename C:\B.B. King - King Of The Blues (1992) [4CD Box Set]\CD4\10 - Darlin' You Know I Love You (MCA, 1982).wav

Peak level 98.2 %
Track quality 100.0 %
Test CRC B99049B9
Copy CRC B99049B9
Accurately ripped (confidence 19) [35329A1E]
Copy OK

Track 11

Filename C:\B.B. King - King Of The Blues (1992) [4CD Box Set]\CD4\11 - Inflation Blues (MCA, 1982).wav

Peak level 95.9 %
Track quality 99.9 %
Test CRC 9673A635
Copy CRC 9673A635
Accurately ripped (confidence 19) [7806664B]
Copy OK

Track 12

Filename C:\B.B. King - King Of The Blues (1992) [4CD Box Set]\CD4\12 - Make Love To Me (Rehearsal solo with piano, 1982, previously unreleased).wav

Pre-gap length 0:00:03.08

Peak level 93.5 %
Track quality 99.9 %
Test CRC 4579585E
Copy CRC 4579585E
Accurately ripped (confidence 19) [F730E552]
Copy OK

Track 13

Filename C:\B.B. King - King Of The Blues (1992) [4CD Box Set]\CD4\13 - Into The Night (MCA, 1985, from the soundtrack 'Into The Night').wav

Pre-gap length 0:00:02.03

Peak level 93.7 %
Track quality 99.9 %
Test CRC 2734EB58
Copy CRC 2734EB58
Accurately ripped (confidence 19) [4167B4B4]
Copy OK

Track 14

Filename C:\B.B. King - King Of The Blues (1992) [4CD Box Set]\CD4\14 - Six Silver Strings (MCA, 1984).wav

Pre-gap length 0:00:02.17

Peak level 100.0 %
Track quality 100.0 %
Test CRC 1F5380F1
Copy CRC 1F5380F1
Accurately ripped (confidence 19) [3CA093AB]
Copy OK

Track 15

Filename C:\B.B. King - King Of The Blues (1992) [4CD Box Set]\CD4\15 - When Love Comes To Town (With U2, 1987, This version previously unreleased on LP).wav

Peak level 96.8 %
Track quality 99.9 %
Test CRC 6D003282
Copy CRC 6D003282
Accurately ripped (confidence 19) [69847920]
Copy OK

Track 16

Filename C:\B.B. King - King Of The Blues (1992) [4CD Box Set]\CD4\16 - Right Time, Wrong Place (MCA, 1990, from the soundtrack 'Air America'with Bonnie Raitt).wav

Peak level 92.2 %
Track quality 100.0 %
Test CRC 019ADC59
Copy CRC 019ADC59
Accurately ripped (confidence 19) [4F5129D8]
Copy OK

Track 17

Filename C:\B.B. King - King Of The Blues (1992) [4CD Box Set]\CD4\17 - Many Miles Travelled (1991, previously unreleased).wav

Peak level 93.9 %
Track quality 100.0 %
Test CRC 097011E1
Copy CRC 097011E1
Accurately ripped (confidence 19) [C542FB43]
Copy OK

Track 18

Filename C:\B.B. King - King Of The Blues (1992) [4CD Box Set]\CD4\18 - I'm Moving On (MCA, 1991).wav

Peak level 78.9 %
Track quality 99.9 %
Test CRC AE3E7F1D
Copy CRC AE3E7F1D
Accurately ripped (confidence 19) [82E8F607]
Copy OK

Track 19

Filename C:\B.B. King - King Of The Blues (1992) [4CD Box Set]\CD4\19 - Since I Met You Baby (With Gary Moore, Charisma,Virgin Records, 1991).wav

Peak level 98.1 %
Track quality 100.0 %
Test CRC 6EF59070
Copy CRC 6EF59070
Accurately ripped (confidence 14) [E67D41AA]
Copy OK


All tracks accurately ripped

No errors occurred

End of status report

Please don't post the links and passes in your comments…

Linkz