Subcategories

V.A. - Beginner's guide to tango (3CD, 2004)

Posted By: Speedyclick
V.A. - Beginner's guide to tango (3CD, 2004)

V.A. - Beginner's guide to tango (3CD, 2004)
EAC Rip | FLAC (image & cue & log) & mp3 @ 320 kbps | tracks: 37 | Scans | 2:07:05 | ~ 628 Mb & 290 Mb
Label: Nascente | 5% recovery record | Original recordings | Tango, nu tango

From the quality series "Beginner's guide to…", this is a versatile 3CD collection of tangos from a wide time span covering almost a century. Each CD covers a different period of this beautiful and passionate music, dance and way of living that started in Argentina at the beginning of the 20th century and continues till today with the many new wonderful styles of tango nuevo. You will find original recordings of "classics" with legends like Carlos Gardel, Anibal Troilo and Astor Piazzola, but also in the last "Cotemporary" CD, some of the best chills of tango-electronica. Nice booklet included. Enjoy another gem in lossless.

TRACKLIST

CD01:Genesis (33:01 | ~ 158 Mb & 89 Mb)
01. Francisco Canaro - La Cumparsita
02. Roberto Firpo - Organito de Suburbio
03. Francisco Lomuto - Fumando Espero
04. Juan Carlos Cobian - Una Droga
05. Carlos Gardel - Volver
06. Alfredo De Angelis & Carlos Dante - Lunes
07. Rodolfo Biagi - Indiferencia
08. Nelly Omar - Desde El Alma
09. Ciriaco Ortiz - Mano A Mano
10. Manuel Pizaro - Madreselva
11. Pedro Laurenz - Abandono
12. Angel Villoldo - El Negro Alegre

CD02:Evolution (37:32 | ~ 132 Mb & 68 Mb)
01. Julio De Caro - Mala Junta
02. Pedro Maffia - Chique
03. Ada Falcon - Te Quiero
04. Horacio Salgan - Don Augustin Bardi
05. Osvaldo Pugliese - La Yumba
06. Anibal Troilo - Cafetin de Buenos Aires (feat. Edmundo Rivero)
07. Florindo Sassone - Carminito
08. Roberto Goyeneche & Nestor Marconi - Como Dos Extranos
09. Charlo - Nostalgias
10. Astor Piazzolla - Los Suenos
11. Sexteto Mayor - Gallo Ciego
12. Eduardo Rovira - A Fuego Lento

CD03:Contemporary (56:32 | ~ 338 Mb & 133 Mb)
01. Quinteto la Camorra - Libertango
02. El Arranque - Que Te Importa Que Te Llore
03. Sonia Possetti Quinteto - Bailarina
04. La Chicana - Milonga De Los Perros
05. Daniel Melingo - Ayer
06. Bajofondo - En Mi, Soledad
07. Carlos Libedinsky - Piano Secuencia
08. Alexkid - Luna (Full Moon remix)
09. S Xela - Jo Eurotango A La Argentina
10. McDougall Tango - San Telmo Lounge
11. Osunlade - Milonga
12. Jaime Wilensky - Compadre
13. Daniel Claudio Garcia - Tangoloco Remix

Exact Audio Copy V1.0 beta 3 from 29. August 2011

EAC extraction logfile from 8. February 2013, 2:34

Various Artists / Beginner's Guide to Tango

Used drive : HL-DT-STDVDRAM GH10N Adapter: 1 ID: 1

Read mode : Secure
Utilize accurate stream : Yes
Defeat audio cache : Yes
Make use of C2 pointers : No

Read offset correction : 667
Overread into Lead-In and Lead-Out : No
Fill up missing offset samples with silence : Yes
Delete leading and trailing silent blocks : No
Null samples used in CRC calculations : Yes
Used interface : Native Win32 interface for Win NT & 2000

Used output format : User Defined Encoder
Selected bitrate : 1024 kBit/s
Quality : High
Add ID3 tag : Yes
Command line compressor : C:\Program Files\Exact Audio Copy New\Flac\flac.exe
Additional command line options : -V -5 -T "artist=%artist%" -T "title=%title%" -T "album=%albumtitle%" -T "tracknumber=%tracknr2%" -T "genre=%genre%" -5 %source%


TOC of the extracted CD

Track | Start | Length | Start sector | End sector
––––––––––––––––––––––––––––-
1 | 0:00.00 | 2:36.14 | 0 | 11713
2 | 2:36.14 | 2:32.06 | 11714 | 23119
3 | 5:08.20 | 2:56.42 | 23120 | 36361
4 | 8:04.62 | 2:59.58 | 36362 | 49844
5 | 11:04.45 | 2:54.57 | 49845 | 62951
6 | 13:59.27 | 2:55.15 | 62952 | 76091
7 | 16:54.42 | 2:33.15 | 76092 | 87581
8 | 19:27.57 | 2:53.57 | 87582 | 100613
9 | 22:21.39 | 2:39.35 | 100614 | 112573
10 | 25:00.74 | 2:43.39 | 112574 | 124837
11 | 27:44.38 | 2:31.20 | 124838 | 136182
12 | 30:15.58 | 2:45.40 | 136183 | 148597


Range status and errors

Selected range

Filename S:\MUSIC\Uploaded\Beginer's Guide To Tango\Beginner's Guide To Tango 1 - Genesis\Various Artists - Beginner's Guide to Tango CD1.wav

Peak level 100.0 %
Extraction speed 5.2 X
Range quality 100.0 %
Test CRC AB228348
Copy CRC AB228348
Copy OK

No errors occurred


AccurateRip summary

Track 1 cannot be verified as accurate (confidence 3) [4237D368], AccurateRip returned [D5315A0C] (AR v2)
Track 2 cannot be verified as accurate (confidence 4) [CD1ADD91], AccurateRip returned [24B419DB] (AR v2)
Track 3 cannot be verified as accurate (confidence 4) [163B9CDE], AccurateRip returned [A85645BB] (AR v2)
Track 4 cannot be verified as accurate (confidence 4) [D61D6710], AccurateRip returned [700DC88B] (AR v2)
Track 5 cannot be verified as accurate (confidence 4) [D1486D2C], AccurateRip returned [6C37E265] (AR v2)
Track 6 cannot be verified as accurate (confidence 4) [3C97CCE0], AccurateRip returned [00745975] (AR v2)
Track 7 cannot be verified as accurate (confidence 4) [B5C9417E], AccurateRip returned [EE021A01] (AR v2)
Track 8 cannot be verified as accurate (confidence 4) [46EEDBAB], AccurateRip returned [2416367B] (AR v2)
Track 9 cannot be verified as accurate (confidence 4) [74879002], AccurateRip returned [7B06B0E6] (AR v2)
Track 10 cannot be verified as accurate (confidence 4) [96C91C73], AccurateRip returned [9CC2475B] (AR v2)
Track 11 cannot be verified as accurate (confidence 4) [750E922D], AccurateRip returned [C34D388E] (AR v2)
Track 12 cannot be verified as accurate (confidence 4) [0296AD4F], AccurateRip returned [FB6A1430] (AR v2)

No tracks could be verified as accurate
You may have a different pressing from the one(s) in the database

End of status report

–– CUETools DB Plugin V2.1.3

[CTDB TOCID: 7Hzz9SLF0M4d50fb0oYnOITBIqQ-] disk not present in database, Submit result: 7Hzz9SLF0M4d50fb0oYnOITBIqQ- has been uploaded


==== Log checksum C283DF9B22987BD3F60970296D872F87FA7FF50C573C1344ACB1DB66411D3BFD ====

Exact Audio Copy V1.0 beta 3 from 29. August 2011

EAC extraction logfile from 8. February 2013, 3:31

Various Artists / Beginner's Guide to Tango CD2

Used drive : HL-DT-STDVDRAM GH10N Adapter: 1 ID: 1

Read mode : Secure
Utilize accurate stream : Yes
Defeat audio cache : Yes
Make use of C2 pointers : No

Read offset correction : 667
Overread into Lead-In and Lead-Out : No
Fill up missing offset samples with silence : Yes
Delete leading and trailing silent blocks : No
Null samples used in CRC calculations : Yes
Used interface : Native Win32 interface for Win NT & 2000

Used output format : User Defined Encoder
Selected bitrate : 1024 kBit/s
Quality : High
Add ID3 tag : Yes
Command line compressor : C:\Program Files\Exact Audio Copy New\Flac\flac.exe
Additional command line options : -V -5 -T "artist=%artist%" -T "title=%title%" -T "album=%albumtitle%" -T "tracknumber=%tracknr2%" -T "genre=%genre%" -5 %source%


TOC of the extracted CD

Track | Start | Length | Start sector | End sector
––––––––––––––––––––––––––––-
1 | 0:00.00 | 3:15.35 | 0 | 14659
2 | 3:15.35 | 3:41.36 | 14660 | 31270
3 | 6:56.71 | 3:05.67 | 31271 | 45212
4 | 10:02.63 | 3:00.46 | 45213 | 58758
5 | 13:03.34 | 2:46.31 | 58759 | 71239
6 | 15:49.65 | 3:27.74 | 71240 | 86838
7 | 19:17.64 | 2:40.29 | 86839 | 98867
8 | 21:58.18 | 2:45.30 | 98868 | 111272
9 | 24:43.48 | 3:39.56 | 111273 | 127753
10 | 28:23.29 | 2:59.24 | 127754 | 141202
11 | 31:22.53 | 3:03.41 | 141203 | 154968
12 | 34:26.19 | 3:06.15 | 154969 | 168933


Range status and errors

Selected range

Filename S:\MUSIC\Uploaded\Beginer's Guide To Tango\Beginner's Guide To Tango 2 - Evolution\Various Artists - Beginner's Guide to Tango CD2.wav

Peak level 100.0 %
Extraction speed 3.3 X
Range quality 99.9 %
Test CRC F7E396B1
Copy CRC F7E396B1
Copy OK

No errors occurred


AccurateRip summary

Track 1 cannot be verified as accurate (confidence 3) [50DC2A5D], AccurateRip returned [F079C3E0] (AR v2)
Track 2 cannot be verified as accurate (confidence 4) [3799F436], AccurateRip returned [4D4A11B0] (AR v2)
Track 3 cannot be verified as accurate (confidence 4) [609D1082], AccurateRip returned [80377DC8] (AR v2)
Track 4 cannot be verified as accurate (confidence 4) [2CC9A2AA], AccurateRip returned [542A720D] (AR v2)
Track 5 cannot be verified as accurate (confidence 4) [3AE49024], AccurateRip returned [F3B269E4] (AR v2)
Track 6 cannot be verified as accurate (confidence 4) [7AC8E7B3], AccurateRip returned [521509CE] (AR v2)
Track 7 cannot be verified as accurate (confidence 4) [DC25BF7B], AccurateRip returned [4AB0BC92] (AR v2)
Track 8 cannot be verified as accurate (confidence 4) [0C6DE39F], AccurateRip returned [876D3A38] (AR v2)
Track 9 cannot be verified as accurate (confidence 4) [F21274EB], AccurateRip returned [D40174BF] (AR v2)
Track 10 cannot be verified as accurate (confidence 4) [7BB88044], AccurateRip returned [FB021C89] (AR v2)
Track 11 cannot be verified as accurate (confidence 4) [A5E35ECB], AccurateRip returned [C3F0E7CF] (AR v2)
Track 12 cannot be verified as accurate (confidence 4) [FEA709B4], AccurateRip returned [3FBA1EF7] (AR v2)

No tracks could be verified as accurate
You may have a different pressing from the one(s) in the database

End of status report

–– CUETools DB Plugin V2.1.3

[CTDB TOCID: 9hMV.rn0FQDcj1eaMEBF3tO3zNg-] disk not present in database, Submit result: 9hMV.rn0FQDcj1eaMEBF3tO3zNg- has been uploaded


==== Log checksum 50C4D5A70BDE58E1F3531F66F90257FAD35A87B75AE3271B803E084750717741 ====

Exact Audio Copy V1.0 beta 3 from 29. August 2011

EAC extraction logfile from 8. February 2013, 4:03

Various Artists / Beginner's Guide to Tango CD3

Used drive : HL-DT-STDVDRAM GH10N Adapter: 1 ID: 1

Read mode : Secure
Utilize accurate stream : Yes
Defeat audio cache : Yes
Make use of C2 pointers : No

Read offset correction : 667
Overread into Lead-In and Lead-Out : No
Fill up missing offset samples with silence : Yes
Delete leading and trailing silent blocks : No
Null samples used in CRC calculations : Yes
Used interface : Native Win32 interface for Win NT & 2000

Used output format : User Defined Encoder
Selected bitrate : 1024 kBit/s
Quality : High
Add ID3 tag : Yes
Command line compressor : C:\Program Files\Exact Audio Copy New\Flac\flac.exe
Additional command line options : -V -5 -T "artist=%artist%" -T "title=%title%" -T "album=%albumtitle%" -T "tracknumber=%tracknr2%" -T "genre=%genre%" -5 %source%


TOC of the extracted CD

Track | Start | Length | Start sector | End sector
––––––––––––––––––––––––––––-
1 | 0:00.00 | 4:02.27 | 0 | 18176
2 | 4:02.27 | 3:34.12 | 18177 | 34238
3 | 7:36.39 | 3:26.70 | 34239 | 49758
4 | 11:03.34 | 2:39.59 | 49759 | 61742
5 | 13:43.18 | 2:33.65 | 61743 | 73282
6 | 16:17.08 | 4:07.29 | 73283 | 91836
7 | 20:24.37 | 4:15.68 | 91837 | 111029
8 | 24:40.30 | 5:38.31 | 111030 | 136410
9 | 30:18.61 | 6:20.08 | 136411 | 164918
10 | 36:38.69 | 7:27.71 | 164919 | 198514
11 | 44:06.65 | 4:58.16 | 198515 | 220880
12 | 49:05.06 | 3:52.04 | 220881 | 238284
13 | 52:57.10 | 3:35.48 | 238285 | 254457


Range status and errors

Selected range

Filename S:\MUSIC\Uploaded\Beginer's Guide To Tango\Beginner's Guide To Tango 3 - Contemporary\Various Artists - Beginner's Guide to Tango CD3.wav

Peak level 100.0 %
Extraction speed 3.8 X
Range quality 100.0 %
Test CRC D234EC13
Copy CRC D234EC13
Copy OK

No errors occurred


AccurateRip summary

Track 1 cannot be verified as accurate (confidence 5) [50E97554], AccurateRip returned [43DCB9DC] (AR v2)
Track 2 cannot be verified as accurate (confidence 6) [9A71CEEB], AccurateRip returned [1EE1F808] (AR v2)
Track 3 cannot be verified as accurate (confidence 6) [A9FE90ED], AccurateRip returned [5DDA3490] (AR v2)
Track 4 cannot be verified as accurate (confidence 6) [812B0933], AccurateRip returned [100F53FE] (AR v2)
Track 5 cannot be verified as accurate (confidence 6) [E4D8ED0B], AccurateRip returned [65DEC91C] (AR v2)
Track 6 cannot be verified as accurate (confidence 6) [F499619C], AccurateRip returned [D78B0098] (AR v2)
Track 7 cannot be verified as accurate (confidence 6) [41D51D29], AccurateRip returned [142DF5FC] (AR v2)
Track 8 cannot be verified as accurate (confidence 6) [4F67E0D3], AccurateRip returned [A6AFFC5E] (AR v2)
Track 9 cannot be verified as accurate (confidence 6) [6EDA1862], AccurateRip returned [B68F91C8] (AR v2)
Track 10 cannot be verified as accurate (confidence 6) [0DE91B51], AccurateRip returned [39088D38] (AR v2)
Track 11 cannot be verified as accurate (confidence 6) [5A223D4A], AccurateRip returned [67D4FF1B] (AR v2)
Track 12 cannot be verified as accurate (confidence 6) [078D8367], AccurateRip returned [9FFBFEC0] (AR v2)
Track 13 cannot be verified as accurate (confidence 6) [F47B39D4], AccurateRip returned [AF1E72F6] (AR v2)

No tracks could be verified as accurate
You may have a different pressing from the one(s) in the database

End of status report

–– CUETools DB Plugin V2.1.3

[CTDB TOCID: ak4uqTHrF3UAf3nu80lVB4HUGDE-] disk not present in database, Submit result: ak4uqTHrF3UAf3nu80lVB4HUGDE- has been uploaded


==== Log checksum 24C769252ADC147DE9D23006577B8BBE4772B404E499EBE7397D95EDB60563B6 ====


All credits go to the initial ripper/uploader