Subcategories

Bela Bartok – Rhapsody, Scherzo, Violin Concerto op. posth. (2008)

Posted By: d'Avignon
Bela Bartok – Rhapsody, Scherzo, Violin Concerto op. posth. (2008)

Bela Bartok – Rhapsody, Scherzo, Violin Concerto op. posth. (2008)
Classical/Early 20th Century | FLAC lossless | cuesheets+log | covers+booklet | 1h14m | 326mb
Label: Hungaroton | cat. no. HSACD 32504


Bartok needs no introduction. Here’s one of the Bartok New Series from Hungaroton, of which we have seen far too few as yet. No idea why, as the performances on these albums are downright stellar.

Tracks:

01. Rhapsody for Piano and Orchestra - Adagio molto [0:13:56.26]
02. Rhapsody for Piano and Orchestra - Poco Allegretto [0:10:09.01]
03. Scherzo for Orchestra and Piano - Introduzione. Allegro ma non troppo [0:06:50.86]
04. Scherzo for Orchestra and Piano - Allegro vivace - Scherzo. Allegro [0:09:47.41]
05. Scherzo for Orchestra and Piano - Trio. Andante [0:05:08.64]
06. Scherzo for Orchestra and Piano - Scherzo da capo. Allegro vivace [0:08:31.61]
07. Violin Concerto op. posth. - Andante sostenuto [0:08:37.16]
08. Violin Concerto op. posth. - Allegro giocoso [0:11:11.25]

Performers:

Budapest Festival Orchestra – Ivan Fischer (tr.1-6)
Zoltan Kocsis – piano (tr.1-6)
Hungarian National Philharmonic Orchestra – Zoltan Kocsis (tr.7-8)
Barnabas Kelemen – violin – (tr.7-8)

Exact Audio Copy V1.0 beta 3 from 29. August 2011

EAC extraction logfile from 15. January 2013, 20:42

Bela Bartok / Rhapsody, Scherzo & Violin Concerto (op. posth.)

Used drive : TSSTcorpCDDVDW SH-216AB Adapter: 1 ID: 0

Read mode : Secure
Utilize accurate stream : Yes
Defeat audio cache : Yes
Make use of C2 pointers : No

Read offset correction : 6
Overread into Lead-In and Lead-Out : No
Fill up missing offset samples with silence : Yes
Delete leading and trailing silent blocks : No
Null samples used in CRC calculations : Yes
Used interface : Native Win32 interface for Win NT & 2000

Used output format : User Defined Encoder
Selected bitrate : 768 kBit/s
Quality : High
Add ID3 tag : No
Command line compressor : C:\Program Files (x86)\Exact Audio Copy\FLAC\FLAC.EXE
Additional command line options : -6 -V -T "ARTIST=%artist%" -T "TITLE=%title%" -T "ALBUM=%albumtitle%" -T "DATE=%year%" -T "TRACKNUMBER=%tracknr%" -T "GENRE=%genre%" -T "COMMENT=%comment%" -T "BAND=%albuminterpret%" -T "ALBUMARTIST=%albuminterpret%" -T "COMPOSER=%composer%" %haslyrics%–tag-from-file=LYRICS="%lyricsfile%"%haslyrics% -T "DISCNUMBER=%cdnumber%" -T "TOTALDISCS=%totalcds%" -T "TOTALTRACKS=%numtracks%" %hascover%–picture="%coverfile%"%hascover% %source% -o %dest%


TOC of the extracted CD

Track | Start | Length | Start sector | End sector
––––––––––––––––––––––––––––-
1 | 0:00.00 | 13:56.20 | 0 | 62719
2 | 13:56.20 | 10:09.01 | 62720 | 108395
3 | 24:05.21 | 6:50.65 | 108396 | 139210
4 | 30:56.11 | 9:47.31 | 139211 | 183266
5 | 40:43.42 | 5:08.48 | 183267 | 206414
6 | 45:52.15 | 8:31.46 | 206415 | 244785
7 | 54:23.61 | 8:37.12 | 244786 | 283572
8 | 63:00.73 | 11:11.19 | 283573 | 333916


Range status and errors

Selected range

Filename C:\Users\astarte\03. POST\Bartok, Bela - Rhapsody\Bela Bartok - Rhapsody, Scherzo & Violin Concerto (op. posth.).wav

Peak level 96.6 %
Extraction speed 8.7 X
Range quality 100.0 %
Copy CRC 084F081E
Copy OK

No errors occurred


AccurateRip summary

Track 1 accurately ripped (confidence 2) [ACF185BF] (AR v1)
Track 2 accurately ripped (confidence 2) [D8DD14CF] (AR v1)
Track 3 accurately ripped (confidence 2) [0ADFE176] (AR v1)
Track 4 accurately ripped (confidence 2) [35BA6275] (AR v1)
Track 5 accurately ripped (confidence 2) [D18055C5] (AR v1)
Track 6 accurately ripped (confidence 2) [19707C34] (AR v1)
Track 7 accurately ripped (confidence 2) [C24BDE18] (AR v1)
Track 8 accurately ripped (confidence 2) [649404EE] (AR v1)

All tracks accurately ripped

End of status report

==== Log checksum 8CF57FCE25124202499EDBE8115A303CE34B8DEAFF54A076F76AEEC7B5D0A845 ====