Ben Webster - Big Ben Time

Posted By: inconu
Ben Webster - Big Ben Time

Ben Webster - Big Ben Time
EAC rip | FLAC+CUE+LOG | Scans | 221MB
Genre: Jazz | Label: Philips | Release Date: London 1967

Benjamin Francis Webster was an influential American jazz tenor saxophonist. Webster, born in Kansas City, Missouri, was considered one of the three most important "swing tenors" along with Coleman Hawkins and Lester Young
Benjamin Francis Webster was an influential American jazz tenor saxophonist. Webster, born in Kansas City, Missouri, was considered one of the three most important "swing tenors" along with Coleman Hawkins and Lester Young
He moved to Europe in 1964. His sensual, breathy tone and wide vibrato were his trademarks, and he became one of the master interpreters of jazz ballads.

Personnel:
Ben Webster (Sax (Tenor), Main Performer)
Dick Katz (Piano)
Alan Haven (Organ)
Spike Heatley (Bass)
Tony Crombie (Drums)

Track list:
01.How deep in the ocean
02.My one and only love
03.Honey sucide rose
04.Wrap your troubles to dreams
05.Exactly like you
06.Where or when
07.Just a sittin and a rockin
08.Solitude
09.You forget to remenber
10.The jeep is jumping

Exact Audio Copy V0.99 prebeta 5 from 4. May 2009
EAC extraction logfile from 5. August 2010, 22:57
The Ben Webster Quartet / Big Ben Time
Used drive : HL-DT-STDVDRAM GSA-T20N Adapter: 1 ID: 0
Read mode : Burst
Read offset correction : 667
Overread into Lead-In and Lead-Out : No
Fill up missing offset samples with silence : Yes
Delete leading and trailing silent blocks : No
Null samples used in CRC calculations : No
Used interface : Native Win32 interface for Win NT & 2000
Used output format : Monkey's Audio Lossless Encoder
Selected bitrate : Normal Lossless Compression
Quality : High
Add ID3 tag : Yes
Command line compressor : C:\Program Files\Monkey's Audio\MAC.exe
TOC of the extracted CD
Track | Start | Length | Start sector | End sector
––––––––––––––––––––––––––––-
1 | 0:00.32 | 4:13.25 | 32 | 19031
2 | 4:13.57 | 4:41.13 | 19032 | 40119
3 | 8:54.70 | 3:30.25 | 40120 | 55894
4 | 12:25.20 | 4:58.12 | 55895 | 78256
5 | 17:23.32 | 3:43.13 | 78257 | 94994
6 | 21:06.45 | 3:45.62 | 94995 | 111931
7 | 24:52.32 | 4:00.38 | 111932 | 129969
8 | 28:52.70 | 4:04.00 | 129970 | 148269
9 | 32:56.70 | 4:16.25 | 148270 | 167494
10 | 37:13.20 | 3:18.07 | 167495 | 182351

Range status and errors
Selected range
Filename C:\Program Files\Exact Audio Copy\Flac\The Ben Webster Quartet - Big Ben Time.wav
Peak level 95.1 %
Copy CRC 5111F4F7
Copy OK
No errors occurred
AccurateRip summary

Track 1 accurately ripped (confidence 3) [F38F98EE]
Track 2 accurately ripped (confidence 3) [2287F77B]
Track 3 accurately ripped (confidence 3) [07D81AC0]
Track 4 accurately ripped (confidence 3) [CF328F30]
Track 5 accurately ripped (confidence 3) [48DCA598]
Track 6 accurately ripped (confidence 3) [7E0B2DFB]
Track 7 accurately ripped (confidence 3) [A36B49A0]
Track 8 accurately ripped (confidence 3) [933AD983]
Track 9 accurately ripped (confidence 3) [218BA821]
Track 10 accurately ripped (confidence 3) [9CE84555]

All tracks accurately ripped
End of status report
Link MU
Pass : the @nt