Subcategories

Allan Taylor - Leaving at Dawn (13.Mai 2009)

Posted By: keymon
Allan Taylor - Leaving at Dawn (13.Mai 2009)
EAC | FLAC+CUE+LOG | 340 Mb | MP3/CBR 320 kbps | 114 Mb | Covers
Genre:Folk,Vocal | Label: Stockfisch Records


Musicians:

Allan Taylor: vocal & guitar
Ian Melrose: guitar, low whistle, tremolo guitar, dobro
Lea Morris: harmony vocals
Martin Moro: guitar, electric guitar, mandola
Chris Leslie: iddle, viola
Christian Struck: english horn
Hrólfur Vagnsson: english horn
Siard de Jong: accordion
Peter Funk: mandolin
Udo Weihrauch: dobro
Hans-Jörg Maucksch: banjo
Beo Brockhausen: fretless bass
flute, indian harmonium, hang, percussion, bowed psaltery, hulusi

Exact Audio Copy V0.99 prebeta 5 from 4. May 2009

EAC extraction logfile from 15. May 2009, 12:19

Allan Taylor / Leaving At Dawn

Used drive : ASUS DRW-22B1L Adapter: 1 ID: 0

Read mode : Secure
Utilize accurate stream : Yes
Defeat audio cache : No
Make use of C2 pointers : No

Combined read/write offset correction : 0
Overread into Lead-In and Lead-Out : No
Fill up missing offset samples with silence : Yes
Delete leading and trailing silent blocks : No
Null samples used in CRC calculations : Yes
Used interface : Native Win32 interface for Win NT & 2000

Used output format : User Defined Encoder
Selected bitrate : 768 kBit/s
Quality : High
Add ID3 tag : No
Command line compressor : C:\Program Files\Exact Audio Copy\FLAC\FLAC.EXE
Additional command line options : -6 -V -T "ARTIST=%a" -T "TITLE=%t" -T "ALBUM=%g" -T "DATE=%y" -T "TRACKNUMBER=%n" -T "GENRE=%m" -T "COMMENT=%e" %s -o %d


TOC of the extracted CD

Track | Start | Length | Start sector | End sector
––––––––––––––––––––––––––––-
1 | 0:00.00 | 3:53.59 | 0 | 17533
2 | 3:53.59 | 6:31.21 | 17534 | 46879
3 | 10:25.05 | 4:42.74 | 46880 | 68103
4 | 15:08.04 | 3:45.59 | 68104 | 85037
5 | 18:53.63 | 6:07.19 | 85038 | 112581
6 | 25:01.07 | 4:05.63 | 112582 | 131019
7 | 29:06.70 | 6:09.61 | 131020 | 158755
8 | 35:16.56 | 5:42.56 | 158756 | 184461
9 | 40:59.37 | 4:19.10 | 184462 | 203896
10 | 45:18.47 | 3:36.27 | 203897 | 220123
11 | 48:54.74 | 5:07.61 | 220124 | 243209
12 | 54:02.60 | 3:45.45 | 243210 | 260129


Range status and errors

Selected range

Filename E:\EAC Rip\Allan Taylor - Leaving At Dawn\Allan Taylor - Leaving At Dawn.wav

Peak level 94.4 %
Range quality 99.9 %
Test CRC 8DCF5EF5
Copy CRC 8DCF5EF5
Copy OK

No errors occurred

End of status report

Allan Taylor - Leaving at Dawn (13.Mai 2009)


1 Winter 3.55 2 The Almost Man 6:32 3 Back Home To You 4:44 4 Provence 3:46 5 Firefly 6:08 6 Lay Soft On Your Pillow 4:05 7 New York In The Seventies 6:11 8 The Last Of The Privateers 5:44 9 Leaving At Dawn 4:20 10 It Could Have Been 3:37 11 Make Another Turn 5:08 12 Red On Green 3:45
total playing time 57:49