Subcategories

Benjamin Broening - Trembling Air / eighth blackbird (2012)

Posted By: Piterets
Benjamin Broening - Trembling Air / eighth blackbird (2012)

Benjamin Broening - Trembling Air / eighth blackbird (2012)
Contemporary Classical, Electronic | Bridge | 2012 | 68:42 | EAC (FLAC, cue, log) | Booklet | Various File Hosts | 310 MB
eighth blackbird

American composer Benjamin Broening (b. 1967) drew inspiration for the eight haunting pieces on this disc from the natural world in Estonia. The combinations of acoustical instruments and electronics are so deftly achieved that textures come and go with surprising enchantment and tension. The disc’s title comes from the virtuosic flute solo that evokes a conflicted environment. Eighth blackbird, the chamber ensemble founded at Oberlin College, play Broening’s collection to the expressive skies.


Track List:

01. like dreams, statistics are a form of wish fulfillment [0:09:33.40]
02. Dark Wood [0:12:00.50]
03. Traces (i) [0:03:18.69]
04. Trembling Air [0:12:47.35]
05. Nocturne/Doubles [0:06:08.72]
06. Traces (ii) [0:05:18.01]
07. Arioso/Doubles [0:07:46.01]
08. Changing Light [0:11:52.61]

Exact Audio Copy V1.0 beta 3 from 29. August 2011

EAC extraction logfile from 29. January 2013, 16:24

Benjamin Broening / Trembling Air

Used drive : QSI CDRW/DVD SBW242U Adapter: 1 ID: 0

Read mode : Secure
Utilize accurate stream : Yes
Defeat audio cache : Yes
Make use of C2 pointers : No

Read offset correction : 6
Overread into Lead-In and Lead-Out : No
Fill up missing offset samples with silence : Yes
Delete leading and trailing silent blocks : No
Null samples used in CRC calculations : Yes
Used interface : Native Win32 interface for Win NT & 2000

Used output format : User Defined Encoder
Selected bitrate : 768 kBit/s
Quality : High
Add ID3 tag : No
Command line compressor : C:\Program Files\Exact Audio Copy\FLAC\FLAC.EXE
Additional command line options : -6 -V -T "ARTIST=%artist%" -T "TITLE=%title%" -T "ALBUM=%albumtitle%" -T "DATE=%year%" -T "TRACKNUMBER=%tracknr%" -T "GENRE=%genre%" -T "COMMENT=%comment%" -T "BAND=%albuminterpret%" -T "ALBUMARTIST=%albuminterpret%" -T "COMPOSER=%composer%" %haslyrics%–tag-from-file=LYRICS="%lyricsfile%"%haslyrics% -T "DISCNUMBER=%cdnumber%" -T "TOTALDISCS=%totalcds%" -T "TOTALTRACKS=%numtracks%" %hascover%–picture="%coverfile%"%hascover% %source% -o %dest%


TOC of the extracted CD

Track | Start | Length | Start sector | End sector
––––––––––––––––––––––––––––-
1 | 0:00.00 | 9:33.40 | 0 | 43014
2 | 9:33.40 | 12:00.50 | 43015 | 97064
3 | 21:34.15 | 3:18.69 | 97065 | 111983
4 | 24:53.09 | 12:47.35 | 111984 | 169543
5 | 37:40.44 | 6:08.72 | 169544 | 197215
6 | 43:49.41 | 5:18.01 | 197216 | 221066
7 | 49:07.42 | 7:46.01 | 221067 | 256017
8 | 56:53.43 | 11:52.61 | 256018 | 309478


Range status and errors

Selected range

Filename G:\Benjamin Broening - Trembling Air\Benjamin Broening - Trembling Air.wav

Peak level 96.6 %
Extraction speed 1.1 X
Range quality 100.0 %
Test CRC B565468F
Copy CRC B565468F
Copy OK

No errors occurred


AccurateRip summary

Track 1 not present in database
Track 2 not present in database
Track 3 not present in database
Track 4 not present in database
Track 5 not present in database
Track 6 not present in database
Track 7 not present in database
Track 8 not present in database

None of the tracks are present in the AccurateRip database

End of status report

==== Log checksum 87361ACDBBE1D223DA0D064F0D640819A25896BFB7AB164464E5FAA082F15864 ====


Read more about the CD here.
Read more about Ben Broening here.

3% recovery record is included.

Of related interest:

www.eighthblackbird.org
eighth blackbird - strange imaginary animals (2006) Link
Paul Moravec - 2 CD: The Time Gallery (2006) (w/ eighth blackbird) + Tempest Fantasy (2007) Link

More contemporary American and European music is available at my blog.