Subcategories

Benny Anderssons Orkester (Ex ABBA) - 4 Album Collection (2001-2007)

Posted By: luckburz
Benny Anderssons Orkester (Ex ABBA) - 4 Album Collection (2001-2007)

Benny Anderssons Orkester - 4 Album Collection (2001-2007)
4xCD | EAC+LOG+CUE | APE: 248+265+490+270 MB | Artwork | 5% Recovery Info
Label/Cat#: Mono Music # MMCD 017, 021, 022X, 023 | Country/Year: Sweden 2001, 2004, 2006, 2007
Genre: Pop, Folk, World, & Country | Style: Folk, Ballad

MD5 [X] CUE [X] LOG [X] INFO TEXT [X] ARTWORK [X]

my rip [ ] not my rip [X]


Benny Anderssons Orkester (Ex ABBA) - 4 Album Collection (2001-2007)


Benny Anderssons Orkester ‎- Benny Anderssons Orkester


Exact Audio Copy V0.99 prebeta 5 from 4. May 2009

Отчёт EAC об извлечении, выполненном 8. июня 2009, 13:47

Benny Anderssons / Benny Anderssons Orkester

Дисковод: Optiarc DVD RW AD-7200S Adapter: 2 ID: 0

Режим чтения : Достоверность
Использование точного потока : Да
Отключение кэша аудио : Да
Использование указателей C2 : Нет

Коррекция смещения при чтении : 48
Способность читать области Lead-in и Lead-out : Нет
Заполнение пропущенных сэмплов тишиной : Да
Удаление блоков с тишиной в начале и конце : Нет
При вычислениях CRC использовались нулевые сэмплы : Да
Интерфейс : Установленный внешний ASPI-интерфейс


TOC извлечённого CD

Трек | Старт | Длительность | Начальный сектор | Конечный сектор
––––––––––––––––––––––––––––––––––-
1 | 0:00.00 | 4:09.58 | 0 | 18732
2 | 4:09.58 | 2:46.57 | 18733 | 31239
3 | 6:56.40 | 4:19.37 | 31240 | 50701
4 | 11:16.02 | 4:49.19 | 50702 | 72395
5 | 16:05.21 | 3:52.60 | 72396 | 89855
6 | 19:58.06 | 1:56.64 | 89856 | 98619
7 | 21:54.70 | 3:17.22 | 98620 | 113416
8 | 25:12.17 | 2:56.06 | 113417 | 126622
9 | 28:08.23 | 3:46.44 | 126623 | 143616
10 | 31:54.67 | 4:28.35 | 143617 | 163751
11 | 36:23.27 | 3:08.42 | 163752 | 177893
12 | 39:31.69 | 3:06.32 | 177894 | 191875
13 | 42:38.26 | 3:41.02 | 191876 | 208452
14 | 46:19.28 | 1:02.10 | 208453 | 213112


Характеристики диапазона извлечения и сообщения об ошибках

Выбранный диапазон

Имя файла D:\Music\RIPs\BAO\BAO - 2001 - Benny Anderssons Orkester\BAO - 2001 - Benny Anderssons Orkester.wav

Пиковый уровень 99.2 %
Качество диапазона 99.9 %
CRC теста B1297A11
CRC копии B1297A11
Копирование… OK

Ошибок не произошло

Конец отчёта


CD Info:

Label: Mono Music
Cat#.: MMCD 017
Format: CD, Album, Repress
Country: Sweden
Released: 2001
Genre: Pop, Folk, World, & Country
Style: Folk, Ballad

Tracklist:

1 Hardangervidda
2 Snedseglarn
3 Cirkus Finemang
4 Vår Sista Dans
5 Briggens Blåögda Blonda Kapten
6 Knasluvan
7 Anitas Polska
8 Schottis I Tyrolen
9 Sång Från Andra Våningen
10 Laureen
11 Tösabiten
12 Nya Månvalsen
13 Lätt Som En Sommarfjäril
14 P.S.

Credits:

Arranged By – Benny Andersson, Göran Arnberg
Lyrics By – Björn Ulvaeus
Mastered By – Björn Engelman
Mixed By – Benny, Bernard
Music By – Benny Andersson
Producer – Benny Andersson

Thanks to achinoam!

=======================================


Benny Anderssons Orkester (Ex ABBA) - 4 Album Collection (2001-2007)


Benny Anderssons Orkester - BAO!


Exact Audio Copy V0.99 prebeta 5 from 4. May 2009

Отчёт EAC об извлечении, выполненном 8. июня 2009, 11:46

Benny Andersson / BAO!

Дисковод: Optiarc DVD RW AD-7200S Adapter: 2 ID: 0

Режим чтения : Достоверность
Использование точного потока : Да
Отключение кэша аудио : Да
Использование указателей C2 : Нет

Коррекция смещения при чтении : 48
Способность читать области Lead-in и Lead-out : Нет
Заполнение пропущенных сэмплов тишиной : Да
Удаление блоков с тишиной в начале и конце : Нет
При вычислениях CRC использовались нулевые сэмплы : Да
Интерфейс : Установленный внешний ASPI-интерфейс


TOC извлечённого CD

Трек | Старт | Длительность | Начальный сектор | Конечный сектор
––––––––––––––––––––––––––––––––––-
1 | 0:00.00 | 3:32.38 | 0 | 15937
2 | 3:32.38 | 3:04.26 | 15938 | 29763
3 | 6:36.64 | 3:35.45 | 29764 | 45933
4 | 10:12.34 | 3:00.63 | 45934 | 59496
5 | 13:13.22 | 3:47.29 | 59497 | 76550
6 | 17:00.51 | 3:44.40 | 76551 | 93390
7 | 20:45.16 | 3:39.40 | 93391 | 109855
8 | 24:24.56 | 2:34.72 | 109856 | 121477
9 | 26:59.53 | 3:24.31 | 121478 | 136808
10 | 30:24.09 | 4:19.11 | 136809 | 156244
11 | 34:43.20 | 3:07.02 | 156245 | 170271
12 | 37:50.22 | 3:11.08 | 170272 | 184604
13 | 41:01.30 | 3:33.16 | 184605 | 200595
14 | 44:34.46 | 2:27.28 | 200596 | 211648


Характеристики диапазона извлечения и сообщения об ошибках

Выбранный диапазон

Имя файла D:\Music\RIPs\BAO\BAO - 2004 - Med Helen Sjoholm\BAO - 2004 - Med Helen Sjoholm.wav

Пиковый уровень 98.8 %
Качество диапазона 100.0 %
CRC теста 88A9CF15
CRC копии 88A9CF15
Копирование… OK

Ошибок не произошло

Конец отчёта


CD Info:

Label: Mono Music
Cat#.: MMCD 021
Format: CD, Album
Country: Sweden
Released: 2004
Genre: Pop, Folk, World, & Country
Style: Folk, Ballad

Tracklist:

1 Glasgow Boogie 3:30
2 En Dans På Rosor 3:05
3 Du Är Min Man 3:40
4 Vitalins Vals 3:02
5 På En Solskenspromenad 3:47
6 Jehu 3:45
7 Midnattsdans 3:40
8 Riks1:an 2:34
9 Julvals 3:25
10 Skenbart 4:20
11 Trettondagspolkan 3:07
12 Stora Skuggan 3:10
13 Saknadens Rum 3:33
14 Kärlekens Tid 2:30

Credits

Arranged By – Benny Andersson, Göran Arnberg
Coordinator – Görel Hanser, Nutta Hultman
Mastered By – Björn Engelmann
Mixed By – Benny Andersson, Bernard Löhr, Göran Arnberg
Music By – Benny Andersson
Producer – Benny Andersson
Recorded By – Bernard Löhr

Notes:

Recorded at Sveriges Radios Studio 4.

Barcode: 7 393896 410217
Rights Society: BIEM/n©b

Thanks to Ivancho!

=======================================


Benny Anderssons Orkester (Ex ABBA) - 4 Album Collection (2001-2007)


Benny Anderssons Orkester - Pa Turne


Exact Audio Copy V0.99 prebeta 5 from 4. May 2009

Отчёт EAC об извлечении, выполненном 8. июня 2009, 12:45

Benny Andersson / Pa Turne

Дисковод: Optiarc DVD RW AD-7200S Adapter: 2 ID: 0

Режим чтения : Достоверность
Использование точного потока : Да
Отключение кэша аудио : Да
Использование указателей C2 : Нет

Коррекция смещения при чтении : 48
Способность читать области Lead-in и Lead-out : Нет
Заполнение пропущенных сэмплов тишиной : Да
Удаление блоков с тишиной в начале и конце : Нет
При вычислениях CRC использовались нулевые сэмплы : Да
Интерфейс : Установленный внешний ASPI-интерфейс


TOC извлечённого CD

Трек | Старт | Длительность | Начальный сектор | Конечный сектор
––––––––––––––––––––––––––––––––––-
1 | 0:00.00 | 4:23.37 | 0 | 19761
2 | 4:23.37 | 3:14.72 | 19762 | 34383
3 | 7:38.34 | 3:02.64 | 34384 | 48097
4 | 10:41.23 | 4:02.20 | 48098 | 66267
5 | 14:43.43 | 2:24.26 | 66268 | 77093
6 | 17:07.69 | 2:35.27 | 77094 | 88745
7 | 19:43.21 | 2:30.32 | 88746 | 100027
8 | 22:13.53 | 4:15.37 | 100028 | 119189
9 | 26:29.15 | 4:18.45 | 119190 | 138584
10 | 30:47.60 | 3:21.47 | 138585 | 153706
11 | 34:09.32 | 3:54.21 | 153707 | 171277
12 | 38:03.53 | 2:45.13 | 171278 | 183665
13 | 40:48.66 | 2:55.48 | 183666 | 196838
14 | 43:44.39 | 2:33.46 | 196839 | 208359
15 | 46:18.10 | 3:57.62 | 208360 | 226196
16 | 50:15.72 | 2:58.52 | 226197 | 239598
17 | 53:14.49 | 3:20.46 | 239599 | 254644
18 | 56:35.20 | 3:25.15 | 254645 | 270034
19 | 60:00.35 | 3:42.37 | 270035 | 286721
20 | 63:42.72 | 3:57.33 | 286722 | 304529
21 | 67:40.30 | 4:46.64 | 304530 | 326043
22 | 72:27.19 | 6:04.31 | 326044 | 353374


Характеристики диапазона извлечения и сообщения об ошибках

Выбранный диапазон

Имя файла D:\Music\RIPs\BAO\BAO - 2006 - Pa Turne\BAO - 2006 - Pa Turne.wav

Пиковый уровень 100.0 %
Качество диапазона 99.9 %
CRC теста A60F04E9
CRC копии A60F04E9
Копирование… OK

Ошибок не произошло

Конец отчёта


CD Info:

Label: Mono Music
Cat#.: MMCD 022X
Format: CD, Album, Repress
Country: Sweden
Released: 20__, 2006
Genre: Pop, Folk, World, & Country
Style: Folk, Ballad

Tracklist:

1 Glasgow Boogie 4:23
2 Vitalins Vals 3:15
3 När Tvenne Hjärtan Slå 3:02
4 För Dig 4:02
5 Klinga Mina Klockor 2:24
6 Födelsedagsvals Till Mona 2:35
7 Tobakshandlarvisa 2:30
8 Lätt Som En Sommarfjäril 4:15
9 Det Är Vi Ändå 4:18
10 Aj Aj Aj Vilken Röd Liten Ros 3:21
11 Gamle Svarten 3:54
12 Slängpolska Efter Bysskalle 2:45
13 Hjortingen 2:55
14 Bälter Svens Paradpolkett 2:33
15 Moon River 3:57
16 Badinerie 2:58
17 O Sole Mio 3:20
18 Jehu 3:25
19 Du Är Min Man 3:42
20 True Love 3:57
21 Vår Sista Dans 4:46
Finalpotpurri (6:04)
22a Ett Glatt Humör
22b Säg Det Med Ett Leende
22c Vårat Gäng
22d Bättre Och Bättre Dag För Dag

Credits:

Arranged By – Benny Andersson, BAO, Göran Arnberg
Coordinator – Görel Hanser, Nutta Hultman
Mixed By – Benny Andersson, Bernard Löhr
Producer – Benny Andersson
Recorded By – Björn Lehnberg

Notes:
Recorded live in Örebro and Leksand, summer 2005

Thanks to Ivancho!

=======================================


Benny Anderssons Orkester (Ex ABBA) - 4 Album Collection (2001-2007)


Benny Anderssons Orkester - BAO 3


Exact Audio Copy V0.99 prebeta 5 from 4. May 2009

Отчёт EAC об извлечении, выполненном 8. июня 2009, 12:45

Benny Andersson / Pa Turne

Дисковод: Optiarc DVD RW AD-7200S Adapter: 2 ID: 0

Режим чтения : Достоверность
Использование точного потока : Да
Отключение кэша аудио : Да
Использование указателей C2 : Нет

Коррекция смещения при чтении : 48
Способность читать области Lead-in и Lead-out : Нет
Заполнение пропущенных сэмплов тишиной : Да
Удаление блоков с тишиной в начале и конце : Нет
При вычислениях CRC использовались нулевые сэмплы : Да
Интерфейс : Установленный внешний ASPI-интерфейс


TOC извлечённого CD

Трек | Старт | Длительность | Начальный сектор | Конечный сектор
––––––––––––––––––––––––––––––––––-
1 | 0:00.00 | 4:23.37 | 0 | 19761
2 | 4:23.37 | 3:14.72 | 19762 | 34383
3 | 7:38.34 | 3:02.64 | 34384 | 48097
4 | 10:41.23 | 4:02.20 | 48098 | 66267
5 | 14:43.43 | 2:24.26 | 66268 | 77093
6 | 17:07.69 | 2:35.27 | 77094 | 88745
7 | 19:43.21 | 2:30.32 | 88746 | 100027
8 | 22:13.53 | 4:15.37 | 100028 | 119189
9 | 26:29.15 | 4:18.45 | 119190 | 138584
10 | 30:47.60 | 3:21.47 | 138585 | 153706
11 | 34:09.32 | 3:54.21 | 153707 | 171277
12 | 38:03.53 | 2:45.13 | 171278 | 183665
13 | 40:48.66 | 2:55.48 | 183666 | 196838
14 | 43:44.39 | 2:33.46 | 196839 | 208359
15 | 46:18.10 | 3:57.62 | 208360 | 226196
16 | 50:15.72 | 2:58.52 | 226197 | 239598
17 | 53:14.49 | 3:20.46 | 239599 | 254644
18 | 56:35.20 | 3:25.15 | 254645 | 270034
19 | 60:00.35 | 3:42.37 | 270035 | 286721
20 | 63:42.72 | 3:57.33 | 286722 | 304529
21 | 67:40.30 | 4:46.64 | 304530 | 326043
22 | 72:27.19 | 6:04.31 | 326044 | 353374


Характеристики диапазона извлечения и сообщения об ошибках

Выбранный диапазон

Имя файла D:\Music\RIPs\BAO\BAO - 2007 - BAO 3\BAO - 2007 - BAO 3.wav

Пиковый уровень 100.0 %
Качество диапазона 99.9 %
CRC теста A60F04E9
CRC копии A60F04E9
Копирование… OK

Ошибок не произошло

Конец отчёта


CD Info:

Label: Mono Music
Cat#.: MMCD 023
Format: CD, Album, Repress
Country: Sweden
Released: 2007
Genre: Pop, Folk, World, & Country
Style: Folk, Ballad

Tracklist:

1 Marsch Pannkaka
2 För Dig
3 Du Frälste Mig I Sista Stund
4 Fait Accomplit
5 Crush On You
6 Calle J:s Vals
7 Helens Brudvals
8 Upp Till Dig
9 Bonde Söker Fru
10 Nu Mår Jag Mycket Bättre
11 Wienerbrot
12 Godnattvisa

Credits

Arranged By – Benny Andersson, Göran Arnberg
Lyrics By – Björn Ulvaeus (tracks: 2 to 5, 8, 9), Kristina Lugn (tracks: 10)
Mixed By – Benny Andersson, Bernard Löhr
Music By – Benny Andersson
Producer – Benny Andersson
Recorded By – Bernard Löhr

Thanks to Ivancho!

=======================================



Göran Bror Benny Andersson (born 16 December 1946), known professionally as Benny Andersson, is a Swedish musician, composer, former member of the Swedish musical group ABBA (1972–1982), and co-composer of the musicals Chess, Kristina från Duvemåla, and Mamma Mia!. As of 2011 he is active with his own band Benny Anderssons Orkester (BAO!), and was executive producer for the film version of the musical Mamma Mia!.

(…) After ABBA Andersson continued writing music with Ulvaeus. Their first project was the stage musical Chess, written with Tim Rice. The Chess concept album – with vocals by Elaine Paige, Barbara Dickson, Murray Head and Swedes Tommy Körberg and Björn Skifs – was released in October 1984, selling two million copies worldwide. The Paige/Dickson duet "I Know Him So Well" became a major UK No. 1 hit, and Murray Head's "One Night in Bangkok" gave Andersson/Ulvaeus a US No. 3 hit.

Chess was staged in London's West End Prince Edward Theatre in May 1986, and ran for almost three years. A Broadway staging in April 1988 received disastrous reviews, and closed after just two months.

In 1985, Andersson produced and released an album with brother and sister Anders and Karin Glenmark, featuring new songs by Andersson/Ulvaeus. The duo named themselves Gemini, and a second album with more music by Björn and Benny was released in April 1987, containing the big hit "Mio My Mio"; also to be found on the soundtrack to the film Mio in the Land of Faraway, for which Andersson co-produced the music.

In 1987, Andersson released his first solo album Klinga Mina Klockor ("Chime, My Bells"). All the music was written by and performed by himself on accordion, backed by the Orsa Spelmän (Orsa Folk Musicians) on fiddles. A second solo album followed: November 1989.

In 1990, Andersson scored a Swedish #1 hit with "Lassie", sung by female cabaret group Ainbusk, for whom he also wrote the Svensktoppen hits "Älska Mig" and "Drömmarnas Golv". He decided to produce an album with Josefin Nilsson from this quartet, resulting in the 1993 English-language album Shapes, featuring ten new Andersson/Ulvaeus compositions.

In 1992, he wrote the introduction melody for the European football championship, which was organised by Sweden that year.

From the late 1980s, Andersson had worked on an idea for an epic Swedish language musical based on his affection for traditional folk music, and in October 1995, Kristina från Duvemåla premiered in Sweden. The musical was based on The Emigrants novels by Swedish writer Vilhelm Moberg. The musical ran successfully for almost five years, before closing in June 1999. An English-language version, simply titled Kristina, was staged in concert at Carnegie Hall in New York City for two nights in September 2009, yielding a live recording, and at the Royal Albert Hall for one night in April 2010.

Andersson's next project was Mamma Mia!, a musical built around 24 of ABBA's songs, which has become a worldwide box-office blockbuster with versions in several languages currently being played in many countries, including the UK (West End premiere in April 1999), Canada (Toronto premiere in 2000), the USA (Broadway premiere in 2001), and Sweden (Swedish language premiere in 2005).

For the 2004 semi-final of the Eurovision Song Contest, staged in Istanbul thirty years after ABBA had won the contest in Brighton, Benny appeared briefly in a special comedy video made for the interval act, entitled "Our Last Video". Each of the four members of the group appeared briefly in cameo roles, as did others such as Cher and Rik Mayall. The video was not included in the official DVD release of the Eurovision Contest, but was issued as a separate DVD release. It was billed as the first time the four had worked together since the group split; however, Frida's appearance was filmed separately.

A film version of Mamma Mia! premiered on 18 July 2008. In April/May 2007, Andersson worked on the film soundtrack, re-recording the old ABBA songs with musicians from the old ABBA recording sessions. Mamma Mia! The Movie has now become the most successful movie musical of all time and has been named the number one box office smash of 2008, and the biggest-selling DVD ever in the UK.

Andersson currently performs with his own band of 16 musicians, BAO; "Benny Anderssons Orkester" ("Benny Andersson's orchestra"), utilising the vocal talents of fellow Swedes Helen Sjöholm (from Kristina from Duvemåla) and Tommy Körberg (of Chess fame), with lyrics to new material sometimes written by his song-writing partner and best friend of 40 years, Björn Ulvaeus. BAO has released five albums to huge success in Sweden, all containing hit singles.

BAO recently achieved a new record in Sweden on the Svensktoppen chart by staying there for 243 weeks with the song Du är min man ("You Are My Man"), sung by Helen Sjöholm. ~wikipedia