Subcategories

Benny Bailey - Big Brass (1960) {Candid CCD79011 rel 1989}

Posted By: ruskaval
Benny Bailey - Big Brass (1960) {Candid CCD79011 rel 1989}

Benny Bailey - Big Brass (1960) {Candid CCD79011 rel 1989}
EAC rip (secure mode) | FLAC (tracks)+CUE+LOG -> 269 Mb | MP3 @320 -> 95 Mb
Full Artwork @ 300 dpi (jpg) -> 15 Mb | 5% repair rar
© 1960, 1989 Candid Productions | CCD 79011
Jazz / Bop / Hard Bop / Trumpet

Big Brass marks one of trumpeter Benny Bailey's earliest efforts as a leader, but it is also one of the best releases of his career. Joined by an all-star septet including Phil Woods, Julius Watkins, and Les Spann in the front line, plus a rhythm section consisting of Tommy Flanagan, Buddy Catlett, and Art Taylor, Bailey and his musicians shine in their interpretations of charts by Quincy Jones, Hale Smith, Oliver Nelson, and Tom McIntosh.

Smith's lightly swinging "Alison" is one of the high points, with great solos all around. Bailey's understated muted trumpet is the focus of the sole standard, "A Kiss to Build a Dream On." Woods makes a rare appearance on bass clarinet (in addition to playing alto sax) in Bailey's peppy "Maud's Mood." The entire session has a relaxed air, as if old friends got together to play some well-rehearsed material, so it is warmly recommended.

Musicians
Trumpet Benny Bailey
Horn Julius Watkins
Bass Clarinet, Saxophone Phil Woods
Flute, Guitar Les Spann
Piano Tommy Flanagan
Bass Buddy Catlett
Drums Art Taylor

Tracklisting
01 Please Say Yes 05:58
02 A Kiss To Build A Dream On 08:03
03 Maud's Mood 06:25
04 Hard Sock Dance 05:47
05 Alison 06:46
06 Tipsy 06:54

Exact Audio Copy V1.1 from 23. June 2015

EAC extraction logfile from 15. February 2017, 7:55

Benny Bailey / Big Brass

Used drive : MATSHITADVD+-RW SW830 Adapter: 1 ID: 0

Read mode : Secure
Utilize accurate stream : Yes
Defeat audio cache : Yes
Make use of C2 pointers : No

Read offset correction : 6
Overread into Lead-In and Lead-Out : No
Fill up missing offset samples with silence : Yes
Delete leading and trailing silent blocks : No
Null samples used in CRC calculations : Yes
Used interface : Native Win32 interface for Win NT & 2000
Gap handling : Appended to previous track

Used output format : User Defined Encoder
Selected bitrate : 896 kBit/s
Quality : High
Add ID3 tag : No
Command line compressor : C:\Program Files (x86)\Exact Audio Copy\Flac\flac.exe
Additional command line options : -8 -V -T "ARTIST=%artist%" -T "TITLE=%title%" -T "ALBUM=%albumtitle%" -T "DATE=%year%" -T "TRACKNUMBER=%tracknr%" -T "TOTALTRACKS=%numtracks%" -T "GENRE=%genre%" -T "ALBUMARTIST=%albumartist%" -T "ALBUM ARTIST=%albumartist%" -T "COMMENT=EAC Secure Mode, Test & Copy, AccurateRip, FLAC -8" %source%


TOC of the extracted CD

Track | Start | Length | Start sector | End sector
––––––––––––––––––––––––––––-
1 | 0:00.00 | 5:33.15 | 0 | 24989
2 | 5:33.15 | 8:11.37 | 24990 | 61851
3 | 13:44.52 | 6:35.70 | 61852 | 91546
4 | 20:20.47 | 5:51.28 | 91547 | 117899
5 | 26:12.00 | 6:53.07 | 117900 | 148881
6 | 33:05.07 | 7:01.63 | 148882 | 180519


Track 1

Filename G:\New Rips\Benny Bailey - Big Brass (1960) [FLAC]\01 - Please Say Yes.wav

Pre-gap length 0:00:02.00

Peak level 99.5 %
Extraction speed 4.8 X
Track quality 100.0 %
Test CRC 45ED5CE3
Copy CRC 45ED5CE3
Cannot be verified as accurate (confidence 2) [EF0EA7D5], AccurateRip returned [1FBD2C82] (AR v2)
Copy OK

Track 2

Filename G:\New Rips\Benny Bailey - Big Brass (1960) [FLAC]\02 - A Kiss To Build A Dream On.wav

Pre-gap length 0:00:02.50

Peak level 100.0 %
Extraction speed 5.9 X
Track quality 100.0 %
Test CRC 78D34F52
Copy CRC 78D34F52
Cannot be verified as accurate (confidence 2) [A56D3E8D], AccurateRip returned [AFEB99F1] (AR v2)
Copy OK

Track 3

Filename G:\New Rips\Benny Bailey - Big Brass (1960) [FLAC]\03 - Maud's Mood.wav

Pre-gap length 0:00:02.55

Peak level 98.5 %
Extraction speed 6.5 X
Track quality 100.0 %
Test CRC 3B4A4C2A
Copy CRC 3B4A4C2A
Cannot be verified as accurate (confidence 2) [E7930F0A], AccurateRip returned [C4126200] (AR v2)
Copy OK

Track 4

Filename G:\New Rips\Benny Bailey - Big Brass (1960) [FLAC]\04 - Hard Sock Dance.wav

Pre-gap length 0:00:03.22

Peak level 96.4 %
Extraction speed 7.1 X
Track quality 100.0 %
Test CRC 138A6CF4
Copy CRC 138A6CF4
Cannot be verified as accurate (confidence 2) [3BEC3E2D], AccurateRip returned [CA844977] (AR v2)
Copy OK

Track 5

Filename G:\New Rips\Benny Bailey - Big Brass (1960) [FLAC]\05 - Alison.wav

Pre-gap length 0:00:03.25

Peak level 72.1 %
Extraction speed 7.6 X
Track quality 100.0 %
Test CRC 79234D1A
Copy CRC 79234D1A
Cannot be verified as accurate (confidence 2) [79DC00B8], AccurateRip returned [2E03673B] (AR v2)
Copy OK

Track 6

Filename G:\New Rips\Benny Bailey - Big Brass (1960) [FLAC]\06 - Tipsy.wav

Pre-gap length 0:00:02.65

Peak level 88.9 %
Extraction speed 8.2 X
Track quality 100.0 %
Test CRC 5A0C7C30
Copy CRC 5A0C7C30
Accurately ripped (confidence 1) [288D51D5] (AR v2)
Copy OK


1 track(s) accurately ripped
5 track(s) could not be verified as accurate

Some tracks could not be verified as accurate

No errors occurred

End of status report

–– CUETools DB Plugin V2.1.6

[CTDB TOCID: JV0afBwpkwZ91s6WYseYIjLvZnc-] found
Submit result: JV0afBwpkwZ91s6WYseYIjLvZnc- has been confirmed
Track | CTDB Status
1 | (1/1) Accurately ripped
2 | (1/1) Accurately ripped
3 | (1/1) Accurately ripped
4 | (1/1) Accurately ripped
5 | (1/1) Accurately ripped
6 | (1/1) Accurately ripped


==== Log checksum 9217C901E14474C3C1F70230E6A67BC94236BBDC61A0EEC6E4DBBFE46F73867D ====


Benny Bailey - Big Brass (1960) {Candid CCD79011 rel 1989}

Benny Bailey - Big Brass (1960) {Candid CCD79011 rel 1989}



===