Subcategories

Beth Orton - Trailer Park

Posted By: jetset
Beth Orton - Trailer Park

Beth Orton - Trailer Park (1996)
EAC Rip | FLAC (Tracks)+CUE, LOG | 370 MB
Folktronica, TripHop, Downtempo, Folk Rock, Soft Rock | Label: Heavenly | Catalog Number: HVNLP 17CD | Hotfile + Depositfiles + Filefactory



Tracklist:

01. Beth Orton - She Cries Your Name
02. Beth Orton - Tangent
03. Beth Orton - Don't Need A Reason
04. Beth Orton - Live As You Dream
05. Beth Orton - Sugar Boy
06. Beth Orton - Touch Me With Your Love
07. Beth Orton - Whenever
08. Beth Orton - How Far
09. Beth Orton - Someone's Daughter
10. Beth Orton - I Wish I Never Saw The Sunshine
11. Beth Orton - Galaxy Of Emptiness

A folkie for the electronica age, Beth Orton brilliantly bridges the gap between acoustic songcraft and digital dance beats with her extraordinary debut album, Trailer Park. Fusing the plaintive emotional power of the singer/songwriter tradition with the distanced cool of trip-hop rhythms, Orton creates a fresh, distinct, and surprisingly organic sound without obvious precedent; blessed with a warm, ethereal voice capable of adapting comfortably to Spartan folk ("Whenever," a touching cover of the Spector/Greenwich/Barry-penned "I Wish I Never Saw the Sunshine"), buoyant pop ("Live As We Dream," "How Far"), and spacey, densely layered electronica ("Tangent," "Touch Me With Your Love"), she shifts gears with remarkable ease, the depth and clarity of her unique perspective connecting even the most disparate tracks together into a unified whole. Simply put, Trailer Park is one of the most promising and innovative debuts of its era.

Elizabeth Caroline Orton, commonly known as Beth Orton, (born 14 December 1970), is a BRIT Awardwinning English singer-songwriter. Known for her "folktronica" sound, which mixes elements of folk and electronica, she was initially recognised for her collaborations with William Orbit and the Chemical Brothers in the mid 1990s — but these were not Orton's first recordings. She released a solo album, Superpinkymandy, in 1993. Since the album was only released in Japan, it went largely unnoticed by international audiences. Her second solo album, Trailer Park, garnered much critical acclaim in 1996. With the release of the albums Central Reservation (1999) and the 2002 UK top 10 album Daybreaker, Beth developed a devoted fan base. On her 2006 release, Comfort of Strangers, she has moved towards a more folk-based sound and away from the electronic sound of past albums.

American films and television programmes such as Felicity, How to Deal, Charmed, Dawson's Creek, Vanilla Sky and Grey's Anatomy have featured her music and provided her with exposure to an American mainstream audience.

Exact Audio Copy V0.99 prebeta 4 from 23. January 2008

EAC extraction logfile from 2. July 2008, 12:44

Beth Orton / Trailer Park

Used drive : PIONEER DVD-RW DVR-109 Adapter: 0 ID: 0

Read mode : Secure
Utilize accurate stream : Yes
Defeat audio cache : Yes
Make use of C2 pointers : No

Read offset correction : 48
Overread into Lead-In and Lead-Out : No
Fill up missing offset samples with silence : Yes
Delete leading and trailing silent blocks : No
Null samples used in CRC calculations : Yes
Used interface : Native Win32 interface for Win NT & 2000
Gap handling : Appended to previous track

Used output format : User Defined Encoder
Selected bitrate : 320 kBit/s
Quality : High
Add ID3 tag : No
Command line compressor : C:\Program Files (x86)\Exact Audio Copy\FLAC\flac.exe
Additional command line options : -6 -V -T "artist=%a" -T "title=%t" -T "album=%g" -T "date=%y" -T "tracknumber=%n" -T "genre=%m" -T comment="%e" -T "comment=EAC (Secure Mode)" %s


TOC of the extracted CD

Track | Start | Length | Start sector | End sector
––––––––––––––––––––––––––––-
1 | 0:00.32 | 4:47.25 | 32 | 21581
2 | 4:47.57 | 7:29.00 | 21582 | 55256
3 | 12:16.57 | 5:04.43 | 55257 | 78099
4 | 17:21.25 | 2:59.10 | 78100 | 91534
5 | 20:20.35 | 4:21.15 | 91535 | 111124
6 | 24:41.50 | 7:27.50 | 111125 | 144699
7 | 32:09.25 | 3:53.40 | 144700 | 162214
8 | 36:02.65 | 4:27.20 | 162215 | 182259
9 | 40:30.10 | 4:16.10 | 182260 | 201469
10 | 44:46.20 | 4:43.05 | 201470 | 222699
11 | 49:29.25 | 10:07.57 | 222700 | 268281


Track 1

Filename F:\CDS\Beth Orton - Trailer Park\01 She Cries Your Name.wav

Pre-gap length 0:00:02.42

Peak level 97.5 %
Track quality 100.0 %
Test CRC 855AD0B7
Copy CRC 855AD0B7
Accurately ripped (confidence 13) [DB78D331]
Copy OK

Track 2

Filename F:\CDS\Beth Orton - Trailer Park\02 Tangent.wav

Pre-gap length 0:00:00.16

Peak level 97.8 %
Track quality 100.0 %
Test CRC 6734D378
Copy CRC 6734D378
Accurately ripped (confidence 13) [7942E46A]
Copy OK

Track 3

Filename F:\CDS\Beth Orton - Trailer Park\03 Don't Need A Reason.wav

Pre-gap length 0:00:00.56

Peak level 97.7 %
Track quality 100.0 %
Test CRC 958FF9BD
Copy CRC 958FF9BD
Accurately ripped (confidence 13) [87911573]
Copy OK

Track 4

Filename F:\CDS\Beth Orton - Trailer Park\04 Live As You Dream.wav

Pre-gap length 0:00:00.53

Peak level 97.8 %
Track quality 100.0 %
Test CRC 64FC9124
Copy CRC 64FC9124
Accurately ripped (confidence 12) [659752CC]
Copy OK

Track 5

Filename F:\CDS\Beth Orton - Trailer Park\05 Sugar Boy.wav

Pre-gap length 0:00:00.30

Peak level 97.8 %
Track quality 100.0 %
Test CRC 9B22EA1A
Copy CRC 9B22EA1A
Accurately ripped (confidence 12) [228C0425]
Copy OK

Track 6

Filename F:\CDS\Beth Orton - Trailer Park\06 Touch Me With Your Love.wav

Pre-gap length 0:00:00.04

Peak level 97.8 %
Track quality 100.0 %
Test CRC 5E1AD6CC
Copy CRC 5E1AD6CC
Accurately ripped (confidence 13) [75D28F54]
Copy OK

Track 7

Filename F:\CDS\Beth Orton - Trailer Park\07 Whenever.wav

Pre-gap length 0:00:00.04

Peak level 97.8 %
Track quality 100.0 %
Test CRC F28A4031
Copy CRC F28A4031
Accurately ripped (confidence 11) [02926DF9]
Copy OK

Track 8

Filename F:\CDS\Beth Orton - Trailer Park\08 How Far.wav

Pre-gap length 0:00:00.04

Peak level 97.6 %
Track quality 100.0 %
Test CRC B76DDBAC
Copy CRC B76DDBAC
Accurately ripped (confidence 13) [5F185E08]
Copy OK

Track 9

Filename F:\CDS\Beth Orton - Trailer Park\09 Someone's Daughter.wav

Pre-gap length 0:00:00.04

Peak level 97.8 %
Track quality 100.0 %
Test CRC 48EB8698
Copy CRC 48EB8698
Accurately ripped (confidence 12) [2B56F7B8]
Copy OK

Track 10

Filename F:\CDS\Beth Orton - Trailer Park\10 I Wish I Never Saw The Sunshine.wav

Pre-gap length 0:00:00.04

Peak level 97.4 %
Track quality 100.0 %
Test CRC 57ED6F3C
Copy CRC 57ED6F3C
Accurately ripped (confidence 13) [B8F9CA92]
Copy OK

Track 11

Filename F:\CDS\Beth Orton - Trailer Park\11 Galaxy Of Emptiness.wav

Pre-gap length 0:00:00.04

Peak level 97.8 %
Track quality 100.0 %
Test CRC F1B13BC2
Copy CRC F1B13BC2
Accurately ripped (confidence 13) [A0BB84D2]
Copy OK


All tracks accurately ripped

No errors occurred

End of status report




Download FREE


NO Mirror Please!