Subcategories

Biedermeier Quintet - 19th Century Music for Wind Instruments - Danzi, Rossini, Reicha (2001) {Globe GLO 7003}

Posted By: ruskaval
Biedermeier Quintet - 19th Century Music for Wind Instruments - Danzi, Rossini, Reicha (2001) {Globe GLO 7003}

Biedermeier Quintet - 19th Century Music for Wind Instruments - Danzi, Rossini, Reicha (2001) {Globe GLO 7003}
EAC rip (secure mode) | FLAC (tracks)+CUE+LOG -> 223 Mb | MP3 @320 -> 140 Mb
Full Artwork @ 300 dpi (jpg) -> 39 Mb | 5% repair rar
© 2001 Globe | GLO 7003
Classical / Viennese School / Early 19th Century / Chamber Music / Wind Instruments

Composers - Franz Danzi, Gioachino Rossini, Anton Reicha. "Biedermeier" - A term used of the culture of German-speaking Europe between the Treaty of Vienna (1815) and 1848, the year of revolutions. It is associated especially with southern Germany and with the Austria of Metternich, the architect of political stability in post-Napoleonic Europe. The term is borrowed from the name of a fictional schoolmaster created in the early 1850s by Ludwig Eichrodt.

Works on This Recording & personnel

1.
Quintets (3) for Winds, Op. 56: no 1 in B flat major by Franz Danzi
Performer: Frank De Bruine (Oboe), Eric Hoeprich (Clarinet), Claude Maury (French Horn),
Marc Vallon (Bassoon), Marten Root (Flute)
Orchestra/Ensemble: Biedermeier Woodwind Quintet
Period: Classical
Written: 1820-1824; Karlsruhe, Germany
Date of Recording: 12/1993
Venue: Utrecht, The Netherlands
Length: 15 Minutes 14 Secs.
2.
Sonata a quattro no 4 in B flat major by Gioachino Rossini
Performer: Eric Hoeprich (Clarinet), Claude Maury (French Horn), Marc Vallon (Bassoon),
Marten Root (Flute)
Orchestra/Ensemble: Biedermeier Woodwind Quintet
Period: Romantic
Written: circa 1804; Italy
Date of Recording: 12/1993
Venue: Utrecht, The Netherlands
Length: 16 Minutes 6 Secs.
3.
Quintets (6) for Winds, Op. 88: no 2 in E flat major by Anton Reicha
Performer: Claude Maury (French Horn), Eric Hoeprich (Clarinet), Frank De Bruine (Oboe),
Marten Root (Flute), Marc Vallon (Bassoon)
Orchestra/Ensemble: Biedermeier Woodwind Quintet
Period: Classical
Written: 1811-1817; France
Date of Recording: 12/1993
Venue: Utrecht, The Netherlands
Length: 27 Minutes 6 Secs.

Exact Audio Copy V1.3 from 2. September 2016

EAC extraction logfile from 21. September 2018, 17:46

Biedermeier Quintet / 19th Century Music for Wind Instruments

Used drive : hp DVD-RAM UJ8D1 Adapter: 1 ID: 0

Read mode : Secure
Utilize accurate stream : Yes
Defeat audio cache : Yes
Make use of C2 pointers : No

Read offset correction : 6
Overread into Lead-In and Lead-Out : No
Fill up missing offset samples with silence : Yes
Delete leading and trailing silent blocks : No
Null samples used in CRC calculations : Yes
Used interface : Native Win32 interface for Win NT & 2000
Gap handling : Appended to previous track

Used output format : User Defined Encoder
Selected bitrate : 768 kBit/s
Quality : High
Add ID3 tag : No
Command line compressor : C:\Program Files (x86)\Exact Audio Copy\FLAC\FLAC.EXE
Additional command line options : -6 -V -T "ARTIST=%artist%" -T "TITLE=%title%" -T "ALBUM=%albumtitle%" -T "DATE=%year%" -T "TRACKNUMBER=%tracknr%" -T "GENRE=%genre%" -T "COMMENT=%comment%" -T "BAND=%albuminterpret%" -T "ALBUMARTIST=%albuminterpret%" -T "COMPOSER=%composer%" %haslyrics%–tag-from-file=LYRICS="%lyricsfile%"%haslyrics% -T "DISCNUMBER=%cdnumber%" -T "TOTALDISCS=%totalcds%" -T "TOTALTRACKS=%numtracks%" %hascover%–picture="%coverfile%"%hascover% %source% -o %dest%


TOC of the extracted CD

Track | Start | Length | Start sector | End sector
––––––––––––––––––––––––––––-
1 | 0:00.00 | 7:42.63 | 0 | 34712
2 | 7:42.63 | 2:52.22 | 34713 | 47634
3 | 10:35.10 | 2:19.23 | 47635 | 58082
4 | 12:54.33 | 2:41.09 | 58083 | 70166
5 | 15:35.42 | 10:08.33 | 70167 | 115799
6 | 25:44.00 | 3:22.23 | 115800 | 130972
7 | 29:06.23 | 2:53.35 | 130973 | 143982
8 | 31:59.58 | 7:51.60 | 143983 | 179367
9 | 39:51.43 | 4:26.72 | 179368 | 199389
10 | 44:18.40 | 9:23.15 | 199390 | 241629
11 | 53:41.55 | 5:31.08 | 241630 | 266462


Track 1

Filename C:\EAC\01 Quintet in B flat major, Op. 56 No. 1 - I. Allegretto.wav

Pre-gap length 0:00:02.00

Peak level 70.5 %
Extraction speed 2.9 X
Track quality 100.0 %
Test CRC A5C3BA7B
Copy CRC A5C3BA7B
Accurately ripped (confidence 1) [0DFB20AB] (AR v2)
Copy OK

Track 2

Filename C:\EAC\02 Quintet in B flat major, Op. 56 No. 1 - II. Andante con moto.wav

Pre-gap length 0:00:02.25

Peak level 54.7 %
Extraction speed 2.4 X
Track quality 99.9 %
Test CRC 96DE5AD4
Copy CRC 96DE5AD4
Accurately ripped (confidence 1) [7D480EC3] (AR v2)
Copy OK

Track 3

Filename C:\EAC\03 Quintet in B flat major, Op. 56 No. 1 - III. Minuetto. Allegretto.wav

Pre-gap length 0:00:01.48

Peak level 53.9 %
Extraction speed 2.9 X
Track quality 100.0 %
Test CRC E385C925
Copy CRC E385C925
Accurately ripped (confidence 1) [62943245] (AR v2)
Copy OK

Track 4

Filename C:\EAC\04 Quintet in B flat major, Op. 56 No. 1 - IV. Allegretto.wav

Peak level 71.2 %
Extraction speed 3.2 X
Track quality 100.0 %
Test CRC 4FF7C2B2
Copy CRC 4FF7C2B2
Accurately ripped (confidence 1) [71A7488A] (AR v2)
Copy OK

Track 5

Filename C:\EAC\05 Sonata a quattro No. 4 in B flat major - I. Allegro vivo.wav

Pre-gap length 0:00:14.34

Peak level 71.2 %
Extraction speed 4.1 X
Track quality 100.0 %
Test CRC 866893E1
Copy CRC 866893E1
Accurately ripped (confidence 1) [E331375B] (AR v2)
Copy OK

Track 6

Filename C:\EAC\06 Sonata a quattro No. 4 in B flat major - II. Andantino.wav

Pre-gap length 0:00:02.18

Peak level 71.3 %
Extraction speed 4.0 X
Track quality 100.0 %
Test CRC AF51D1E9
Copy CRC AF51D1E9
Accurately ripped (confidence 1) [09F6660A] (AR v2)
Copy OK

Track 7

Filename C:\EAC\07 Sonata a quattro No. 4 in B flat major - III. Allegretto.wav

Peak level 59.1 %
Extraction speed 3.9 X
Track quality 100.0 %
Test CRC B87038DE
Copy CRC B87038DE
Accurately ripped (confidence 1) [FFF0AC73] (AR v2)
Copy OK

Track 8

Filename C:\EAC\08 Quintet in B flat major, Op. 88 No. 2 - I. Lento - Allegro moderato.wav

Pre-gap length 0:00:14.36

Peak level 85.2 %
Extraction speed 4.3 X
Track quality 99.9 %
Test CRC D346A063
Copy CRC D346A063
Accurately ripped (confidence 1) [0F646F1C] (AR v2)
Copy OK

Track 9

Filename C:\EAC\09 Quintet in B flat major, Op. 88 No. 2 - II. Menuetto. Allegro.wav

Pre-gap length 0:00:02.66

Peak level 61.9 %
Extraction speed 4.8 X
Track quality 100.0 %
Test CRC 2B741EA5
Copy CRC 2B741EA5
Accurately ripped (confidence 1) [8140CFC0] (AR v2)
Copy OK

Track 10

Filename C:\EAC\10 Quintet in B flat major, Op. 88 No. 2 - III. Poco Andante. Grazioso.wav

Pre-gap length 0:00:02.14

Peak level 84.1 %
Extraction speed 5.4 X
Track quality 100.0 %
Test CRC DB1605DE
Copy CRC DB1605DE
Accurately ripped (confidence 1) [2957E050] (AR v2)
Copy OK

Track 11

Filename C:\EAC\11 Quintet in B flat major, Op. 88 No. 2 - IV. Finale. Allegretto.wav

Pre-gap length 0:00:01.01

Peak level 100.0 %
Extraction speed 5.4 X
Track quality 100.0 %
Test CRC E9C98450
Copy CRC E9C98450
Accurately ripped (confidence 1) [8EAEF867] (AR v2)
Copy OK


All tracks accurately ripped

No errors occurred

End of status report

–– CUETools DB Plugin V2.1.6

[CTDB TOCID: 2Ml1M2rUY2kCkYDIai7WS6ndchs-] found
Submit result: already submitted
Track | CTDB Status
1 | (2/2) Accurately ripped
2 | (2/2) Accurately ripped
3 | (2/2) Accurately ripped
4 | (2/2) Accurately ripped
5 | (2/2) Accurately ripped
6 | (2/2) Accurately ripped
7 | (2/2) Accurately ripped
8 | (2/2) Accurately ripped
9 | (2/2) Accurately ripped
10 | (2/2) Accurately ripped
11 | (2/2) Accurately ripped


==== Log checksum 86DBE4058734F22ED5AACCCAAC03EC4B32C68551D40CE3034AB21E8E5F9FE634 ====


Biedermeier Quintet - 19th Century Music for Wind Instruments - Danzi, Rossini, Reicha (2001) {Globe GLO 7003}

Biedermeier Quintet - 19th Century Music for Wind Instruments - Danzi, Rossini, Reicha (2001) {Globe GLO 7003}



===