Subcategories

Bill Evans - The Complete Fantasy Recordings (1989) [9CD BoxSet] {Fantasy}

Posted By: ruskaval
Bill Evans - The Complete Fantasy Recordings (1989) [9CD BoxSet] {Fantasy}

Bill Evans - The Complete Fantasy Recordings (1989) [9CD BoxSet] {Fantasy}
EAC rip (secure mode) | FLAC (tracks)+CUE+LOG -> 2.9 Gb | MP3 @320 -> 1.56 Gb
Artwork (PNG) -> 63 Mb | 5% repair rar
© 1989 Fantasy / ZYX Music | FCD-1012-2
Jazz / Post Bop / Modal Music / Piano

Bill Evans' Fantasy recordings of 1973-1979 have often been underrated in favor of his earlier work but, as this remarkable nine-CD set continually shows, the influential pianist continued to grow as a musician through the years while holding on to his original conception and distinctive sound. The collection has all of the 98 selections recorded at Evans' 11 Fantasy sessions, including nine numbers from a previously unreleased 1976 concert with his trio. In addition, Evans' appearance on Marian McPartland's Piano Jazz radio program is tacked on as a bonus and it is actually among McPartland's finest shows, a fascinating hour of discussion and music with Evans. Nearly all of the performances on this box (which includes duets with bassist Eddie Gomez and singer Tony Bennett, trio outings with Gomez and either Marty Morell or Eliot Zigmund on drums, and a couple of quintet sets with the likes of tenors Harold Land and Warne Marsh, altoist Lee Konitz, guitarist Kenny Burrell, bassist Ray Brown, and drummer Philly Joe Jones) is available individually on CD but Bill Evans' more passionate collectors will certainly want this definitive box.
Bill Evans - The Complete Fantasy Recordings (1989) [9CD BoxSet] {Fantasy}

Here is the complete body of work recorded by Bill Evans as released by the Fantasy label during the seven-year period closely preceding Evans’s untimely death in 1980.

The set contains 98 selections recorded by the influential jazz pianist between 1973 and 1979 in club, concert, or studio settings, plus a previously unreleased 1976 Paris concert recording. Also included is a fascinating hour-long interview with Evans at the piano, conducted by Marian McPartland and originally broadcast on National Public Radio in 1978.

In these solo, duo, trio, and quintet performances with Tony Bennett, Ray Brown, Kenny Burrell, Eddie Gomez, Philly Joe Jones, Lee Konitz, Harold Land, Warne Marsh, Marty Morell, and Eliot Zigmund, Bill Evans is revealed as a commanding artist at the peak of his powers.
Bill Evans - The Complete Fantasy Recordings (1989) [9CD BoxSet] {Fantasy}

Bill Evans - The Complete Fantasy Recordings (1989) [9CD BoxSet] {Fantasy}

This set represents all of the recordings made for Fantasy Records from 1973 through until 1979. The recordings are primarily in trio format, with one solo set and two quintet sets. The Bill Evans/Tony Bennett Album is also included in full.

Over this period of time Bill Evans was reportedly drug free and his playing repartiore is greatly enhanced. However, despite new material, Evans failed to grow much musically. The playing is these 9 discs is technically near-perfect with multiple highlights. The music is typically mellow and complex in the style of Evans, with the solo set really showing the depth of Bill Evans as an jazz pianist.

Overall, these recordings are both interesting and enjoyable. The recording quality is consistantly good, even in the live situations. As a bonus, the ninth disc represents a 1979 interview with Marian McPartland. I found this interview to be very information and of great interest. These recordings represent Bill Evans in a transitional stage which eventually led to his more aggressive approach over his last year of performance. This set comes recommended to both Evans fanatics and general jazz listeners.
Bill Evans - The Complete Fantasy Recordings (1989) [9CD BoxSet] {Fantasy}

Bill Evans - The Complete Fantasy Recordings (1989) [9CD BoxSet] {Fantasy}


Personnel:
Bill Evans - Piano
Eddie Gomez - Bass
Eliot Zigmund - Drums
Cannonball Adderley - Sax (Alto)
Freddie Hubbard - Trumpet
Harold Land - Sax (Tenor)
Jim Hall - Guitar
Kenny Burrell - Guitar
Lee Konitz - Sax (Alto)
Marian McPartland - Interviewer
Marty Morell - Drums
Paul Chambers - Bass
Percy Heath - Bass
Philly Joe Jones - Drums
Ray Brown - Bass
Ron Carter - Bass
Scott LaFaro - Unknown Contributor Role
Tony Bennett - Vocals
Warne Marsh - Sax (Tenor)
Zoot Sims - Sax (Tenor)

Bill Evans - The Complete Fantasy Recordings (1989) [9CD BoxSet] {Fantasy}


tracklist:
DISC ONE

01. Mornin' Glory
02. Up With The Lark
03. Yesterday I Heard The Rain
04. My Romance
05. When Autumn Comes
06. T.T.T.T. (Twelve Tone Tune Two)
07. Hullo Bolinas
08. Gloria's Step
09. On Green Dolphin Street

DISC TWO
01. Up With The Lark
02. Quiet Now
03. Gloria's Step
04. When In Rome / It Amazes Me
05. Since We Met
06. Midnight Mood
07. See-Saw
08. Elsa
09. Sareen Jurer
10. Time Remembered
11. Turn Out The Stars
12. But Beautiful

DISC THREE
01. Re: Person I Knew
02. Sugar Plum
03. Alfie
04. T.T.T.
05. Excerpt From: Dolphin Dance / Very Early
06. 34 Skidoo
07. Emily
08. Are You All The Things
09. Invitation
10. Blue Serge
11. Show-Type Tune
12. The Nature Of Things

DISC FOUR
01. Are You All The Things
02. A Face Without A Name
03. Falling Grace
04. Hi Lili, Hi Lo
05. Gone With The Wind
06. Saudade Do Brasil
07. My Foolish Heart
08. The Touch Of Your Lips
09. Some Other Time
10. When In Rome
11. We'll Be Together Again
12. Young And Foolish
13. Waltz For Debby
14. But Beautiful
15. Days Of Wine And Roses

DISC FIVE
01. Elsa
02. Milano
03. Venutian Rhythm Dance
04. Django
05. But Beautiful
06. Minha (All Mine)
07. Driftin'
08. I Love You
09. The Summer Knows
10. In A Sentimental Mood
11. The Touch Of Your Lips
12. In Your Own Sweet Way
13. Make Someone Happy

DISC SIX
01. All Of You
02. What Kind Of Fool Am I
03. People
04. Since We Met
05. Medley: But Not For Me / Isn't It Romantic / The Opener
06. Sweet Dulcinea Blue
07. Martina
08. Second Time Around
09. A Child Is Born
10. Bass Face
11. Nobody Else But Me

DISC SEVEN
01. Sugar Plum
02. Time Remembered
03. 34 Skidoo
04. T.T.T.
05. Turn Out The Stars
06. 'Someday My Prince Will Come
07. Minha (All Mine)
08. All Of You
09. Waltz For Debby
10. Eiderdown
11. Ev'ry Time We Say Goodbye
12. Pensativa

DISC EIGHT
01. Speak Low
02. When I Fall In Love
03. Night And Day
04. I Will Say Goodbye (Instrumental)
05. Dolphin Dance
06. Seascape
07. Peau Douce
08. Nobody Else But Me
09. I Will Say Goodbye
10. The Opener
11. Quiet Light
12. A House Is Not A Home
13. Orson's Theme

DISC NINE
01. Marian McPartland's Piano Jazz Interview
*Kaleidoscope (Theme) [Live]
*Waltz for Debby [Live]
*All of You [Live]
*In Your Own Sweet Way [Live]
*The Touch of Your Lips [Live]
*Reflections in D [Live]
*I Love You [Live]
*Days of Wine and Roses [Live]
*This Is All I Ask [Live]
*While We're Young [Live]

Bill Evans - The Complete Fantasy Recordings (1989) [9CD BoxSet] {Fantasy}

Bill Evans - The Complete Fantasy Recordings (1989) [9CD BoxSet] {Fantasy}

Bill Evans - The Complete Fantasy Recordings (1989) [9CD BoxSet] {Fantasy}

EAC extraction logfile from 22. December 2008, 10:20 for CD
Bill Evans / The Complete Fantasy Recordings CD 1

Used drive : PLEXTOR CD-R PX-230A Adapter: 1 ID: 0
Read mode : Secure with NO C2, accurate stream, disable cache
Read offset correction : 738
Overread into Lead-In and Lead-Out : No

Used output format : D:\Program Files\EAC\flac.exe (User Defined Encoder)
320 kBit/s
Additional command line options : -8 -V -T "artist=%a" -T "title=%t" -T "album=%g" -T "date=%y" -T "tracknumber=%n" -T "genre=%m" -T "comment=eac Flac 1.1.4 -8" %s

Other options :
Fill up missing offset samples with silence : Yes
Delete leading and trailing silent blocks : No
Installed external ASPI interface


Track 1
Filename D:\Fiamma\Bill Evans - The Complete Fantasy Recordings (1989) [FLAC] (9 CD's)\CD 1\01 - Mornin' Glory.wav

Pre-gap length 0:00:02.00

Peak level 75.2 %
Track quality 100.0 %
Test CRC 48DF6D5F
Copy CRC 48DF6D5F
Copy OK

Track 2
Filename D:\Fiamma\Bill Evans - The Complete Fantasy Recordings (1989) [FLAC] (9 CD's)\CD 1\02 - Up With The Lark.wav

Peak level 60.7 %
Track quality 99.9 %
Test CRC 47806748
Copy CRC 47806748
Copy OK

Track 3
Filename D:\Fiamma\Bill Evans - The Complete Fantasy Recordings (1989) [FLAC] (9 CD's)\CD 1\03 - Yesterday I Heard The Rain.wav

Peak level 53.7 %
Track quality 100.0 %
Test CRC DE79DC56
Copy CRC DE79DC56
Copy OK

Track 4
Filename D:\Fiamma\Bill Evans - The Complete Fantasy Recordings (1989) [FLAC] (9 CD's)\CD 1\04 - My Romance.wav

Peak level 71.4 %
Track quality 100.0 %
Test CRC 835D1EEE
Copy CRC 835D1EEE
Copy OK

Track 5
Filename D:\Fiamma\Bill Evans - The Complete Fantasy Recordings (1989) [FLAC] (9 CD's)\CD 1\05 - When Autumn Comes.wav

Pre-gap length 0:00:00.66

Peak level 48.4 %
Track quality 100.0 %
Test CRC 699DAB4C
Copy CRC 699DAB4C
Copy OK

Track 6
Filename D:\Fiamma\Bill Evans - The Complete Fantasy Recordings (1989) [FLAC] (9 CD's)\CD 1\06 - T.T.T.T. (Twelve Tone Tune Two).wav

Peak level 58.5 %
Track quality 99.9 %
Test CRC 480D41B0
Copy CRC 480D41B0
Copy OK

Track 7
Filename D:\Fiamma\Bill Evans - The Complete Fantasy Recordings (1989) [FLAC] (9 CD's)\CD 1\07 - Hullo Bolinas.wav

Peak level 45.7 %
Track quality 100.0 %
Test CRC 3D9D871E
Copy CRC 3D9D871E
Copy OK

Track 8
Filename D:\Fiamma\Bill Evans - The Complete Fantasy Recordings (1989) [FLAC] (9 CD's)\CD 1\08 - Gloria's Step.wav

Peak level 68.7 %
Track quality 100.0 %
Test CRC 7E5EA0D0
Copy CRC 7E5EA0D0
Copy OK

Track 9
Filename D:\Fiamma\Bill Evans - The Complete Fantasy Recordings (1989) [FLAC] (9 CD's)\CD 1\09 - On Green Dolphin Street.wav

Peak level 67.1 %
Track quality 100.0 %
Test CRC A45CA7AC
Copy CRC A45CA7AC
Copy OK

No errors occured


End of status report

EAC extraction logfile from 22. December 2008, 12:43 for CD
Bill Evans / The Complete Fantasy Recordings CD 2

Used drive : PLEXTOR CD-R PX-230A Adapter: 1 ID: 0
Read mode : Secure with NO C2, accurate stream, disable cache
Read offset correction : 738
Overread into Lead-In and Lead-Out : No

Used output format : D:\Program Files\EAC\flac.exe (User Defined Encoder)
320 kBit/s
Additional command line options : -8 -V -T "artist=%a" -T "title=%t" -T "album=%g" -T "date=%y" -T "tracknumber=%n" -T "genre=%m" -T "comment=eac Flac 1.1.4 -8" %s

Other options :
Fill up missing offset samples with silence : Yes
Delete leading and trailing silent blocks : No
Installed external ASPI interface


Track 1
Filename D:\Fiamma\Bill Evans - The Complete Fantasy Recordings (1989) [FLAC] (9 CD's)\CD 2\01 - Up with the Lark.wav

Pre-gap length 0:00:02.00

Peak level 75.8 %
Track quality 100.0 %
Test CRC 81DAFF36
Copy CRC 81DAFF36
Copy OK

Track 2
Filename D:\Fiamma\Bill Evans - The Complete Fantasy Recordings (1989) [FLAC] (9 CD's)\CD 2\02 - Quiet Now.wav

Pre-gap length 0:00:00.49

Peak level 75.9 %
Track quality 99.9 %
Test CRC 254F329F
Copy CRC 254F329F
Copy OK

Track 3
Filename D:\Fiamma\Bill Evans - The Complete Fantasy Recordings (1989) [FLAC] (9 CD's)\CD 2\03 - Gloria's Step.wav

Pre-gap length 0:00:01.04

Peak level 91.8 %
Track quality 100.0 %
Test CRC 77276461
Copy CRC 77276461
Copy OK

Track 4
Filename D:\Fiamma\Bill Evans - The Complete Fantasy Recordings (1989) [FLAC] (9 CD's)\CD 2\04 - When in Rome, It Amazes Me.wav

Pre-gap length 0:00:01.30

Peak level 47.1 %
Track quality 100.0 %
Test CRC 3218E05D
Copy CRC 3218E05D
Copy OK

Track 5
Filename D:\Fiamma\Bill Evans - The Complete Fantasy Recordings (1989) [FLAC] (9 CD's)\CD 2\05 - Since We Met.wav

Pre-gap length 0:00:02.26

Peak level 71.9 %
Track quality 100.0 %
Test CRC 4E28CFF1
Copy CRC 4E28CFF1
Copy OK

Track 6
Filename D:\Fiamma\Bill Evans - The Complete Fantasy Recordings (1989) [FLAC] (9 CD's)\CD 2\06 - Midnight Mood.wav

Pre-gap length 0:00:00.64

Peak level 83.1 %
Track quality 100.0 %
Test CRC DD9EE528
Copy CRC DD9EE528
Copy OK

Track 7
Filename D:\Fiamma\Bill Evans - The Complete Fantasy Recordings (1989) [FLAC] (9 CD's)\CD 2\07 - See Saw.wav

Pre-gap length 0:00:00.13

Peak level 76.6 %
Track quality 100.0 %
Test CRC 07C976A7
Copy CRC 07C976A7
Copy OK

Track 8
Filename D:\Fiamma\Bill Evans - The Complete Fantasy Recordings (1989) [FLAC] (9 CD's)\CD 2\08 - Elsa.wav

Pre-gap length 0:00:01.44

Peak level 87.4 %
Track quality 99.9 %
Test CRC F6430883
Copy CRC F6430883
Copy OK

Track 9
Filename D:\Fiamma\Bill Evans - The Complete Fantasy Recordings (1989) [FLAC] (9 CD's)\CD 2\09 - Sareen Jurer.wav

Pre-gap length 0:00:02.30

Peak level 74.9 %
Track quality 100.0 %
Test CRC 65A7FD5D
Copy CRC 65A7FD5D
Copy OK

Track 10
Filename D:\Fiamma\Bill Evans - The Complete Fantasy Recordings (1989) [FLAC] (9 CD's)\CD 2\10 - Time Remembered.wav

Pre-gap length 0:00:00.82

Peak level 80.9 %
Track quality 100.0 %
Test CRC 511C6311
Copy CRC 511C6311
Copy OK

Track 11
Filename D:\Fiamma\Bill Evans - The Complete Fantasy Recordings (1989) [FLAC] (9 CD's)\CD 2\11 - Turn Out the Stars.wav

Pre-gap length 0:00:00.09

Peak level 84.3 %
Track quality 100.0 %
Test CRC 8B60A934
Copy CRC 8B60A934
Copy OK

Track 12
Filename D:\Fiamma\Bill Evans - The Complete Fantasy Recordings (1989) [FLAC] (9 CD's)\CD 2\12 - But Beautiful.wav

Pre-gap length 0:00:01.16

Peak level 74.5 %
Track quality 100.0 %
Test CRC 86AD2B6D
Copy CRC 86AD2B6D
Copy OK

No errors occured


End of status report

EAC extraction logfile from 22. December 2008, 10:55 for CD
Bill Evans / Complete Fantasy Recordings CD 3

Used drive : PLEXTOR CD-R PX-230A Adapter: 1 ID: 0
Read mode : Secure with NO C2, accurate stream, disable cache
Read offset correction : 738
Overread into Lead-In and Lead-Out : No

Used output format : D:\Program Files\EAC\flac.exe (User Defined Encoder)
320 kBit/s
Additional command line options : -8 -V -T "artist=%a" -T "title=%t" -T "album=%g" -T "date=%y" -T "tracknumber=%n" -T "genre=%m" -T "comment=eac Flac 1.1.4 -8" %s

Other options :
Fill up missing offset samples with silence : Yes
Delete leading and trailing silent blocks : No
Installed external ASPI interface


Track 1
Filename D:\Fiamma\Bill Evans - The Complete Fantasy Recordings (1989) [FLAC] (9 CD's)\CD 3\01 - Re-Person I Knew.wav

Pre-gap length 0:00:02.00

Peak level 49.7 %
Track quality 100.0 %
Test CRC 128DB7F1
Copy CRC 128DB7F1
Copy OK

Track 2
Filename D:\Fiamma\Bill Evans - The Complete Fantasy Recordings (1989) [FLAC] (9 CD's)\CD 3\02 - Sugar Plum.wav

Pre-gap length 0:00:00.73

Peak level 47.0 %
Track quality 100.0 %
Test CRC 091017F7
Copy CRC 091017F7
Copy OK

Track 3
Filename D:\Fiamma\Bill Evans - The Complete Fantasy Recordings (1989) [FLAC] (9 CD's)\CD 3\03 - Alfie.wav

Pre-gap length 0:00:04.04

Peak level 58.2 %
Track quality 100.0 %
Test CRC A63CE4EE
Copy CRC A63CE4EE
Copy OK

Track 4
Filename D:\Fiamma\Bill Evans - The Complete Fantasy Recordings (1989) [FLAC] (9 CD's)\CD 3\04 - T.T.T.wav

Pre-gap length 0:00:04.93

Peak level 79.7 %
Track quality 99.9 %
Test CRC 8799D517
Copy CRC 8799D517
Copy OK

Track 5
Filename D:\Fiamma\Bill Evans - The Complete Fantasy Recordings (1989) [FLAC] (9 CD's)\CD 3\05 - Excerpt from Dolphin Dance,Very Early.wav

Pre-gap length 0:00:01.33

Peak level 45.0 %
Track quality 100.0 %
Test CRC 9E5A7C4F
Copy CRC 9E5A7C4F
Copy OK

Track 6
Filename D:\Fiamma\Bill Evans - The Complete Fantasy Recordings (1989) [FLAC] (9 CD's)\CD 3\06 - 34 Skidoo.wav

Pre-gap length 0:00:01.70

Peak level 77.2 %
Track quality 100.0 %
Test CRC 3188130A
Copy CRC 3188130A
Copy OK

Track 7
Filename D:\Fiamma\Bill Evans - The Complete Fantasy Recordings (1989) [FLAC] (9 CD's)\CD 3\07 - Emily.wav

Pre-gap length 0:00:00.04

Peak level 43.5 %
Track quality 100.0 %
Test CRC 782A235C
Copy CRC 782A235C
Copy OK

Track 8
Filename D:\Fiamma\Bill Evans - The Complete Fantasy Recordings (1989) [FLAC] (9 CD's)\CD 3\08 - Are You All the Things.wav

Pre-gap length 0:00:03.60

Peak level 75.4 %
Track quality 100.0 %
Test CRC 8BD73C20
Copy CRC 8BD73C20
Copy OK

Track 9
Filename D:\Fiamma\Bill Evans - The Complete Fantasy Recordings (1989) [FLAC] (9 CD's)\CD 3\09 - Invitation.wav

Pre-gap length 0:00:03.33

Peak level 52.9 %
Track quality 100.0 %
Test CRC ABC3079A
Copy CRC ABC3079A
Copy OK

Track 10
Filename D:\Fiamma\Bill Evans - The Complete Fantasy Recordings (1989) [FLAC] (9 CD's)\CD 3\10 - Blue Serge.wav

Pre-gap length 0:00:03.06

Peak level 43.1 %
Track quality 100.0 %
Test CRC 9D9758FA
Copy CRC 9D9758FA
Copy OK

Track 11
Filename D:\Fiamma\Bill Evans - The Complete Fantasy Recordings (1989) [FLAC] (9 CD's)\CD 3\11 - Show-Type Tune.wav

Pre-gap length 0:00:03.13

Peak level 35.3 %
Track quality 100.0 %
Test CRC F270E9E4
Copy CRC F270E9E4
Copy OK

Track 12
Filename D:\Fiamma\Bill Evans - The Complete Fantasy Recordings (1989) [FLAC] (9 CD's)\CD 3\12 - The Nature of Things.wav

Pre-gap length 0:00:02.57

Peak level 41.0 %
Track quality 100.0 %
Test CRC A8AD1A84
Copy CRC A8AD1A84
Copy OK

No errors occured


End of status report

EAC extraction logfile from 22. December 2008, 11:24 for CD
Bill Evans / Complete Fantasy Recordings CD 4

Used drive : PLEXTOR CD-R PX-230A Adapter: 1 ID: 0
Read mode : Secure with NO C2, accurate stream, disable cache
Read offset correction : 738
Overread into Lead-In and Lead-Out : No

Used output format : D:\Program Files\EAC\flac.exe (User Defined Encoder)
320 kBit/s
Additional command line options : -8 -V -T "artist=%a" -T "title=%t" -T "album=%g" -T "date=%y" -T "tracknumber=%n" -T "genre=%m" -T "comment=eac Flac 1.1.4 -8" %s

Other options :
Fill up missing offset samples with silence : Yes
Delete leading and trailing silent blocks : No
Installed external ASPI interface


Track 1
Filename D:\Fiamma\Bill Evans - The Complete Fantasy Recordings (1989) [FLAC] (9 CD's)\CD 4\01 - Are You All the Things.wav

Pre-gap length 0:00:02.00

Peak level 56.3 %
Track quality 100.0 %
Test CRC BE8B4BD4
Copy CRC BE8B4BD4
Copy OK

Track 2
Filename D:\Fiamma\Bill Evans - The Complete Fantasy Recordings (1989) [FLAC] (9 CD's)\CD 4\02 - A Face Without a Name.wav

Pre-gap length 0:00:03.37

Peak level 62.5 %
Track quality 100.0 %
Test CRC A80DA6D5
Copy CRC A80DA6D5
Copy OK

Track 3
Filename D:\Fiamma\Bill Evans - The Complete Fantasy Recordings (1989) [FLAC] (9 CD's)\CD 4\03 - Falling Grace.wav

Pre-gap length 0:00:03.77

Peak level 63.8 %
Track quality 99.9 %
Test CRC 6F060D3D
Copy CRC 6F060D3D
Copy OK

Track 4
Filename D:\Fiamma\Bill Evans - The Complete Fantasy Recordings (1989) [FLAC] (9 CD's)\CD 4\04 - Hi Lili, Hi, Lo.wav

Pre-gap length 0:00:03.00

Peak level 66.8 %
Track quality 100.0 %
Test CRC 87965B22
Copy CRC 87965B22
Copy OK

Track 5
Filename D:\Fiamma\Bill Evans - The Complete Fantasy Recordings (1989) [FLAC] (9 CD's)\CD 4\05 - Gone With The Wind.wav

Pre-gap length 0:00:03.06

Peak level 69.0 %
Track quality 100.0 %
Test CRC 84143E2C
Copy CRC 84143E2C
Copy OK

Track 6
Filename D:\Fiamma\Bill Evans - The Complete Fantasy Recordings (1989) [FLAC] (9 CD's)\CD 4\06 - Saudade do Brasil.wav

Pre-gap length 0:00:02.56

Peak level 58.1 %
Track quality 100.0 %
Test CRC 4C414C5A
Copy CRC 4C414C5A
Copy OK

Track 7
Filename D:\Fiamma\Bill Evans - The Complete Fantasy Recordings (1989) [FLAC] (9 CD's)\CD 4\07 - My Foolish Heart.wav

Pre-gap length 0:00:04.24

Peak level 70.1 %
Track quality 100.0 %
Test CRC 08677EC0
Copy CRC 08677EC0
Copy OK

Track 8
Filename D:\Fiamma\Bill Evans - The Complete Fantasy Recordings (1989) [FLAC] (9 CD's)\CD 4\08 - The Touch of Your Lips.wav

Pre-gap length 0:00:03.50

Peak level 79.8 %
Track quality 100.0 %
Test CRC 16318289
Copy CRC 16318289
Copy OK

Track 9
Filename D:\Fiamma\Bill Evans - The Complete Fantasy Recordings (1989) [FLAC] (9 CD's)\CD 4\09 - Some Other Time.wav

Pre-gap length 0:00:01.40

Peak level 65.1 %
Track quality 100.0 %
Test CRC B35C2148
Copy CRC B35C2148
Copy OK

Track 10
Filename D:\Fiamma\Bill Evans - The Complete Fantasy Recordings (1989) [FLAC] (9 CD's)\CD 4\10 - When in Rome.wav

Pre-gap length 0:00:02.20

Peak level 65.4 %
Track quality 100.0 %
Test CRC BF0BBF45
Copy CRC BF0BBF45
Copy OK

Track 11
Filename D:\Fiamma\Bill Evans - The Complete Fantasy Recordings (1989) [FLAC] (9 CD's)\CD 4\11 - We'll be Together Again.wav

Pre-gap length 0:00:02.20

Peak level 50.5 %
Track quality 100.0 %
Test CRC BBEF85FF
Copy CRC BBEF85FF
Copy OK

Track 12
Filename D:\Fiamma\Bill Evans - The Complete Fantasy Recordings (1989) [FLAC] (9 CD's)\CD 4\12 - Young and Foolish.wav

Pre-gap length 0:00:03.30

Peak level 72.5 %
Track quality 100.0 %
Test CRC 03E4049F
Copy CRC 03E4049F
Copy OK

Track 13
Filename D:\Fiamma\Bill Evans - The Complete Fantasy Recordings (1989) [FLAC] (9 CD's)\CD 4\13 - Waltz for Debby.wav

Pre-gap length 0:00:02.26

Peak level 62.3 %
Track quality 100.0 %
Test CRC C2627295
Copy CRC C2627295
Copy OK

Track 14
Filename D:\Fiamma\Bill Evans - The Complete Fantasy Recordings (1989) [FLAC] (9 CD's)\CD 4\14 - But Beautiful.wav

Pre-gap length 0:00:01.36

Peak level 65.1 %
Track quality 99.9 %
Test CRC 2DA0E80E
Copy CRC 2DA0E80E
Copy OK

Track 15
Filename D:\Fiamma\Bill Evans - The Complete Fantasy Recordings (1989) [FLAC] (9 CD's)\CD 4\15 - Days of Wine and Roses.wav

Pre-gap length 0:00:01.04

Peak level 59.6 %
Track quality 100.0 %
Test CRC 536A29FB
Copy CRC 536A29FB
Copy OK

No errors occured


End of status report

EAC extraction logfile from 22. December 2008, 12:03 for CD
Bill Evans / Complete Fantasy Recordings CD 5

Used drive : PLEXTOR CD-R PX-230A Adapter: 1 ID: 0
Read mode : Secure with NO C2, accurate stream, disable cache
Read offset correction : 738
Overread into Lead-In and Lead-Out : No

Used output format : D:\Program Files\EAC\flac.exe (User Defined Encoder)
320 kBit/s
Additional command line options : -8 -V -T "artist=%a" -T "title=%t" -T "album=%g" -T "date=%y" -T "tracknumber=%n" -T "genre=%m" -T "comment=eac Flac 1.1.4 -8" %s

Other options :
Fill up missing offset samples with silence : Yes
Delete leading and trailing silent blocks : No
Installed external ASPI interface


Track 1
Filename D:\Fiamma\Bill Evans - The Complete Fantasy Recordings (1989) [FLAC] (9 CD's)\CD 5\01 - Elsa.wav

Pre-gap length 0:00:02.44

Peak level 74.1 %
Track quality 100.0 %
Test CRC C30CDF3D
Copy CRC C30CDF3D
Copy OK

Track 2
Filename D:\Fiamma\Bill Evans - The Complete Fantasy Recordings (1989) [FLAC] (9 CD's)\CD 5\02 - Milano.wav

Peak level 72.8 %
Track quality 100.0 %
Test CRC B178E927
Copy CRC B178E927
Copy OK

Track 3
Filename D:\Fiamma\Bill Evans - The Complete Fantasy Recordings (1989) [FLAC] (9 CD's)\CD 5\03 - Venutian Rhythm Dance.wav

Peak level 81.1 %
Track quality 100.0 %
Test CRC E132DBE8
Copy CRC E132DBE8
Copy OK

Track 4
Filename D:\Fiamma\Bill Evans - The Complete Fantasy Recordings (1989) [FLAC] (9 CD's)\CD 5\04 - Django.wav

Peak level 67.3 %
Track quality 100.0 %
Test CRC 2FCE9B05
Copy CRC 2FCE9B05
Copy OK

Track 5
Filename D:\Fiamma\Bill Evans - The Complete Fantasy Recordings (1989) [FLAC] (9 CD's)\CD 5\05 - But Beautiful.wav

Peak level 61.9 %
Track quality 100.0 %
Test CRC 6C52F33A
Copy CRC 6C52F33A
Copy OK

Track 6
Filename D:\Fiamma\Bill Evans - The Complete Fantasy Recordings (1989) [FLAC] (9 CD's)\CD 5\06 - Minha (All Mine).wav

Peak level 69.3 %
Track quality 100.0 %
Test CRC D153331F
Copy CRC D153331F
Copy OK

Track 7
Filename D:\Fiamma\Bill Evans - The Complete Fantasy Recordings (1989) [FLAC] (9 CD's)\CD 5\07 - Driftin'.wav

Peak level 58.9 %
Track quality 100.0 %
Test CRC 7EFDDA1C
Copy CRC 7EFDDA1C
Copy OK

Track 8
Filename D:\Fiamma\Bill Evans - The Complete Fantasy Recordings (1989) [FLAC] (9 CD's)\CD 5\08 - I Love You.wav

Peak level 68.7 %
Track quality 99.9 %
Test CRC 8B162D2D
Copy CRC 8B162D2D
Copy OK

Track 9
Filename D:\Fiamma\Bill Evans - The Complete Fantasy Recordings (1989) [FLAC] (9 CD's)\CD 5\09 - The Summer Knows.wav

Peak level 51.4 %
Track quality 100.0 %
Test CRC 6A52E2BA
Copy CRC 6A52E2BA
Copy OK

Track 10
Filename D:\Fiamma\Bill Evans - The Complete Fantasy Recordings (1989) [FLAC] (9 CD's)\CD 5\10 - In a Sentimental Mood.wav

Peak level 80.4 %
Track quality 100.0 %
Test CRC E50F755E
Copy CRC E50F755E
Copy OK

Track 11
Filename D:\Fiamma\Bill Evans - The Complete Fantasy Recordings (1989) [FLAC] (9 CD's)\CD 5\11 - The Touch of Your Lips.wav

Peak level 59.9 %
Track quality 100.0 %
Test CRC 81FEE6DD
Copy CRC 81FEE6DD
Copy OK

Track 12
Filename D:\Fiamma\Bill Evans - The Complete Fantasy Recordings (1989) [FLAC] (9 CD's)\CD 5\12 - In Your Own Sweet Way.wav

Peak level 60.7 %
Track quality 100.0 %
Test CRC 59EEE36C
Copy CRC 59EEE36C
Copy OK

Track 13
Filename D:\Fiamma\Bill Evans - The Complete Fantasy Recordings (1989) [FLAC] (9 CD's)\CD 5\13 - Make Someone Happy.wav

Peak level 60.5 %
Track quality 100.0 %
Test CRC D8DFBCB6
Copy CRC D8DFBCB6
Copy OK

No errors occured


End of status report

EAC extraction logfile from 22. December 2008, 13:12 for CD
Bill Evans / Complete Fantasy Recordings CD 6

Used drive : PLEXTOR CD-R PX-230A Adapter: 1 ID: 0
Read mode : Secure with NO C2, accurate stream, disable cache
Read offset correction : 738
Overread into Lead-In and Lead-Out : No

Used output format : D:\Program Files\EAC\flac.exe (User Defined Encoder)
320 kBit/s
Additional command line options : -8 -V -T "artist=%a" -T "title=%t" -T "album=%g" -T "date=%y" -T "tracknumber=%n" -T "genre=%m" -T "comment=eac Flac 1.1.4 -8" %s

Other options :
Fill up missing offset samples with silence : Yes
Delete leading and trailing silent blocks : No
Installed external ASPI interface


Track 1
Filename D:\Fiamma\Bill Evans - The Complete Fantasy Recordings (1989) [FLAC] (9 CD's)\CD 6\01 - All of You.wav

Pre-gap length 0:00:02.00

Peak level 87.4 %
Track quality 100.0 %
Test CRC 074129FC
Copy CRC 074129FC
Copy OK

Track 2
Filename D:\Fiamma\Bill Evans - The Complete Fantasy Recordings (1989) [FLAC] (9 CD's)\CD 6\02 - What Kind of Fool Am I.wav

Pre-gap length 0:00:03.40

Peak level 62.8 %
Track quality 100.0 %
Test CRC 94949CA4
Copy CRC 94949CA4
Copy OK

Track 3
Filename D:\Fiamma\Bill Evans - The Complete Fantasy Recordings (1989) [FLAC] (9 CD's)\CD 6\03 - People.wav

Pre-gap length 0:00:04.06

Peak level 63.7 %
Track quality 100.0 %
Test CRC F5BEC536
Copy CRC F5BEC536
Copy OK

Track 4
Filename D:\Fiamma\Bill Evans - The Complete Fantasy Recordings (1989) [FLAC] (9 CD's)\CD 6\04 - Since We Met.wav

Pre-gap length 0:00:00.93

Peak level 65.1 %
Track quality 100.0 %
Test CRC 7444ADF3
Copy CRC 7444ADF3
Copy OK

Track 5
Filename D:\Fiamma\Bill Evans - The Complete Fantasy Recordings (1989) [FLAC] (9 CD's)\CD 6\05 - But Not For Me, Isn't It Romantic, The Opener.wav

Pre-gap length 0:00:01.57

Peak level 44.8 %
Track quality 100.0 %
Test CRC 5E186CF6
Copy CRC 5E186CF6
Copy OK

Track 6
Filename D:\Fiamma\Bill Evans - The Complete Fantasy Recordings (1989) [FLAC] (9 CD's)\CD 6\06 - Sweet Dulcinea.wav

Pre-gap length 0:00:02.09

Peak level 62.1 %
Track quality 99.9 %
Test CRC BD4C470A
Copy CRC BD4C470A
Copy OK

Track 7
Filename D:\Fiamma\Bill Evans - The Complete Fantasy Recordings (1989) [FLAC] (9 CD's)\CD 6\07 - Martina.wav

Pre-gap length 0:00:03.60

Peak level 65.5 %
Track quality 100.0 %
Test CRC 18272EDE
Copy CRC 18272EDE
Copy OK

Track 8
Filename D:\Fiamma\Bill Evans - The Complete Fantasy Recordings (1989) [FLAC] (9 CD's)\CD 6\08 - Second Time Around.wav

Pre-gap length 0:00:01.50

Peak level 58.4 %
Track quality 99.9 %
Test CRC 67AC6CDE
Copy CRC 67AC6CDE
Copy OK

Track 9
Filename D:\Fiamma\Bill Evans - The Complete Fantasy Recordings (1989) [FLAC] (9 CD's)\CD 6\09 - A Child is Born.wav

Pre-gap length 0:00:03.76

Peak level 63.8 %
Track quality 100.0 %
Test CRC 9FBB15ED
Copy CRC 9FBB15ED
Copy OK

Track 10
Filename D:\Fiamma\Bill Evans - The Complete Fantasy Recordings (1989) [FLAC] (9 CD's)\CD 6\10 - Bass Face.wav

Pre-gap length 0:00:02.33

Peak level 55.9 %
Track quality 100.0 %
Test CRC ED2D0268
Copy CRC ED2D0268
Copy OK

Track 11
Filename D:\Fiamma\Bill Evans - The Complete Fantasy Recordings (1989) [FLAC] (9 CD's)\CD 6\11 - Nobody Else But Me.wav

Pre-gap length 0:00:00.70

Peak level 70.5 %
Track quality 100.0 %
Test CRC 8F4C3436
Copy CRC 8F4C3436
Copy OK

No errors occured


End of status report

EAC extraction logfile from 24. December 2008, 9:06 for CD
Bill Evans / The Complete Fantasy Recordings CD 7

Used drive : PLEXTOR CD-R PX-230A Adapter: 1 ID: 0
Read mode : Secure with NO C2, accurate stream, disable cache
Read offset correction : 738
Overread into Lead-In and Lead-Out : No

Used output format : D:\Program Files\EAC\flac.exe (User Defined Encoder)
320 kBit/s
Additional command line options : -8 -V -T "artist=%a" -T "title=%t" -T "album=%g" -T "date=%y" -T "tracknumber=%n" -T "genre=%m" -T "comment=eac Flac 1.1.4 -8" %s

Other options :
Fill up missing offset samples with silence : Yes
Delete leading and trailing silent blocks : No
Installed external ASPI interface


Track 1
Filename D:\Fiamma\Bill Evans - The Complete Fantasy Recordings (1989) [FLAC] (9 CD's)\CD 7\01 - Sugar Plum.wav

Pre-gap length 0:00:02.42

Peak level 57.3 %
Track quality 100.0 %
Test CRC 35212AE1
Copy CRC 35212AE1
Copy OK

Track 2
Filename D:\Fiamma\Bill Evans - The Complete Fantasy Recordings (1989) [FLAC] (9 CD's)\CD 7\02 - Time Remembered.wav

Peak level 56.8 %
Track quality 100.0 %
Test CRC 2FF857DF
Copy CRC 2FF857DF
Copy OK

Track 3
Filename D:\Fiamma\Bill Evans - The Complete Fantasy Recordings (1989) [FLAC] (9 CD's)\CD 7\03 - 34 Skidoo.wav

Peak level 72.5 %
Track quality 100.0 %
Test CRC 8427B469
Copy CRC 8427B469
Copy OK

Track 4
Filename D:\Fiamma\Bill Evans - The Complete Fantasy Recordings (1989) [FLAC] (9 CD's)\CD 7\04 - T.T.T.T..wav

Peak level 72.0 %
Track quality 100.0 %
Test CRC D126EBE5
Copy CRC D126EBE5
Copy OK

Track 5
Filename D:\Fiamma\Bill Evans - The Complete Fantasy Recordings (1989) [FLAC] (9 CD's)\CD 7\05 - Turn Out the Stars.wav

Pre-gap length 0:00:03.00

Peak level 91.0 %
Track quality 99.9 %
Test CRC 4488BE36
Copy CRC 4488BE36
Copy OK

Track 6
Filename D:\Fiamma\Bill Evans - The Complete Fantasy Recordings (1989) [FLAC] (9 CD's)\CD 7\06 - Someday my Prince Will Come.wav

Peak level 88.1 %
Track quality 100.0 %
Test CRC A7D3C6FC
Copy CRC A7D3C6FC
Copy OK

Track 7
Filename D:\Fiamma\Bill Evans - The Complete Fantasy Recordings (1989) [FLAC] (9 CD's)\CD 7\07 - Minha (All Mine).wav

Peak level 60.8 %
Track quality 100.0 %
Test CRC 4AC22171
Copy CRC 4AC22171
Copy OK

Track 8
Filename D:\Fiamma\Bill Evans - The Complete Fantasy Recordings (1989) [FLAC] (9 CD's)\CD 7\08 - All of You.wav

Peak level 96.9 %
Track quality 100.0 %
Test CRC DB293224
Copy CRC DB293224
Copy OK

Track 9
Filename D:\Fiamma\Bill Evans - The Complete Fantasy Recordings (1989) [FLAC] (9 CD's)\CD 7\09 - Waltz for Debby.wav

Peak level 66.2 %
Track quality 100.0 %
Test CRC 3C6FDEDE
Copy CRC 3C6FDEDE
Copy OK

Track 10
Filename D:\Fiamma\Bill Evans - The Complete Fantasy Recordings (1989) [FLAC] (9 CD's)\CD 7\10 - Eiderdown.wav

Pre-gap length 0:00:03.00

Peak level 54.0 %
Track quality 99.9 %
Test CRC B50F3FFF
Copy CRC B50F3FFF
Copy OK

Track 11
Filename D:\Fiamma\Bill Evans - The Complete Fantasy Recordings (1989) [FLAC] (9 CD's)\CD 7\11 - Ev'ry Time we Say Goodbye.wav

Pre-gap length 0:00:02.00

Peak level 41.8 %
Track quality 100.0 %
Test CRC 9442B437
Copy CRC 9442B437
Copy OK

Track 12
Filename D:\Fiamma\Bill Evans - The Complete Fantasy Recordings (1989) [FLAC] (9 CD's)\CD 7\12 - Pensativa.wav

Pre-gap length 0:00:02.00

Peak level 53.8 %
Track quality 100.0 %
Test CRC 47C2D622
Copy CRC 47C2D622
Copy OK

No errors occured


End of status report

EAC extraction logfile from 24. December 2008, 9:25 for CD
Bill Evans / The Complete Fantasy Recordings CD 8

Used drive : PLEXTOR CD-R PX-230A Adapter: 1 ID: 0
Read mode : Secure with NO C2, accurate stream, disable cache
Read offset correction : 738
Overread into Lead-In and Lead-Out : No

Used output format : D:\Program Files\EAC\flac.exe (User Defined Encoder)
320 kBit/s
Additional command line options : -8 -V -T "artist=%a" -T "title=%t" -T "album=%g" -T "date=%y" -T "tracknumber=%n" -T "genre=%m" -T "comment=eac Flac 1.1.4 -8" %s

Other options :
Fill up missing offset samples with silence : Yes
Delete leading and trailing silent blocks : No
Installed external ASPI interface


Track 1
Filename D:\Fiamma\Bill Evans - The Complete Fantasy Recordings (1989) [FLAC] (9 CD's)\CD 8\01 - Speak Low.wav

Pre-gap length 0:00:02.00

Peak level 75.0 %
Track quality 99.9 %
Test CRC 9D567034
Copy CRC 9D567034
Copy OK

Track 2
Filename D:\Fiamma\Bill Evans - The Complete Fantasy Recordings (1989) [FLAC] (9 CD's)\CD 8\02 - When I Fall in Love.wav

Pre-gap length 0:00:02.60

Peak level 47.8 %
Track quality 100.0 %
Test CRC F4A5095A
Copy CRC F4A5095A
Copy OK

Track 3
Filename D:\Fiamma\Bill Evans - The Complete Fantasy Recordings (1989) [FLAC] (9 CD's)\CD 8\03 - Night and Day.wav

Pre-gap length 0:00:02.00

Peak level 71.0 %
Track quality 100.0 %
Test CRC 203BD6CA
Copy CRC 203BD6CA
Copy OK

Track 4
Filename D:\Fiamma\Bill Evans - The Complete Fantasy Recordings (1989) [FLAC] (9 CD's)\CD 8\04 - I Will Say Goodbye.wav

Pre-gap length 0:00:01.73

Peak level 55.6 %
Track quality 100.0 %
Test CRC D908ED9F
Copy CRC D908ED9F
Copy OK

Track 5
Filename D:\Fiamma\Bill Evans - The Complete Fantasy Recordings (1989) [FLAC] (9 CD's)\CD 8\05 - Dolphin Dance.wav

Pre-gap length 0:00:03.44

Peak level 55.5 %
Track quality 100.0 %
Test CRC 640E87D1
Copy CRC 640E87D1
Copy OK

Track 6
Filename D:\Fiamma\Bill Evans - The Complete Fantasy Recordings (1989) [FLAC] (9 CD's)\CD 8\06 - Seascape.wav

Pre-gap length 0:00:03.49

Peak level 50.1 %
Track quality 100.0 %
Test CRC CB7BDC3E
Copy CRC CB7BDC3E
Copy OK

Track 7
Filename D:\Fiamma\Bill Evans - The Complete Fantasy Recordings (1989) [FLAC] (9 CD's)\CD 8\07 - Peau Douce.wav

Pre-gap length 0:00:02.40

Peak level 54.1 %
Track quality 100.0 %
Test CRC 349FABCE
Copy CRC 349FABCE
Copy OK

Track 8
Filename D:\Fiamma\Bill Evans - The Complete Fantasy Recordings (1989) [FLAC] (9 CD's)\CD 8\08 - Nobody Else But Me.wav

Pre-gap length 0:00:02.06

Peak level 53.7 %
Track quality 99.9 %
Test CRC 0C64FF8B
Copy CRC 0C64FF8B
Copy OK

Track 9
Filename D:\Fiamma\Bill Evans - The Complete Fantasy Recordings (1989) [FLAC] (9 CD's)\CD 8\09 - I Will Say Goodbye (Take 2).wav

Pre-gap length 0:00:02.46

Peak level 38.8 %
Track quality 100.0 %
Test CRC 5D7C6FB5
Copy CRC 5D7C6FB5
Copy OK

Track 10
Filename D:\Fiamma\Bill Evans - The Complete Fantasy Recordings (1989) [FLAC] (9 CD's)\CD 8\10 - The Opener.wav

Pre-gap length 0:00:04.22

Peak level 55.2 %
Track quality 100.0 %
Test CRC 7B856924
Copy CRC 7B856924
Copy OK

Track 11
Filename D:\Fiamma\Bill Evans - The Complete Fantasy Recordings (1989) [FLAC] (9 CD's)\CD 8\11 - Quiet Light.wav

Pre-gap length 0:00:03.20

Peak level 42.8 %
Track quality 100.0 %
Test CRC 575AE6FE
Copy CRC 575AE6FE
Copy OK

Track 12
Filename D:\Fiamma\Bill Evans - The Complete Fantasy Recordings (1989) [FLAC] (9 CD's)\CD 8\12 - A House is Not a Home.wav

Pre-gap length 0:00:03.00

Peak level 39.9 %
Track quality 100.0 %
Test CRC 25823072
Copy CRC 25823072
Copy OK

Track 13
Filename D:\Fiamma\Bill Evans - The Complete Fantasy Recordings (1989) [FLAC] (9 CD's)\CD 8\13 - Orson's Theme.wav

Pre-gap length 0:00:00.90

Peak level 51.9 %
Track quality 100.0 %
Test CRC 55F3B5A3
Copy CRC 55F3B5A3
Copy OK

No errors occured


End of status report

EAC extraction logfile from 24. December 2008, 9:49 for CD
Bill Evans / The Complete Fantasy Recordings CD 0

Used drive : PLEXTOR CD-R PX-230A Adapter: 1 ID: 0
Read mode : Secure with NO C2, accurate stream, disable cache
Read offset correction : 738
Overread into Lead-In and Lead-Out : No

Used output format : D:\Program Files\EAC\flac.exe (User Defined Encoder)
320 kBit/s
Additional command line options : -8 -V -T "artist=%a" -T "title=%t" -T "album=%g" -T "date=%y" -T "tracknumber=%n" -T "genre=%m" -T "comment=eac Flac 1.1.4 -8" %s

Other options :
Fill up missing offset samples with silence : Yes
Delete leading and trailing silent blocks : No
Installed external ASPI interface


Track 1
Filename D:\Fiamma\Bill Evans - The Complete Fantasy Recordings (1989) [FLAC] (9 CD's)\CD 9\01 - Marian McPartland's Piano Jazz Interview.wav

Pre-gap length 0:00:02.00

Peak level 93.7 %
Track quality 100.0 %
Test CRC 7ED1104A
Copy CRC 7ED1104A
Copy OK

No errors occured


End of status report


Thank to Fiamma!