Subcategories

Bill Evans - The Complete Bill Evans on Verve (1997) [18CD Box Set] {Verve} [repost]

Posted By: ruskaval
Bill Evans - The Complete Bill Evans on Verve (1997) [18CD Box Set] {Verve} [repost]

Bill Evans - The Complete Bill Evans on Verve (1997) [18CD Box Set] {Verve}
EAC rip (secure mode) | FLAC (tracks)+CUE+LOG -> 7.02 Gb | MP3 @320 -> 2.88 Gb
Full Artwork @ 600 dpi (jpg) -> 151 Mb | 5% repair rar
© 1997 Verve / PolyGram | 314 527 953-2
Jazz / Post Bop / Modal Music / Piano

THE COMPLETE BILL EVANS ON VERVE is an 18-disc, 269-track box set featuring every track that Bill Evans recorded for Verve between 1962 and 1969, including 98 previously-unreleased tracks. It includes a 160-page, full-color book. THE COMPLETE BILL EVANS ON VERVE was nominated for a 1998 Grammy Award for Best Recording Package - Boxed and for Best Historical Album. The 18 CDs in this exhaustive set provide a comprehensive picture of Bill Evans from 1962 to 1969, a period when the pianist was both consolidating his fame and sometimes taking his music into untested waters, from unaccompanied piano to symphony orchestra. His work with multitracked solo piano, originally released as Conversations with Myself and the later Further Conversations with Myself, was the most remarkable new format for his introspective music. It gave Evans a way to be all the pianists he could be at once–combining densely chordal, harmonically oblique parts with surprising, rhythmic punctuation and darting, exploratory runs.
Bill Evans - The Complete Bill Evans on Verve (1997) [18CD Box Set] {Verve} [repost]

Two dates with drummer Shelly Manne, in 1962 and 1966, reveal the stimulus Evans could find in a new playing relationship, as does the final disc with flutist Jeremy Steig. Evans also revisited significant earlier musical relationships. The Village Vanguard recordings from 1967 reunite him with the great drummer Philly Joe Jones, whose extroverted, polyrhythmic approach always worked wonderfully with the pianist's more introverted style. Along with the virtuosic young bassist Eddie Gomez, they make up one of the most stimulating of the many trios that Evans led throughout his career. There's also a superb set of duets with guitarist Jim Hall, another of Evans's most closely attuned musical partners. Evans's recordings with a symphony orchestra are marred by conductor Claus Ogermann's ponderous arrangements, and some false starts and multiple takes will appeal only to completists, but there are tremendous musical riches here. The set is packaged in an unfinished metal box designed to rust into an original object, but Evans's own originality is apparent everywhere.
Bill Evans - The Complete Bill Evans on Verve (1997) [18CD Box Set] {Verve} [repost]

While its sheer bulk negates its interest to a general audience, The Complete Bill Evans on Verve is an essential library piece for any serious jazz fan or historian. Spanning 18 CDs, 269 tracks and 21 hours, the box set includes all of Evans' recordings for the label between 1962 and 1969, including 19 albums, two previously unreleased albums and 98 previously unreleased tracks. During these years, the pianist made some of his greatest music, including his legendary Village Vanguard sessions, and the set charts all of his changes, as he plays with his trio and as a solo artist, as well as a rare session with a rhythm quartet and strings. While the set itself could be a little more user-friendly – it's encased in a steel box, with a 160-page booklet and an 18-disc fanpack on separate shelves – the music itself is nearly flawless and nearly essential for most serious jazz fans.
The big news about The Complete Bill Evans on Verve is not that it is complete, however important it is to have under one (tin) roof the pianist's enormous output for the label. Nor is the big news the odd packaging, although the package demands comment. The big news is that the box contains 31 previously unissued tracks of Evans with Philly Joe Jones and Eddie Gomez at the Village Vanguard and 34 with Larry Bunker and Chuck Israels at the Trident Club.

Bud Powell and Max Roach, Thelonious Monk and Art Blakey, Evans and Philly Joe; magic resulted from those relationships of pianists and drummers. The joy that Evans and Jones found in making music together suffuses the three CDs worth of music they taped with Gomez at the Vanguard on two nights in the summer of 1967. Five versions of "Wrap Your Troubles in Dreams" comprise a chronicle of their affinity as they trade four-bar and then two-bar phrases in controlled outbursts of energy, humor and passion. It is a routine, but a routine built on spontaneity and surprise. There are five cuts of "G Waltz," five of "Emily," four of "California, Here I Come," four of "You're Gonna Hear From Me," four of "Alfie" and several tunes Evans rarely played, including "Happiness is a Thing Called Joe," all fresh and full of adventure in the presence of the rapt Vanguard audience. Gomez, a year into his eleven-year tenure and getting the hang of Evans' music, loosens up and matches Jones' drive. These tracks and 25 of the Evans-Jones-Gomez trio from the same period in Fantasy's "Secret Sessions" box constitute an archive of one of the great jazz partnerships.

In the Trident engagement three years earlier, Bunker's drumming is precise, befitting a premier percussionist. His fires are stoked lower than Jones', but his intensity stimulates both Evans' swing and his lyricism. Israels' playing is some of his most powerful on record. Among pieces Evans rarely or never otherwise played are "'Deed I Do," "Baubles, Bangles and Beads" and "My Love is an April Song." As in the case of the Vanguard sessions with Jones, a few of these performances were issued on LP. Evans, apparently, wanted none of the Trident date released. It is difficult to imagine why.

Bill Evans - The Complete Bill Evans on Verve (1997) [18CD Box Set] {Verve} [repost]


The other troves of newly unearthed music are from the Trio 64, Stan Getz and From Left To Right sessions. With bassist Gary Peacock and drummer Paul Motian in Trio 64, there are instructive alternate takes of "Always" and "I'll See You Again." Peacock indicates that he might have developed into the logical successor to Scott LaFaro if he had stayed with Evans. The Getz material consists of unissued takes and fragments including a riotous minute and 19 seconds of him and Evans attempting the Gene Krupa Trio arrangement of "Dark Eyes." It is the only recorded evidence I've heard that Getz was capable of overt humor. Nonetheless, he clearly has fun with Richard Davis, Elvin Jones and Getz in powerhouse performances on several takes of "My Heart Stood Still," "Night and Day" and "Funkallero."

From Left To Right may have been, as Phil Bailey suggests in his session notes, "aimed at the easy-listening audience," but it contained one of the finest solos of Evans' career on "The Dolphin." Mickey Leonard's orchestration in the "after" version of the piece complemented perfectly what Evans played "before." Now we learn that there were seven "before" takes (all here) and that the one used in the album was a doctored breakdown. There were eight takes of "Why Did I Choose You?," four of "What Are You Doing The Rest of Your Life?," three each of several other pieces. Without Evans or producer Helen Keane to ask, it's hard to know why so many were necessary. In the pieces on which he uses electric piano, Evans achieves the impossible; he transmits his unmistakable touch through the electronic keyboard. Leonard's writing is exquisite.

As for the rest of the Verve recordings, there is little to add to what has been said and written about them over the years. Evans is brilliant; playful in the trio sessions with Shelly Manne, reflective in chamber music with Gary McFarland and Jim Hall, the perfect accompanist in the sessions with Monica Zetterlund and Jeremy Steig. His "with Symphony Orchestra" album holds up best because of the success of his originals, "My Bells" and "Time Remembered" and Klaus Ogermann's "Elegia." The Granados, Bach, Chopin and Scriabin pieces are less gripping. The album recorded at the Montreux Jazz Festival in 1968, with drummer Jack DeJohnette inspired, captures Evans at the pinnacle of his art. It is beautifully remastered.

The three-piano, two-piano and solo albums, Conversations With Myself, Further Conversations With Myself and Alone, are reproduced entirely, with a couple of fragmented takes added to Alone. They are classics of recorded piano, regardless of idiom.

The collection ends with three tracks of Evans performing with Don Elliott at the Newport Jazz Festival in 1957, when his first trio album had just been released and he was barely known. The next year he became Miles Davis' pianist. His Riverside albums began to sell. His life, and jazz piano, changed.

Now about the package. Verve's innovations in CD packaging are well known and generally admired. This one is more likely to be notorious. The hinged sheet metal box opens to disclose two interior sections holding a book and another, removable, metal container with the discs. My review copy appears to have spots of rust in places, but that may be part of the design. The corners of the sleeves are riveted into place and pivot out to allow the listener to remove the discs, an action requiring dexterity. With patience, it can be done. The design of the box is reminiscent of that of a block of apartment houses I saw in Bratislava shortly after the Communist regime collapsed in Eastern Europe. The box has sharp edges. It might be well to keep it off of polished wooden surfaces.

The book has 157 pages of discographical information, pictures, essays, session notes and interviews. One interview is of Evans by pianist John Mehegan, another of producer Creed Taylor by Phil Bailey. There are two no-holds-barred discussions led by Bill Kirchner, one with pianists who admire Evans, one with musicians who worked with him. There are many photographs, some apparently new to print, of Evans and his associates and a marvelous one of him, his parents and his brother. The type, as it must be in CD-sized formats, is tiny. Some of it is doubly hard to read because it is in light ink on light or busy backgrounds, a sadism in which art directors seem to delight. Production of the book included the recall of a badly glued batch. That caused delays in the release of the album.

The package could be better. The music could not be.
Bill Evans - The Complete Bill Evans on Verve (1997) [18CD Box Set] {Verve} [repost]


Personnel includes: Bill Evans (piano); Mickey Leonard (arranger); Monica Zetterlund (vocals); Stan Getz (tenor saxophone); Phil Woods (clarinet); Jim Hall, Sam Brown (guitar); Gary Peacock, Ron Carter, Chuck Israels, Eddie Gomez (bass); Ed Shaughnessy, Paul Motian, Elvin Jones, Larry Bunker, Grady Tate, Shelly Manne, Philly Joe Jones, Jack DeJohnette, Marty Morell (drums).

Includes liner notes by Creed Taylor, Chick Corea, Neil Tesser, Phil Bailey, Joseph Laredo and John Mehegan.
Digitally remastered by Suha Gur (Polygram Studios).


tracklist:
DISC 1:

01. The Washington Twist
02. Danny Boy
03. Let's Go Back to the Waltz
04. With a Song in My Heart
05. Goodbye
06. I Believe in You
07. Relections in the Park
08. Night Images
09. Tree Patterns
10. Peachtree
11. Misplaced Cowpoke
12. A Moment Alone

DISC 2:
01. 'Round Midnight
02. How About You?
03. Spartacus Love Theme
04. Blue Monk
05. Stella by Starlight
06. Hey, There
07. N.Y.C.'s No Lark
08. Just You, Just Me
09. Bemsha Swing
10. A Sleepin' Bee
11. For Heaven's Sake
12. A Sleepin' Bee
13. Always - (breakdown)
14. Always - (complete take)
15. Always - (master take)
16. Everything Happens to Me
17. Dancing in the Dark
18. Santa Claus Is Coming to Town

Bill Evans - The Complete Bill Evans on Verve (1997) [18CD Box Set] {Verve} [repost]


DISC 3:
01. I'll See You Again - (breakdown)
02. I'll See You Again - (complete take)
03. I'll See You Again - (master take)
04. Little Lulu - (complete take)
05. Little Lulu - (complete take)
06. Little Lulu - (master take)
07. My Heart Stood Still
08. My Heart Stood Still - (complete take)
09. My Heart Stood Still - (Rehearsal Fragments)
10. My Heart Stood Still - (complete take)
11. My Heart Stood Still
12. My Heart Stood Still - (master take)
13. Grandfather's Waltz - (breakdown)
14. Grandfather's Waltz - (master take)
15. Grandfather's Waltz - (False Start)
16. Grandfather's Waltz - (complete take)
17. Melinda - (master take)
18. Dark Eyes - (Traditional)

DISC 4:
01. Funkallero
02. Funkallero - (master take)
03. But Beautiful - (master take)
04. Theme From the Carpetbaggers
05. Theme From the Carpetbaggers - (complete take)
06. Theme From the Carpetbaggers - (complete take)
07. Theme From the Carpetbaggers - (breakdown)
08. Theme From the Carpetbaggers - (master take)
09. Theme From the Carpetbaggers - (complete take)
10. Night and Day
11. Night and Day - (complete take)
12. Night and Day - (master take)
13. Wnew - (master take)
14. How Deep Is the Ocean?
15. Love Is Here to Stay
16. Baubles, Bangles, And Beads
17. Vamp ("Peace Piece") And Spoken Introduction
18. Nardis
19. Time Remembered
20. Someday My Prince Will Come

Bill Evans - The Complete Bill Evans on Verve (1997) [18CD Box Set] {Verve} [repost]


DISC 5:
01. What Is This Thing Called Love?
02. Stella by Starlight
03. 'Round Midnight
04. Make Someone Happy
05. Spoken Introduciton and Warmup
06. The Boy Next Door
07. Little Lulu
08. My Love Is an April Song
09. What Kind of Fool Am I?
10. What Is This Thing Called Love?
11. The Touch of Your Lips
12. Spoken Introduction and Warmup
13. The Boy Next Door
14. Time Remembered
15. Stella by Starlight

DISC 6:
01. Deed I Do
02. Baubles, Bangles, And Beads
03. What Kind of Fool Am I?
04. Spoken Introduction and Warmup
05. Come Rain or Come Shine
06. How My Heart Sings
07. Alone Together
08. Israel
09. Spoken Introduction and Warmup
10. Alone Together
11. Make Someone Happy
12. My Love Is an April Song
13. Deed I Do
14. Love Is Here to Stay
15. California, Here I Come
16. Warmup ("These Things Called Changes")
17. What Kind of Fool Am I?

Bill Evans - The Complete Bill Evans on Verve (1997) [18CD Box Set] {Verve} [repost]


DISC 7:
01. What Is This Thing Called Love
02. Alone Together
03. California, Here I Come
04. Come Rain or Come Shine - (master take)
05. Jag Vet en Deglig Rosa (A Beautiful Rose)
06. Once Upon a Summertime
07. So Long, Big Time
08. Monicas Vals
09. Lucky to Be Me - (master take)
10. Vindarna Sucka (Sorrow Wind)
11. It Could Happen to You - (master take)
12. Some Other Time
13. OM Natten (In the Night)
14. Come Rain or Come Shine - (complete take)
15. Come Rain or Come Shine - (complete take)
16. Lucky to Be Me - (complete take)
17. It Could Happen to You - (complete take)
18. It Could Happen to You - (complete take)
19. Santa Claus Is Coming to Town

DISC 8:
01. Israel
02. Elsa
04. Love Is Here to Stay
05. How My Heart Sings
06. Who Can I Turn to (When Nobody Needs Me)?
07. Come Rain or Come Shine
08. If You Could See Me Now
09. Granados
10. Valse (Siciliano in G Minor)
11. Prelude (Prelude #15 in D-Flat Major)
12. Time Remembered
13. Pavane
14. Elegia
15. My Bells
16. Blue Interlude (C-Minor Prelude, Op. 28)

Bill Evans - The Complete Bill Evans on Verve (1997) [18CD Box Set] {Verve} [repost]


DISC 9:
01. I Should Care
02. Spring Is Here
03. Who Can I Turn to (When Nobody Needs Me)?
05. Solo- In Memory of His Father: Prologue / Story Line / Turn Out The Stars / Epilogue
06. Beautiful Love
07. My Foolish Heart
08. One For Helen

DISC 10:
01. I've Got You Under My Skin
02. My Man's Gone Now
03. Turn Out the Stars
04. Angel Face
05. Jazz Samba
06. All Across the City
07. Simple Matter of Conviction
08. Stella by Starlight
09. Orbit (Unless It's You)
10. Laura
11. My Melancholy Baby
12. I'm Gettin' Sentimental Over You
13. Star Eyes
14. Only Child
15. These Things Called Changes

Bill Evans - The Complete Bill Evans on Verve (1997) [18CD Box Set] {Verve} [repost]


DISC 11:
01. Emily
02. Yesterdays
03. Santa Claus Is Coming to Town
04. Funny Man
05. Shadow of Your Smile, The
06. Little Lulu
07. Quiet Now
08. Happiness Is a Thing Called Joe
09. In a Sentimental Mood
10. Re: Person I Knew
11. California, Here I Come
12. Alfie
13. Gone With the Wind
14. Turn Out the Stars
15. Polka Dots and Moonbeams
16. Stella by Starlight

DISC 12:
01. Very Early
02. You're Gonna Hear From Me
03. Emily
04. Wrap Your Troubles in Dreams
05. 'Round Midnight
06. On Green Dolphin Street
07. If You Could See Me Now
08. I'm Getting Sentimental Over You
09. You're Gonna Hear From Me
10. G Waltz
12. Emily
13. Alfie
14. Wrap Your Troubles in Dreams

Bill Evans - The Complete Bill Evans on Verve (1997) [18CD Box Set] {Verve} [repost]


DISC 13:
01. In a Sentimental Mood
02. California, Here I Come
03. You're Gonna Hear From Me
04. Alfie
05. Gone With the Wind
06. Emily
07. G Waltz
08. Wrap Your Troubles in Dreams
09. In A Sentimental Mood
10. California, Here I Come
11. You're Gonna Hear From Me
14. Emily
15. G Waltz

DISC 14:
01. Wrap Your Troubles in Dreams
02. On Green Dolphin Street
03. G Waltz
04. You're Gonna Hear From Me
05. Wrap Your Troubles in Dreams
06. Gone With the Wind
07. Emily
08. G Waltz
09. Spoken Introduction
10. One For Helen
11. A Sleepin' Bee
12. Mother of Earl
13. Nardis
14. Quiet Now

Bill Evans - The Complete Bill Evans on Verve (1997) [18CD Box Set] {Verve} [repost]


DISC 15:
01. I Loves You, Porgy
02. The Touch of Your Lips
03. Embraceable You
04. Someday My Prince Will Come
05. Walkin' Up
06. Here's That Rainy Day
07. Time For Love
08. Midnight Mood
09. On a Clear Day (You Can See Forever)
10. Never Let Me Go
11. A Time For Love - (complete take)
12. Midnight Mood: All The Things You Are / Midnight Mood

DISC 16:
01. Straight, No Chaser
02. Lover Man
03. What's New?
04. Autumn Leaves
05. Time Out For Chris
06. Spartacus Love Theme
07. So What
08. Why Did I Choose You?
09. Why Did I Choose You?
10. Why Did I Choose You?
11. Why Did I Choose You?
12. Why Did I Choose You?
13. Why Did I Choose You?
14. Why Did I Choose You?
15. Why Did I Choose You? - (Master Take)

Bill Evans - The Complete Bill Evans on Verve (1997) [18CD Box Set] {Verve} [repost]


DISC 17:
01. I'm All Smiles
02. Like Someone in Love
03. Children's Play Song
04. Soiree
05. Soiree
06. Soiree
07. Lullaby For Helene
08. Lullaby For Helene
09. Lullaby For Helene
10. Lullaby For Helene
11. What Are You Doing the Rest of Your Life?
12. What Are You Doing the Rest of Your Life?
13. What Are You Doing the Rest of Your Life?
14. What Are You Doing the Rest of Your Life?
15. The Dolphin - Before
16. The Dolphin - Before
17. The Dolphin - Before
18. The Dolphin - Before
19. The Dolphin - Before
20. The Dolphin - Before
21. The Dolphin - Before

Bill Evans - The Complete Bill Evans on Verve (1997) [18CD Box Set] {Verve} [repost]


DISC 18:
01. The Dolphin - Before
02. The Dolphin - After
03. Comrade Conrad
04. Comrade Conrad
05. Comrade Conrad
06. It Must Be Love
07. It Must Be Love
08. It Must Be Love
09. Spoken Introduction
10. Dancing in the Dark
11. I Love You
12. 'S Wonderful

Bill Evans - The Complete Bill Evans on Verve (1997) [18CD Box Set] {Verve} [repost]


EAC extraction logfile from 31. August 2005, 1:44 for CD
Bill Evans / The complete Bill Evans on Verve CD-1 of 18

Used drive : LITE-ON COMBO SOHC-5235K Adapter: 0 ID: 1
Read mode : Secure with NO C2, accurate stream, disable cache
Read offset correction : 6
Overread into Lead-In and Lead-Out : No

Used output format : Internal WAV Routines
44.100 Hz; 16 Bit; Stereo

Other options :
Fill up missing offset samples with silence : Yes
Delete leading and trailing silent blocks : No
Installed external ASPI interface


Track 1
Filename C:\Documents and Settings\SACHIN BHAI\Desktop\tip\Bill Evans - The Complete Bill Evans On Verve (1997) [FLAC] {18 CD Set}\Disc 1 of 18\01 - The Washington Twist.wav

Pre-gap length 0:00:02.00

Peak level 100.0 %
Track quality 99.9 %
Test CRC 85B8A750
Copy CRC 85B8A750
Copy OK

Track 2
Filename C:\Documents and Settings\SACHIN BHAI\Desktop\tip\Bill Evans - The Complete Bill Evans On Verve (1997) [FLAC] {18 CD Set}\Disc 1 of 18\02 - Danny Boy.wav

Pre-gap length 0:00:01.44

Peak level 50.7 %
Track quality 99.9 %
Test CRC 01877434
Copy CRC 01877434
Copy OK

Track 3
Filename C:\Documents and Settings\SACHIN BHAI\Desktop\tip\Bill Evans - The Complete Bill Evans On Verve (1997) [FLAC] {18 CD Set}\Disc 1 of 18\03 - Let's go back to the waltz.wav

Pre-gap length 0:00:02.17

Peak level 87.8 %
Track quality 99.8 %
Test CRC 2B49C121
Copy CRC 2B49C121
Copy OK

Track 4
Filename C:\Documents and Settings\SACHIN BHAI\Desktop\tip\Bill Evans - The Complete Bill Evans On Verve (1997) [FLAC] {18 CD Set}\Disc 1 of 18\04 - With a song in my heart.wav

Pre-gap length 0:00:02.77

Peak level 94.6 %
Track quality 99.9 %
Test CRC B96297CC
Copy CRC B96297CC
Copy OK

Track 5
Filename C:\Documents and Settings\SACHIN BHAI\Desktop\tip\Bill Evans - The Complete Bill Evans On Verve (1997) [FLAC] {18 CD Set}\Disc 1 of 18\05 - Goodbye.wav

Pre-gap length 0:00:02.73

Peak level 52.6 %
Track quality 99.9 %
Test CRC B22758CE
Copy CRC B22758CE
Copy OK

Track 6
Filename C:\Documents and Settings\SACHIN BHAI\Desktop\tip\Bill Evans - The Complete Bill Evans On Verve (1997) [FLAC] {18 CD Set}\Disc 1 of 18\06 - I believe in you.wav

Pre-gap length 0:00:01.50

Peak level 83.3 %
Track quality 99.9 %
Test CRC A8468EDC
Copy CRC A8468EDC
Copy OK

Track 7
Filename C:\Documents and Settings\SACHIN BHAI\Desktop\tip\Bill Evans - The Complete Bill Evans On Verve (1997) [FLAC] {18 CD Set}\Disc 1 of 18\07 - Reflections in the park.wav

Pre-gap length 0:00:02.80

Peak level 57.2 %
Track quality 99.9 %
Test CRC 710BFEA8
Copy CRC 710BFEA8
Copy OK

Track 8
Filename C:\Documents and Settings\SACHIN BHAI\Desktop\tip\Bill Evans - The Complete Bill Evans On Verve (1997) [FLAC] {18 CD Set}\Disc 1 of 18\08 - Night images.wav

Pre-gap length 0:00:02.06

Peak level 52.0 %
Track quality 99.9 %
Test CRC 1ADD1E03
Copy CRC 1ADD1E03
Copy OK

Track 9
Filename C:\Documents and Settings\SACHIN BHAI\Desktop\tip\Bill Evans - The Complete Bill Evans On Verve (1997) [FLAC] {18 CD Set}\Disc 1 of 18\09 - Tree patterns.wav

Pre-gap length 0:00:01.53

Peak level 64.6 %
Track quality 99.9 %
Test CRC 77882408
Copy CRC 77882408
Copy OK

Track 10
Filename C:\Documents and Settings\SACHIN BHAI\Desktop\tip\Bill Evans - The Complete Bill Evans On Verve (1997) [FLAC] {18 CD Set}\Disc 1 of 18\10 - Peachtree.wav

Pre-gap length 0:00:02.49

Peak level 49.8 %
Track quality 99.9 %
Test CRC C4949D1F
Copy CRC C4949D1F
Copy OK

Track 11
Filename C:\Documents and Settings\SACHIN BHAI\Desktop\tip\Bill Evans - The Complete Bill Evans On Verve (1997) [FLAC] {18 CD Set}\Disc 1 of 18\11 - Misplaced cowpoke.wav

Pre-gap length 0:00:02.80

Peak level 70.2 %
Track quality 99.9 %
Test CRC C6512A35
Copy CRC C6512A35
Copy OK

Track 12
Filename C:\Documents and Settings\SACHIN BHAI\Desktop\tip\Bill Evans - The Complete Bill Evans On Verve (1997) [FLAC] {18 CD Set}\Disc 1 of 18\12 - A moment alone.wav

Pre-gap length 0:00:01.50

Peak level 63.2 %
Track quality 99.9 %
Test CRC EBCF202A
Copy CRC EBCF202A
Copy OK

No errors occured


End of status report

EAC extraction logfile from 31. August 2005, 3:04 for CD
Bill Evans / The Complete Bill Evans On Verve-CD 2 Of 18

Used drive : LITE-ON COMBO SOHC-5235K Adapter: 0 ID: 1
Read mode : Secure with NO C2, accurate stream, disable cache
Read offset correction : 6
Overread into Lead-In and Lead-Out : No

Used output format : Internal WAV Routines
44.100 Hz; 16 Bit; Stereo

Other options :
Fill up missing offset samples with silence : Yes
Delete leading and trailing silent blocks : No
Installed external ASPI interface


Track 1
Filename C:\Documents and Settings\SACHIN BHAI\Desktop\tip\Bill Evans - The Complete Bill Evans On Verve (1997) [FLAC] {18 CD Set}\Disc 2 of 18\01 - 'Round Midnight.wav

Pre-gap length 0:00:02.00

Peak level 100.0 %
Track quality 99.9 %
Test CRC C1714529
Copy CRC C1714529
Copy OK

Track 2
Filename C:\Documents and Settings\SACHIN BHAI\Desktop\tip\Bill Evans - The Complete Bill Evans On Verve (1997) [FLAC] {18 CD Set}\Disc 2 of 18\02 - How About You.wav

Pre-gap length 0:00:02.77

Peak level 68.3 %
Track quality 100.0 %
Test CRC E9877592
Copy CRC E9877592
Copy OK

Track 3
Filename C:\Documents and Settings\SACHIN BHAI\Desktop\tip\Bill Evans - The Complete Bill Evans On Verve (1997) [FLAC] {18 CD Set}\Disc 2 of 18\03 - Spartacus Love Theme.wav

Pre-gap length 0:00:01.97

Peak level 71.5 %
Track quality 99.9 %
Test CRC 3FDF5FF7
Copy CRC 3FDF5FF7
Copy OK

Track 4
Filename C:\Documents and Settings\SACHIN BHAI\Desktop\tip\Bill Evans - The Complete Bill Evans On Verve (1997) [FLAC] {18 CD Set}\Disc 2 of 18\04 - Blue Monk.wav

Pre-gap length 0:00:02.80

Peak level 74.0 %
Track quality 99.9 %
Test CRC B59DA6C7
Copy CRC B59DA6C7
Copy OK

Track 5
Filename C:\Documents and Settings\SACHIN BHAI\Desktop\tip\Bill Evans - The Complete Bill Evans On Verve (1997) [FLAC] {18 CD Set}\Disc 2 of 18\05 - Stella by Starlight.wav

Pre-gap length 0:00:01.77

Peak level 100.0 %
Track quality 100.0 %
Test CRC DD1D2449
Copy CRC DD1D2449
Copy OK

Track 6
Filename C:\Documents and Settings\SACHIN BHAI\Desktop\tip\Bill Evans - The Complete Bill Evans On Verve (1997) [FLAC] {18 CD Set}\Disc 2 of 18\06 - Hey, There.wav

Pre-gap length 0:00:02.46

Peak level 71.2 %
Track quality 100.0 %
Test CRC 862C5965
Copy CRC 862C5965
Copy OK

Track 7
Filename C:\Documents and Settings\SACHIN BHAI\Desktop\tip\Bill Evans - The Complete Bill Evans On Verve (1997) [FLAC] {18 CD Set}\Disc 2 of 18\07 - N.Y.C.'s No Lark.wav

Pre-gap length 0:00:02.76

Peak level 90.0 %
Track quality 100.0 %
Test CRC 1AA69CC8
Copy CRC 1AA69CC8
Copy OK

Track 8
Filename C:\Documents and Settings\SACHIN BHAI\Desktop\tip\Bill Evans - The Complete Bill Evans On Verve (1997) [FLAC] {18 CD Set}\Disc 2 of 18\08 - Just You, Just Me.wav

Pre-gap length 0:00:02.66

Peak level 55.4 %
Track quality 100.0 %
Test CRC 068EE604
Copy CRC 068EE604
Copy OK

Track 9
Filename C:\Documents and Settings\SACHIN BHAI\Desktop\tip\Bill Evans - The Complete Bill Evans On Verve (1997) [FLAC] {18 CD Set}\Disc 2 of 18\09 - Bemsha Swing.wav

Pre-gap length 0:00:01.69

Peak level 85.5 %
Track quality 99.9 %
Test CRC F8CE6EB5
Copy CRC F8CE6EB5
Copy OK

Track 10
Filename C:\Documents and Settings\SACHIN BHAI\Desktop\tip\Bill Evans - The Complete Bill Evans On Verve (1997) [FLAC] {18 CD Set}\Disc 2 of 18\10 - A Sleepin' Bee.wav

Pre-gap length 0:00:02.66

Peak level 71.4 %
Track quality 100.0 %
Test CRC 392500A9
Copy CRC 392500A9
Copy OK

Track 11
Filename C:\Documents and Settings\SACHIN BHAI\Desktop\tip\Bill Evans - The Complete Bill Evans On Verve (1997) [FLAC] {18 CD Set}\Disc 2 of 18\11 - For Heaven's Sake.wav

Pre-gap length 0:00:03.73

Peak level 50.0 %
Track quality 99.9 %
Test CRC 87E6ACE9
Copy CRC 87E6ACE9
Copy OK

Track 12
Filename C:\Documents and Settings\SACHIN BHAI\Desktop\tip\Bill Evans - The Complete Bill Evans On Verve (1997) [FLAC] {18 CD Set}\Disc 2 of 18\12 - A Sleepin' Bee.wav

Pre-gap length 0:00:02.20

Peak level 57.4 %
Track quality 100.0 %
Test CRC 9EB65830
Copy CRC 9EB65830
Copy OK

Track 13
Filename C:\Documents and Settings\SACHIN BHAI\Desktop\tip\Bill Evans - The Complete Bill Evans On Verve (1997) [FLAC] {18 CD Set}\Disc 2 of 18\13 - Always.wav

Pre-gap length 0:00:06.09

Peak level 51.9 %
Track quality 100.0 %
Test CRC 3EE03EBE
Copy CRC 3EE03EBE
Copy OK

Track 14
Filename C:\Documents and Settings\SACHIN BHAI\Desktop\tip\Bill Evans - The Complete Bill Evans On Verve (1997) [FLAC] {18 CD Set}\Disc 2 of 18\14 - Always.wav

Peak level 70.7 %
Track quality 99.8 %
Test CRC A7854156
Copy CRC A7854156
Copy OK

Track 15
Filename C:\Documents and Settings\SACHIN BHAI\Desktop\tip\Bill Evans - The Complete Bill Evans On Verve (1997) [FLAC] {18 CD Set}\Disc 2 of 18\15 - Always.wav

Pre-gap length 0:00:02.33

Peak level 64.4 %
Track quality 100.0 %
Test CRC 4A02A8BF
Copy CRC 4A02A8BF
Copy OK

Track 16
Filename C:\Documents and Settings\SACHIN BHAI\Desktop\tip\Bill Evans - The Complete Bill Evans On Verve (1997) [FLAC] {18 CD Set}\Disc 2 of 18\16 - Everything Happens to Me.wav

Peak level 64.8 %
Track quality 99.9 %
Test CRC 5DB4204C
Copy CRC 5DB4204C
Copy OK

Track 17
Filename C:\Documents and Settings\SACHIN BHAI\Desktop\tip\Bill Evans - The Complete Bill Evans On Verve (1997) [FLAC] {18 CD Set}\Disc 2 of 18\17 - Dancing in the Dark.wav

Pre-gap length 0:00:02.80

Peak level 68.0 %
Track quality 100.0 %
Test CRC E4DDF092
Copy CRC E4DDF092
Copy OK

Track 18
Filename C:\Documents and Settings\SACHIN BHAI\Desktop\tip\Bill Evans - The Complete Bill Evans On Verve (1997) [FLAC] {18 CD Set}\Disc 2 of 18\18 - Santa Claus Is Coming to Town.wav

Pre-gap length 0:00:01.01

Peak level 97.9 %
Track quality 99.9 %
Test CRC B9C636BD
Copy CRC B9C636BD
Copy OK

No errors occured


End of status report

EAC extraction logfile from 1. October 2005, 14:25 for CD
Bill Evans / The Complete Bill Evans On Verve - Disc 3 of 18

Used drive : LITE-ON COMBO SOHC-5235K Adapter: 0 ID: 1
Read mode : Secure with NO C2, accurate stream, disable cache
Read offset correction : 6
Overread into Lead-In and Lead-Out : No

Used output format : Internal WAV Routines
44.100 Hz; 16 Bit; Stereo

Other options :
Fill up missing offset samples with silence : Yes
Delete leading and trailing silent blocks : No
Native Win32 interface for Win NT & 2000


Track 1
Filename F:\STUFF\tip\Bill Evans - The Complete Bill Evans On Verve (1997) [FLAC] {18 CD Set}\Disc 3 of 18\01 - I'll See You Again.wav

Pre-gap length 0:00:02.00

Peak level 52.2 %
Track quality 99.7 %
Test CRC 94CAD6D2
Copy CRC 94CAD6D2
Copy OK

Track 2
Filename F:\STUFF\tip\Bill Evans - The Complete Bill Evans On Verve (1997) [FLAC] {18 CD Set}\Disc 3 of 18\02 - I'll See You Again.wav

Peak level 70.3 %
Track quality 99.9 %
Test CRC 74873749
Copy CRC 74873749
Copy OK

Track 3
Filename F:\STUFF\tip\Bill Evans - The Complete Bill Evans On Verve (1997) [FLAC] {18 CD Set}\Disc 3 of 18\03 - I'll See You Again.wav

Pre-gap length 0:00:01.73

Peak level 74.0 %
Track quality 100.0 %
Test CRC EBD75D28
Copy CRC EBD75D28
Copy OK

Track 4
Filename F:\STUFF\tip\Bill Evans - The Complete Bill Evans On Verve (1997) [FLAC] {18 CD Set}\Disc 3 of 18\04 - Little Lulu.wav

Pre-gap length 0:00:04.53

Peak level 66.2 %
Track quality 99.9 %
Test CRC 08E97292
Copy CRC 08E97292
Copy OK

Track 5
Filename F:\STUFF\tip\Bill Evans - The Complete Bill Evans On Verve (1997) [FLAC] {18 CD Set}\Disc 3 of 18\05 - Little Lulu.wav

Pre-gap length 0:00:03.60

Peak level 71.9 %
Track quality 99.9 %
Test CRC 80ED20D5
Copy CRC 80ED20D5
Copy OK

Track 6
Filename F:\STUFF\tip\Bill Evans - The Complete Bill Evans On Verve (1997) [FLAC] {18 CD Set}\Disc 3 of 18\06 - Little Lulu.wav

Pre-gap length 0:00:01.73

Peak level 61.4 %
Track quality 99.9 %
Test CRC 1131FB54
Copy CRC 1131FB54
Copy OK

Track 7
Filename F:\STUFF\tip\Bill Evans - The Complete Bill Evans On Verve (1997) [FLAC] {18 CD Set}\Disc 3 of 18\07 - My Heart Stood Still.wav

Pre-gap length 0:00:05.00

Peak level 60.7 %
Track quality 99.8 %
Test CRC EED8E7FC
Copy CRC EED8E7FC
Copy OK

Track 8
Filename F:\STUFF\tip\Bill Evans - The Complete Bill Evans On Verve (1997) [FLAC] {18 CD Set}\Disc 3 of 18\08 - My Heart Stood Still.wav

Peak level 71.2 %
Track quality 99.8 %
Test CRC C29949E8
Copy CRC C29949E8
Copy OK

Track 9
Filename F:\STUFF\tip\Bill Evans - The Complete Bill Evans On Verve (1997) [FLAC] {18 CD Set}\Disc 3 of 18\09 - My Heart Stood Still.wav

Pre-gap length 0:00:03.73

Peak level 70.4 %
Track quality 100.0 %
Test CRC BE6F7617
Copy CRC BE6F7617
Copy OK

Track 10
Filename F:\STUFF\tip\Bill Evans - The Complete Bill Evans On Verve (1997) [FLAC] {18 CD Set}\Disc 3 of 18\10 - My Heart Stood Still.wav

Peak level 100.0 %
Track quality 99.9 %
Test CRC DCCED0EF
Copy CRC DCCED0EF
Copy OK

Track 11
Filename F:\STUFF\tip\Bill Evans - The Complete Bill Evans On Verve (1997) [FLAC] {18 CD Set}\Disc 3 of 18\11 - My Heart Stood Still.wav

Peak level 76.0 %
Track quality 99.9 %
Test CRC 6044A7BC
Copy CRC 6044A7BC
Copy OK

Track 12
Filename F:\STUFF\tip\Bill Evans - The Complete Bill Evans On Verve (1997) [FLAC] {18 CD Set}\Disc 3 of 18\12 - My Heart Stood Still.wav

Pre-gap length 0:00:06.06

Peak level 99.9 %
Track quality 99.9 %
Test CRC B518C215
Copy CRC B518C215
Copy OK

Track 13
Filename F:\STUFF\tip\Bill Evans - The Complete Bill Evans On Verve (1997) [FLAC] {18 CD Set}\Disc 3 of 18\13 - Grandfather's Waltz.wav

Pre-gap length 0:00:13.33

Peak level 19.9 %
Track quality 100.0 %
Test CRC FDD06865
Copy CRC FDD06865
Copy OK

Track 14
Filename F:\STUFF\tip\Bill Evans - The Complete Bill Evans On Verve (1997) [FLAC] {18 CD Set}\Disc 3 of 18\14 - Grandfather's Waltz.wav

Peak level 57.8 %
Track quality 99.9 %
Test CRC FA275BA4
Copy CRC FA275BA4
Copy OK

Track 15
Filename F:\STUFF\tip\Bill Evans - The Complete Bill Evans On Verve (1997) [FLAC] {18 CD Set}\Disc 3 of 18\15 - Grandfather's Waltz.wav

Pre-gap length 0:00:05.33

Peak level 27.8 %
Track quality 100.0 %
Test CRC 251E0623
Copy CRC 251E0623
Copy OK

Track 16
Filename F:\STUFF\tip\Bill Evans - The Complete Bill Evans On Verve (1997) [FLAC] {18 CD Set}\Disc 3 of 18\16 - Grandfather's Waltz.wav

Peak level 77.0 %
Track quality 99.9 %
Test CRC 118A9C8F
Copy CRC 118A9C8F
Copy OK

Track 17
Filename F:\STUFF\tip\Bill Evans - The Complete Bill Evans On Verve (1997) [FLAC] {18 CD Set}\Disc 3 of 18\17 - Melinda.wav

Pre-gap length 0:00:15.29

Peak level 53.4 %
Track quality 99.9 %
Test CRC 06CBDB86
Copy CRC 06CBDB86
Copy OK

Track 18
Filename F:\STUFF\tip\Bill Evans - The Complete Bill Evans On Verve (1997) [FLAC] {18 CD Set}\Disc 3 of 18\18 - Dark Eyes.wav

Pre-gap length 0:00:03.20

Peak level 91.3 %
Track quality 100.0 %
Test CRC D45483B8
Copy CRC D45483B8
Copy OK

No errors occured


End of status report

EAC extraction logfile from 4. October 2005, 18:37 for CD
Bill Evans / The Complete Bill Evans On Verve Disc 4 of 18

Used drive : PLEXTOR DVDR PX-716A Adapter: 0 ID: 0
Read mode : Secure with NO C2, accurate stream, disable cache
Read offset correction : 30
Overread into Lead-In and Lead-Out : No

Used output format : Internal WAV Routines
44.100 Hz; 16 Bit; Stereo

Other options :
Fill up missing offset samples with silence : Yes
Delete leading and trailing silent blocks : No
Native Win32 interface for Win NT & 2000


Track 1
Filename F:\STUFF\tip\Bill Evans - The Complete Bill Evans On Verve (1997) [FLAC] {18 CD Set}\Disc 4 of 18\01 - Funkallero (rehearsal frangments).wav

Pre-gap length 0:00:02.00

Peak level 100.0 %
Track quality 100.0 %
Test CRC EB64E332
Copy CRC EB64E332
Copy OK

Track 2
Filename F:\STUFF\tip\Bill Evans - The Complete Bill Evans On Verve (1997) [FLAC] {18 CD Set}\Disc 4 of 18\02 - Funkallero.wav

Peak level 77.8 %
Track quality 100.0 %
Test CRC 71F55394
Copy CRC 71F55394
Copy OK

Track 3
Filename F:\STUFF\tip\Bill Evans - The Complete Bill Evans On Verve (1997) [FLAC] {18 CD Set}\Disc 4 of 18\03 - But Beautiful.wav

Pre-gap length 0:00:02.29

Peak level 61.0 %
Track quality 100.0 %
Test CRC 254DBDB5
Copy CRC 254DBDB5
Copy OK

Track 4
Filename F:\STUFF\tip\Bill Evans - The Complete Bill Evans On Verve (1997) [FLAC] {18 CD Set}\Disc 4 of 18\04 - Theme From The Carpetbaggers.wav

Pre-gap length 0:00:02.33

Peak level 47.4 %
Track quality 100.0 %
Test CRC F14593B4
Copy CRC F14593B4
Copy OK

Track 5
Filename F:\STUFF\tip\Bill Evans - The Complete Bill Evans On Verve (1997) [FLAC] {18 CD Set}\Disc 4 of 18\05 - Theme From The Carpetbaggers.wav

Peak level 72.4 %
Track quality 100.0 %
Test CRC EA3D60AE
Copy CRC EA3D60AE
Copy OK

Track 6
Filename F:\STUFF\tip\Bill Evans - The Complete Bill Evans On Verve (1997) [FLAC] {18 CD Set}\Disc 4 of 18\06 - Theme From The Carpetbaggers.wav

Peak level 72.9 %
Track quality 100.0 %
Test CRC F8BEE6C3
Copy CRC F8BEE6C3
Copy OK

Track 7
Filename F:\STUFF\tip\Bill Evans - The Complete Bill Evans On Verve (1997) [FLAC] {18 CD Set}\Disc 4 of 18\07 - Theme From The Carpetbaggers.wav

Peak level 59.4 %
Track quality 100.0 %
Test CRC E4D23CF0
Copy CRC E4D23CF0
Copy OK

Track 8
Filename F:\STUFF\tip\Bill Evans - The Complete Bill Evans On Verve (1997) [FLAC] {18 CD Set}\Disc 4 of 18\08 - Theme From The Carpetbaggers.wav

Peak level 71.3 %
Track quality 100.0 %
Test CRC E7E7616C
Copy CRC E7E7616C
Copy OK

Track 9
Filename F:\STUFF\tip\Bill Evans - The Complete Bill Evans On Verve (1997) [FLAC] {18 CD Set}\Disc 4 of 18\09 - Theme From The Carpetbaggers.wav

Peak level 100.0 %
Track quality 100.0 %
Test CRC 4D9FF6DA
Copy CRC 4D9FF6DA
Copy OK

Track 10
Filename F:\STUFF\tip\Bill Evans - The Complete Bill Evans On Verve (1997) [FLAC] {18 CD Set}\Disc 4 of 18\10 - Night and Day.wav

Pre-gap length 0:00:28.73

Peak level 100.0 %
Track quality 100.0 %
Test CRC C295684F
Copy CRC C295684F
Copy OK

Track 11
Filename F:\STUFF\tip\Bill Evans - The Complete Bill Evans On Verve (1997) [FLAC] {18 CD Set}\Disc 4 of 18\11 - Night and Day.wav

Peak level 100.0 %
Track quality 100.0 %
Test CRC 4FF94DE1
Copy CRC 4FF94DE1
Copy OK

Track 12
Filename F:\STUFF\tip\Bill Evans - The Complete Bill Evans On Verve (1997) [FLAC] {18 CD Set}\Disc 4 of 18\12 - Night and Day.wav

Pre-gap length 0:00:01.37

Peak level 65.5 %
Track quality 100.0 %
Test CRC 0CCA4001
Copy CRC 0CCA4001
Copy OK

Track 13
Filename F:\STUFF\tip\Bill Evans - The Complete Bill Evans On Verve (1997) [FLAC] {18 CD Set}\Disc 4 of 18\13 - WNEW.wav

Peak level 88.5 %
Track quality 100.0 %
Test CRC DFF80BAB
Copy CRC DFF80BAB
Copy OK

Track 14
Filename F:\STUFF\tip\Bill Evans - The Complete Bill Evans On Verve (1997) [FLAC] {18 CD Set}\Disc 4 of 18\14 - How Deep Is The Ocean.wav

Pre-gap length 0:00:02.82

Peak level 100.0 %
Track quality 100.0 %
Test CRC 3F6D51EF
Copy CRC 3F6D51EF
Copy OK

Track 15
Filename F:\STUFF\tip\Bill Evans - The Complete Bill Evans On Verve (1997) [FLAC] {18 CD Set}\Disc 4 of 18\15 - Love Is Here To Stay.wav

Peak level 100.0 %
Track quality 100.0 %
Test CRC 6CDFEC7A
Copy CRC 6CDFEC7A
Copy OK

Track 16
Filename F:\STUFF\tip\Bill Evans - The Complete Bill Evans On Verve (1997) [FLAC] {18 CD Set}\Disc 4 of 18\16 - Baubles, Bangles, and Beads.wav

Peak level 95.8 %
Track quality 100.0 %
Test CRC 8E0AA685
Copy CRC 8E0AA685
Copy OK

Track 17
Filename F:\STUFF\tip\Bill Evans - The Complete Bill Evans On Verve (1997) [FLAC] {18 CD Set}\Disc 4 of 18\17 - Vamp ('Peace Piece') and Spoken Introduction.wav

Pre-gap length 0:00:01.96

Peak level 64.2 %
Track quality 100.0 %
Test CRC C46216DF
Copy CRC C46216DF
Copy OK

Track 18
Filename F:\STUFF\tip\Bill Evans - The Complete Bill Evans On Verve (1997) [FLAC] {18 CD Set}\Disc 4 of 18\18 - Nardis.wav

Peak level 81.3 %
Track quality 99.9 %
Test CRC 3919EE30
Copy CRC 3919EE30
Copy OK

Track 19
Filename F:\STUFF\tip\Bill Evans - The Complete Bill Evans On Verve (1997) [FLAC] {18 CD Set}\Disc 4 of 18\19 - Time Remembered.wav

Peak level 66.2 %
Track quality 100.0 %
Test CRC B4F3D3BA
Copy CRC B4F3D3BA
Copy OK

Track 20
Filename F:\STUFF\tip\Bill Evans - The Complete Bill Evans On Verve (1997) [FLAC] {18 CD Set}\Disc 4 of 18\20 - Someday My Prince Will Come.wav

Peak level 99.9 %
Track quality 100.0 %
Test CRC 3A1C190C
Copy CRC 3A1C190C
Copy OK

No errors occured


End of status report

EAC extraction logfile from 4. October 2005, 19:55 for CD
Bill Evans / The Complete Bill Evans on Verve (Disc 5)

Used drive : PLEXTOR DVDR PX-716A Adapter: 0 ID: 0
Read mode : Secure with NO C2, accurate stream, disable cache
Read offset correction : 30
Overread into Lead-In and Lead-Out : No

Used output format : Internal WAV Routines
44.100 Hz; 16 Bit; Stereo

Other options :
Fill up missing offset samples with silence : Yes
Delete leading and trailing silent blocks : No
Native Win32 interface for Win NT & 2000


Track 1
Filename F:\STUFF\tip\Bill Evans - The Complete Bill Evans On Verve (1997) [FLAC] {18 CD Set}\Disc 5 of 18\01 - What is this thing called love .wav

Pre-gap length 0:00:02.00

Peak level 99.9 %
Track quality 100.0 %
Test CRC 7F916648
Copy CRC 7F916648
Copy OK

Track 2
Filename F:\STUFF\tip\Bill Evans - The Complete Bill Evans On Verve (1997) [FLAC] {18 CD Set}\Disc 5 of 18\02 - Stella by starlight.wav

Peak level 85.4 %
Track quality 100.0 %
Test CRC 3A68A412
Copy CRC 3A68A412
Copy OK

Track 3
Filename F:\STUFF\tip\Bill Evans - The Complete Bill Evans On Verve (1997) [FLAC] {18 CD Set}\Disc 5 of 18\03 - Rround Midnight.wav

Peak level 83.6 %
Track quality 100.0 %
Test CRC A6CA1298
Copy CRC A6CA1298
Copy OK

Track 4
Filename F:\STUFF\tip\Bill Evans - The Complete Bill Evans On Verve (1997) [FLAC] {18 CD Set}\Disc 5 of 18\04 - Make Someone Happy.wav

Peak level 72.3 %
Track quality 100.0 %
Test CRC 43DBDE5A
Copy CRC 43DBDE5A
Copy OK

Track 5
Filename F:\STUFF\tip\Bill Evans - The Complete Bill Evans On Verve (1997) [FLAC] {18 CD Set}\Disc 5 of 18\05 - intro and warmup.wav

Peak level 53.2 %
Track quality 100.0 %
Test CRC 6DE160B7
Copy CRC 6DE160B7
Copy OK

Track 6
Filename F:\STUFF\tip\Bill Evans - The Complete Bill Evans On Verve (1997) [FLAC] {18 CD Set}\Disc 5 of 18\06 - the boy next door.wav

Peak level 56.7 %
Track quality 100.0 %
Test CRC 41D6B7A1
Copy CRC 41D6B7A1
Copy OK

Track 7
Filename F:\STUFF\tip\Bill Evans - The Complete Bill Evans On Verve (1997) [FLAC] {18 CD Set}\Disc 5 of 18\07 - little lulu.wav

Peak level 64.5 %
Track quality 100.0 %
Test CRC 3D95BE56
Copy CRC 3D95BE56
Copy OK

Track 8
Filename F:\STUFF\tip\Bill Evans - The Complete Bill Evans On Verve (1997) [FLAC] {18 CD Set}\Disc 5 of 18\08 - my love is an april song.wav

Peak level 36.4 %
Track quality 100.0 %
Test CRC F88CACC9
Copy CRC F88CACC9
Copy OK

Track 9
Filename F:\STUFF\tip\Bill Evans - The Complete Bill Evans On Verve (1997) [FLAC] {18 CD Set}\Disc 5 of 18\09 - what kind of fool am I.wav

Peak level 64.0 %
Track quality 99.9 %
Test CRC 616878AD
Copy CRC 616878AD
Copy OK

Track 10
Filename F:\STUFF\tip\Bill Evans - The Complete Bill Evans On Verve (1997) [FLAC] {18 CD Set}\Disc 5 of 18\10 - what is this thing called love .wav

Peak level 58.2 %
Track quality 100.0 %
Test CRC 1182D79D
Copy CRC 1182D79D
Copy OK

Track 11
Filename F:\STUFF\tip\Bill Evans - The Complete Bill Evans On Verve (1997) [FLAC] {18 CD Set}\Disc 5 of 18\11 - the touch of your lips.wav

Peak level 49.7 %
Track quality 100.0 %
Test CRC 839006F5
Copy CRC 839006F5
Copy OK

Track 12
Filename F:\STUFF\tip\Bill Evans - The Complete Bill Evans On Verve (1997) [FLAC] {18 CD Set}\Disc 5 of 18\12 - intro and warmup.wav

Pre-gap length 0:00:01.96

Peak level 52.1 %
Track quality 100.0 %
Test CRC 62B551FB
Copy CRC 62B551FB
Copy OK

Track 13
Filename F:\STUFF\tip\Bill Evans - The Complete Bill Evans On Verve (1997) [FLAC] {18 CD Set}\Disc 5 of 18\13 - the boy next door.wav

Peak level 97.6 %
Track quality 100.0 %
Test CRC 4E748BB0
Copy CRC 4E748BB0
Copy OK

Track 14
Filename F:\STUFF\tip\Bill Evans - The Complete Bill Evans On Verve (1997) [FLAC] {18 CD Set}\Disc 5 of 18\14 - time remembered.wav

Peak level 95.1 %
Track quality 99.9 %
Test CRC CD48B739
Copy CRC CD48B739
Copy OK

Track 15
Filename F:\STUFF\tip\Bill Evans - The Complete Bill Evans On Verve (1997) [FLAC] {18 CD Set}\Disc 5 of 18\15 - stella by starlight.wav

Peak level 100.0 %
Track quality 100.0 %
Test CRC 7EEE8920
Copy CRC 7EEE8920
Copy OK

No errors occured


End of status report

EAC extraction logfile from 4. October 2005, 20:59 for CD
Bill Evans / The Complete Bill Evans on Verve (Disc 6)

Used drive : LITE-ON COMBO SOHC-5235K Adapter: 0 ID: 1
Read mode : Secure with NO C2, accurate stream, disable cache
Read offset correction : 6
Overread into Lead-In and Lead-Out : No

Used output format : Internal WAV Routines
44.100 Hz; 16 Bit; Stereo

Other options :
Fill up missing offset samples with silence : Yes
Delete leading and trailing silent blocks : No
Native Win32 interface for Win NT & 2000


Track 1
Filename F:\STUFF\tip\Bill Evans - The Complete Bill Evans On Verve (1997) [FLAC] {18 CD Set}\Disc 6 of 18\01 - Deed I do.wav

Pre-gap length 0:00:02.00

Peak level 81.8 %
Track quality 99.9 %
Test CRC F7D45B34
Copy CRC F7D45B34
Copy OK

Track 2
Filename F:\STUFF\tip\Bill Evans - The Complete Bill Evans On Verve (1997) [FLAC] {18 CD Set}\Disc 6 of 18\02 - Baubles, bangles and beads.wav

Peak level 65.6 %
Track quality 100.0 %
Test CRC 646E82E5
Copy CRC 646E82E5
Copy OK

Track 3
Filename F:\STUFF\tip\Bill Evans - The Complete Bill Evans On Verve (1997) [FLAC] {18 CD Set}\Disc 6 of 18\03 - What kind of fool am i .wav

Pre-gap length 0:00:00.01

Peak level 73.5 %
Track quality 99.9 %
Test CRC 00B91515
Copy CRC 00B91515
Copy OK

Track 4
Filename F:\STUFF\tip\Bill Evans - The Complete Bill Evans On Verve (1997) [FLAC] {18 CD Set}\Disc 6 of 18\04 - Intro + warmup.wav

Pre-gap length 0:00:02.50

Peak level 14.7 %
Track quality 100.0 %
Test CRC F842D88A
Copy CRC F842D88A
Copy OK

Track 5
Filename F:\STUFF\tip\Bill Evans - The Complete Bill Evans On Verve (1997) [FLAC] {18 CD Set}\Disc 6 of 18\05 - Come rain or come shine.wav

Pre-gap length 0:00:00.01

Peak level 69.0 %
Track quality 100.0 %
Test CRC C06CB7D6
Copy CRC C06CB7D6
Copy OK

Track 6
Filename F:\STUFF\tip\Bill Evans - The Complete Bill Evans On Verve (1997) [FLAC] {18 CD Set}\Disc 6 of 18\06 - How my heart sings.wav

Pre-gap length 0:00:00.01

Peak level 79.2 %
Track quality 99.9 %
Test CRC EDC6C81C
Copy CRC EDC6C81C
Copy OK

Track 7
Filename F:\STUFF\tip\Bill Evans - The Complete Bill Evans On Verve (1997) [FLAC] {18 CD Set}\Disc 6 of 18\07 - Alone together.wav

Pre-gap length 0:00:00.01

Peak level 96.6 %
Track quality 100.0 %
Test CRC 9B167649
Copy CRC 9B167649
Copy OK

Track 8
Filename F:\STUFF\tip\Bill Evans - The Complete Bill Evans On Verve (1997) [FLAC] {18 CD Set}\Disc 6 of 18\08 - Israel.wav

Pre-gap length 0:00:00.01

Peak level 99.9 %
Track quality 100.0 %
Test CRC B6C0C0D6
Copy CRC B6C0C0D6
Copy OK

Track 9
Filename F:\STUFF\tip\Bill Evans - The Complete Bill Evans On Verve (1997) [FLAC] {18 CD Set}\Disc 6 of 18\09 - Intro + warmup.wav

Pre-gap length 0:00:02.78

Peak level 64.1 %
Track quality 100.0 %
Test CRC 2750415B
Copy CRC 2750415B
Copy OK

Track 10
Filename F:\STUFF\tip\Bill Evans - The Complete Bill Evans On Verve (1997) [FLAC] {18 CD Set}\Disc 6 of 18\10 - Alone together.wav

Pre-gap length 0:00:00.01

Peak level 99.9 %
Track quality 99.9 %
Test CRC AA01A1F7
Copy CRC AA01A1F7
Copy OK

Track 11
Filename F:\STUFF\tip\Bill Evans - The Complete Bill Evans On Verve (1997) [FLAC] {18 CD Set}\Disc 6 of 18\11 - Make someone happy.wav

Pre-gap length 0:00:00.01

Peak level 84.6 %
Track quality 99.9 %
Test CRC 8181FFFF
Copy CRC 8181FFFF
Copy OK

Track 12
Filename F:\STUFF\tip\Bill Evans - The Complete Bill Evans On Verve (1997) [FLAC] {18 CD Set}\Disc 6 of 18\12 - My love is an april song.wav

Pre-gap length 0:00:00.01

Peak level 67.7 %
Track quality 99.9 %
Test CRC E7DAFFA5
Copy CRC E7DAFFA5
Copy OK

Track 13
Filename F:\STUFF\tip\Bill Evans - The Complete Bill Evans On Verve (1997) [FLAC] {18 CD Set}\Disc 6 of 18\13 - Deed i do.wav

Pre-gap length 0:00:00.01

Peak level 92.7 %
Track quality 99.9 %
Test CRC 984BFEED
Copy CRC 984BFEED
Copy OK

Track 14
Filename F:\STUFF\tip\Bill Evans - The Complete Bill Evans On Verve (1997) [FLAC] {18 CD Set}\Disc 6 of 18\14 - Love is here to stay.wav

Peak level 63.3 %
Track quality 99.8 %
Test CRC 4422E169
Copy CRC 4422E169
Copy OK

Track 15
Filename F:\STUFF\tip\Bill Evans - The Complete Bill Evans On Verve (1997) [FLAC] {18 CD Set}\Disc 6 of 18\15 - California, here i come.wav

Peak level 92.4 %
Track quality 99.9 %
Test CRC AA2A1E69
Copy CRC AA2A1E69
Copy OK

Track 16
Filename F:\STUFF\tip\Bill Evans - The Complete Bill Evans On Verve (1997) [FLAC] {18 CD Set}\Disc 6 of 18\16 - Warmup.wav

Pre-gap length 0:00:01.84

Peak level 19.4 %
Track quality 100.0 %
Test CRC 1F171E6E
Copy CRC 1F171E6E
Copy OK

Track 17
Filename F:\STUFF\tip\Bill Evans - The Complete Bill Evans On Verve (1997) [FLAC] {18 CD Set}\Disc 6 of 18\17 - What kind of fool am I.wav

Pre-gap length 0:00:00.01

Peak level 84.5 %
Track quality 99.9 %
Test CRC A1DBF57B
Copy CRC A1DBF57B
Copy OK

No errors occured


End of status report

EAC extraction logfile from 6. October 2005, 19:57 for CD
Bill Evans / The Complete Bill Evans on Verve (Disc 7)

Used drive : PLEXTOR DVDR PX-716A Adapter: 0 ID: 0
Read mode : Secure with NO C2, accurate stream, disable cache
Read offset correction : 30
Overread into Lead-In and Lead-Out : No

Used output format : Internal WAV Routines
44.100 Hz; 16 Bit; Stereo

Other options :
Fill up missing offset samples with silence : Yes
Delete leading and trailing silent blocks : No
Native Win32 interface for Win NT & 2000


Track 1
Filename F:\STUFF\tip\Bill Evans - The Complete Bill Evans On Verve (1997) [FLAC] {18 CD Set}\Disc 7 of 18\01 - What is this thing called love.wav

Pre-gap length 0:00:02.00

Peak level 95.2 %
Track quality 100.0 %
Test CRC 230F7182
Copy CRC 230F7182
Copy OK

Track 2
Filename F:\STUFF\tip\Bill Evans - The Complete Bill Evans On Verve (1997) [FLAC] {18 CD Set}\Disc 7 of 18\02 - Alone together.wav

Pre-gap length 0:00:03.33

Peak level 78.4 %
Track quality 100.0 %
Test CRC AF07656C
Copy CRC AF07656C
Copy OK

Track 3
Filename F:\STUFF\tip\Bill Evans - The Complete Bill Evans On Verve (1997) [FLAC] {18 CD Set}\Disc 7 of 18\03 - California here i come.wav

Peak level 94.5 %
Track quality 100.0 %
Test CRC E48CFF71
Copy CRC E48CFF71
Copy OK

Track 4
Filename F:\STUFF\tip\Bill Evans - The Complete Bill Evans On Verve (1997) [FLAC] {18 CD Set}\Disc 7 of 18\04 - Come rain or come shine.wav

Pre-gap length 0:00:02.73

Peak level 79.4 %
Track quality 99.9 %
Test CRC 4B33110A
Copy CRC 4B33110A
Copy OK

Track 5
Filename F:\STUFF\tip\Bill Evans - The Complete Bill Evans On Verve (1997) [FLAC] {18 CD Set}\Disc 7 of 18\05 - Jag vet en deglig rosa - a beautiful rose.wav

Pre-gap length 0:00:02.73

Peak level 99.9 %
Track quality 100.0 %
Test CRC F2385D5F
Copy CRC F2385D5F
Copy OK

Track 6
Filename F:\STUFF\tip\Bill Evans - The Complete Bill Evans On Verve (1997) [FLAC] {18 CD Set}\Disc 7 of 18\06 - Once upon a summertime.wav

Pre-gap length 0:00:03.73

Peak level 99.9 %
Track quality 100.0 %
Test CRC 7F0EBA94
Copy CRC 7F0EBA94
Copy OK

Track 7
Filename F:\STUFF\tip\Bill Evans - The Complete Bill Evans On Verve (1997) [FLAC] {18 CD Set}\Disc 7 of 18\07 - So long, big time.wav

Pre-gap length 0:00:02.73

Peak level 99.9 %
Track quality 100.0 %
Test CRC CBCE26B7
Copy CRC CBCE26B7
Copy OK

Track 8
Filename F:\STUFF\tip\Bill Evans - The Complete Bill Evans On Verve (1997) [FLAC] {18 CD Set}\Disc 7 of 18\08 - Monicas vals.wav

Pre-gap length 0:00:02.73

Peak level 77.5 %
Track quality 100.0 %
Test CRC C9DD15E3
Copy CRC C9DD15E3
Copy OK

Track 9
Filename F:\STUFF\tip\Bill Evans - The Complete Bill Evans On Verve (1997) [FLAC] {18 CD Set}\Disc 7 of 18\09 - Lucky to be me.wav

Pre-gap length 0:00:02.73

Peak level 89.1 %
Track quality 100.0 %
Test CRC 3A4C43D9
Copy CRC 3A4C43D9
Copy OK

Track 10
Filename F:\STUFF\tip\Bill Evans - The Complete Bill Evans On Verve (1997) [FLAC] {18 CD Set}\Disc 7 of 18\10 - Vindarna sucka - sorrow wind.wav

Pre-gap length 0:00:02.73

Peak level 63.8 %
Track quality 100.0 %
Test CRC AFF6609C
Copy CRC AFF6609C
Copy OK

Track 11
Filename F:\STUFF\tip\Bill Evans - The Complete Bill Evans On Verve (1997) [FLAC] {18 CD Set}\Disc 7 of 18\11 - It could happen to you.wav

Pre-gap length 0:00:02.73

Peak level 79.4 %
Track quality 100.0 %
Test CRC C5DB0E1D
Copy CRC C5DB0E1D
Copy OK

Track 12
Filename F:\STUFF\tip\Bill Evans - The Complete Bill Evans On Verve (1997) [FLAC] {18 CD Set}\Disc 7 of 18\12 - Some other time.wav

Pre-gap length 0:00:02.73

Peak level 68.3 %
Track quality 99.9 %
Test CRC 267D7782
Copy CRC 267D7782
Copy OK

Track 13
Filename F:\STUFF\tip\Bill Evans - The Complete Bill Evans On Verve (1997) [FLAC] {18 CD Set}\Disc 7 of 18\13 - Om natten - in the night.wav

Pre-gap length 0:00:02.73

Peak level 66.8 %
Track quality 100.0 %
Test CRC AB6F90D0
Copy CRC AB6F90D0
Copy OK

Track 14
Filename F:\STUFF\tip\Bill Evans - The Complete Bill Evans On Verve (1997) [FLAC] {18 CD Set}\Disc 7 of 18\14 - Come rain or come shine.wav

Pre-gap length 0:00:04.73

Peak level 70.7 %
Track quality 100.0 %
Test CRC BB7FF78A
Copy CRC BB7FF78A
Copy OK

Track 15
Filename F:\STUFF\tip\Bill Evans - The Complete Bill Evans On Verve (1997) [FLAC] {18 CD Set}\Disc 7 of 18\15 - Come rain or come shine.wav

Pre-gap length 0:00:02.73

Peak level 69.8 %
Track quality 100.0 %
Test CRC FD9E6B23
Copy CRC FD9E6B23
Copy OK

Track 16
Filename F:\STUFF\tip\Bill Evans - The Complete Bill Evans On Verve (1997) [FLAC] {18 CD Set}\Disc 7 of 18\16 - Lucky to be me.wav

Pre-gap length 0:00:02.73

Peak level 79.4 %
Track quality 100.0 %
Test CRC FE318F71
Copy CRC FE318F71
Copy OK

Track 17
Filename F:\STUFF\tip\Bill Evans - The Complete Bill Evans On Verve (1997) [FLAC] {18 CD Set}\Disc 7 of 18\17 - It could happen to you.wav

Pre-gap length 0:00:02.73

Peak level 60.0 %
Track quality 99.9 %
Test CRC E938673E
Copy CRC E938673E
Copy OK

Track 18
Filename F:\STUFF\tip\Bill Evans - The Complete Bill Evans On Verve (1997) [FLAC] {18 CD Set}\Disc 7 of 18\18 - It could happen to you.wav

Pre-gap length 0:00:02.73

Peak level 63.0 %
Track quality 100.0 %
Test CRC AA0C0AF8
Copy CRC AA0C0AF8
Copy OK

Track 19
Filename F:\STUFF\tip\Bill Evans - The Complete Bill Evans On Verve (1997) [FLAC] {18 CD Set}\Disc 7 of 18\19 - Santa Claus is coming to town.wav

Pre-gap length 0:00:02.73

Peak level 74.1 %
Track quality 100.0 %
Test CRC 7A3F77D9
Copy CRC 7A3F77D9
Copy OK

No errors occured


End of status report

EAC extraction logfile from 6. October 2005, 20:29 for CD
Bill Evans / The Complete Bill Evans on Verve (Disc 8)

Used drive : LITE-ON COMBO SOHC-5235K Adapter: 0 ID: 1
Read mode : Secure with NO C2, accurate stream, disable cache
Read offset correction : 6
Overread into Lead-In and Lead-Out : No

Used output format : Internal WAV Routines
44.100 Hz; 16 Bit; Stereo

Other options :
Fill up missing offset samples with silence : Yes
Delete leading and trailing silent blocks : No
Native Win32 interface for Win NT & 2000


Track 1
Filename F:\STUFF\tip\Bill Evans - The Complete Bill Evans On Verve (1997) [FLAC] {18 CD Set}\Disc 8 of 18\01 - Israel.wav

Pre-gap length 0:00:02.00

Peak level 100.0 %
Track quality 99.9 %
Test CRC CA5DBCFE
Copy CRC CA5DBCFE
Copy OK

Track 2
Filename F:\STUFF\tip\Bill Evans - The Complete Bill Evans On Verve (1997) [FLAC] {18 CD Set}\Disc 8 of 18\02 - Elsa.wav

Pre-gap length 0:00:02.53

Peak level 84.3 %
Track quality 99.9 %
Test CRC F398B78E
Copy CRC F398B78E
Copy OK

Track 3
Filename F:\STUFF\tip\Bill Evans - The Complete Bill Evans On Verve (1997) [FLAC] {18 CD Set}\Disc 8 of 18\03 - Round midnight.wav

Pre-gap length 0:00:02.60

Peak level 85.4 %
Track quality 99.9 %
Test CRC AF0F54B9
Copy CRC AF0F54B9
Copy OK

Track 4
Filename F:\STUFF\tip\Bill Evans - The Complete Bill Evans On Verve (1997) [FLAC] {18 CD Set}\Disc 8 of 18\04 - Love is here to stay.wav

Pre-gap length 0:00:02.49

Peak level 100.0 %
Track quality 99.9 %
Test CRC E65442A3
Copy CRC E65442A3
Copy OK

Track 5
Filename F:\STUFF\tip\Bill Evans - The Complete Bill Evans On Verve (1997) [FLAC] {18 CD Set}\Disc 8 of 18\05 - How my heart sings.wav

Pre-gap length 0:00:02.80

Peak level 94.5 %
Track quality 100.0 %
Test CRC 28A75975
Copy CRC 28A75975
Copy OK

Track 6
Filename F:\STUFF\tip\Bill Evans - The Complete Bill Evans On Verve (1997) [FLAC] {18 CD Set}\Disc 8 of 18\06 - Who can i turn to.wav

Pre-gap length 0:00:02.36

Peak level 79.8 %
Track quality 100.0 %
Test CRC 4CDD4AB3
Copy CRC 4CDD4AB3
Copy OK

Track 7
Filename F:\STUFF\tip\Bill Evans - The Complete Bill Evans On Verve (1997) [FLAC] {18 CD Set}\Disc 8 of 18\07 - Come rain or shine.wav

Pre-gap length 0:00:02.66

Peak level 82.4 %
Track quality 99.9 %
Test CRC 2934BB76
Copy CRC 2934BB76
Copy OK

Track 8
Filename F:\STUFF\tip\Bill Evans - The Complete Bill Evans On Verve (1997) [FLAC] {18 CD Set}\Disc 8 of 18\08 - If you could see me now.wav

Pre-gap length 0:00:02.62

Peak level 84.3 %
Track quality 100.0 %
Test CRC 90DC0AAA
Copy CRC 90DC0AAA
Copy OK

Track 9
Filename F:\STUFF\tip\Bill Evans - The Complete Bill Evans On Verve (1997) [FLAC] {18 CD Set}\Disc 8 of 18\09 - Granados.wav

Pre-gap length 0:00:05.46

Peak level 91.4 %
Track quality 100.0 %
Test CRC F3FA66EA
Copy CRC F3FA66EA
Copy OK

Track 10
Filename F:\STUFF\tip\Bill Evans - The Complete Bill Evans On Verve (1997) [FLAC] {18 CD Set}\Disc 8 of 18\10 - Valse (siciliano in g-minor - bach).wav

Pre-gap length 0:00:02.73

Peak level 89.9 %
Track quality 99.9 %
Test CRC EC5E0F1B
Copy CRC EC5E0F1B
Copy OK

Track 11
Filename F:\STUFF\tip\Bill Evans - The Complete Bill Evans On Verve (1997) [FLAC] {18 CD Set}\Disc 8 of 18\11 - Prelude no 15 in d-flat minor - scriabin.wav

Pre-gap length 0:00:03.09

Peak level 73.1 %
Track quality 99.8 %
Test CRC F1BDCB71
Copy CRC F1BDCB71
Copy OK

Track 12
Filename F:\STUFF\tip\Bill Evans - The Complete Bill Evans On Verve (1997) [FLAC] {18 CD Set}\Disc 8 of 18\12 - Time remembered.wav

Pre-gap length 0:00:02.56

Peak level 79.3 %
Track quality 99.9 %
Test CRC F40F8617
Copy CRC F40F8617
Copy OK

Track 13
Filename F:\STUFF\tip\Bill Evans - The Complete Bill Evans On Verve (1997) [FLAC] {18 CD Set}\Disc 8 of 18\13 - Pavane.wav

Pre-gap length 0:00:03.20

Peak level 56.7 %
Track quality 100.0 %
Test CRC 3C1368B9
Copy CRC 3C1368B9
Copy OK

Track 14
Filename F:\STUFF\tip\Bill Evans - The Complete Bill Evans On Verve (1997) [FLAC] {18 CD Set}\Disc 8 of 18\14 - Elegia.wav

Pre-gap length 0:00:02.38

Peak level 89.9 %
Track quality 99.9 %
Test CRC FC8E6745
Copy CRC FC8E6745
Copy OK

Track 15
Filename F:\STUFF\tip\Bill Evans - The Complete Bill Evans On Verve (1997) [FLAC] {18 CD Set}\Disc 8 of 18\15 - My bells.wav

Pre-gap length 0:00:02.66

Peak level 73.4 %
Track quality 100.0 %
Test CRC 84921B2F
Copy CRC 84921B2F
Copy OK

Track 16
Filename F:\STUFF\tip\Bill Evans - The Complete Bill Evans On Verve (1997) [FLAC] {18 CD Set}\Disc 8 of 18\16 - Blue interlude (c-minor prelude op 28, chopin).wav

Pre-gap length 0:00:02.96

Peak level 43.8 %
Track quality 99.8 %
Test CRC 99E63580
Copy CRC 99E63580
Copy OK

No errors occured


End of status report

EAC extraction logfile from 6. October 2005, 21:18 for CD
Bill Evans / The Complete Bill Evans On Verve (Disc 9)

Used drive : LITE-ON COMBO SOHC-5235K Adapter: 0 ID: 1
Read mode : Secure with NO C2, accurate stream, disable cache
Read offset correction : 6
Overread into Lead-In and Lead-Out : No

Used output format : Internal WAV Routines
44.100 Hz; 16 Bit; Stereo

Other options :
Fill up missing offset samples with silence : Yes
Delete leading and trailing silent blocks : No
Native Win32 interface for Win NT & 2000


Track 1
Filename F:\STUFF\tip\Bill Evans - The Complete Bill Evans On Verve (1997) [FLAC] {18 CD Set}\Disc 9 of 18\01 - I Should Care.wav

Pre-gap length 0:00:02.00

Peak level 84.9 %
Track quality 99.9 %
Test CRC D262A598
Copy CRC D262A598
Copy OK

Track 2
Filename F:\STUFF\tip\Bill Evans - The Complete Bill Evans On Verve (1997) [FLAC] {18 CD Set}\Disc 9 of 18\02 - Spring is Here.wav

Peak level 88.6 %
Track quality 100.0 %
Test CRC C6447137
Copy CRC C6447137
Copy OK

Track 3
Filename F:\STUFF\tip\Bill Evans - The Complete Bill Evans On Verve (1997) [FLAC] {18 CD Set}\Disc 9 of 18\03 - Who Can I Turn to.wav

Peak level 82.2 %
Track quality 99.9 %
Test CRC E3DF89E6
Copy CRC E3DF89E6
Copy OK

Track 4
Filename F:\STUFF\tip\Bill Evans - The Complete Bill Evans On Verve (1997) [FLAC] {18 CD Set}\Disc 9 of 18\04 - Make Someone Happy.wav

Pre-gap length 0:00:02.76

Peak level 69.7 %
Track quality 100.0 %
Test CRC 1D036A48
Copy CRC 1D036A48
Copy OK

Track 5
Filename F:\STUFF\tip\Bill Evans - The Complete Bill Evans On Verve (1997) [FLAC] {18 CD Set}\Disc 9 of 18\05 - Solo - in Memory of His Father.wav

Peak level 71.6 %
Track quality 99.9 %
Test CRC F02F6EE1
Copy CRC F02F6EE1
Copy OK

Track 6
Filename F:\STUFF\tip\Bill Evans - The Complete Bill Evans On Verve (1997) [FLAC] {18 CD Set}\Disc 9 of 18\06 - Beautiful Love.wav

Pre-gap length 0:00:01.77

Peak level 100.0 %
Track quality 99.9 %
Test CRC 4D762DAC
Copy CRC 4D762DAC
Copy OK

Track 7
Filename F:\STUFF\tip\Bill Evans - The Complete Bill Evans On Verve (1997) [FLAC] {18 CD Set}\Disc 9 of 18\07 - My Foolish Heart.wav

Pre-gap length 0:00:01.80

Peak level 73.8 %
Track quality 100.0 %
Test CRC AB3BF744
Copy CRC AB3BF744
Copy OK

Track 8
Filename F:\STUFF\tip\Bill Evans - The Complete Bill Evans On Verve (1997) [FLAC] {18 CD Set}\Disc 9 of 18\08 - One for Helen.wav

Pre-gap length 0:00:01.77

Peak level 80.3 %
Track quality 100.0 %
Test CRC 18D62969
Copy CRC 18D62969
Copy OK

No errors occured


End of status report

EAC extraction logfile from 8. October 2005, 14:18 for CD
Bill Evans / The Complete Bill Evans on Verve (Disc 10)

Used drive : LITE-ON COMBO SOHC-5235K Adapter: 0 ID: 1
Read mode : Secure with NO C2, accurate stream, disable cache
Read offset correction : 6
Overread into Lead-In and Lead-Out : No

Used output format : Internal WAV Routines
44.100 Hz; 16 Bit; Stereo

Other options :
Fill up missing offset samples with silence : Yes
Delete leading and trailing silent blocks : No
Native Win32 interface for Win NT & 2000


Track 1
Filename F:\STUFF\tip\Bill Evans - The Complete Bill Evans On Verve (1997) [FLAC] {18 CD Set}\Disc 10 of 18\01 - I've Got You Under My Skin.wav

Pre-gap length 0:00:02.00

Peak level 86.7 %
Track quality 99.8 %
Test CRC D48FE1B7
Copy CRC D48FE1B7
Copy OK

Track 2
Filename F:\STUFF\tip\Bill Evans - The Complete Bill Evans On Verve (1997) [FLAC] {18 CD Set}\Disc 10 of 18\02 - My Man's Gone Now.wav

Pre-gap length 0:00:02.53

Peak level 92.2 %
Track quality 99.9 %
Test CRC ECBF6FD4
Copy CRC ECBF6FD4
Copy OK

Track 3
Filename F:\STUFF\tip\Bill Evans - The Complete Bill Evans On Verve (1997) [FLAC] {18 CD Set}\Disc 10 of 18\03 - Turn Out The Stars.wav

Pre-gap length 0:00:02.04

Peak level 95.8 %
Track quality 100.0 %
Test CRC D57B43CC
Copy CRC D57B43CC
Copy OK

Track 4
Filename F:\STUFF\tip\Bill Evans - The Complete Bill Evans On Verve (1997) [FLAC] {18 CD Set}\Disc 10 of 18\04 - Angel Face.wav

Pre-gap length 0:00:02.80

Peak level 84.5 %
Track quality 99.9 %
Test CRC 37BF159A
Copy CRC 37BF159A
Copy OK

Track 5
Filename F:\STUFF\tip\Bill Evans - The Complete Bill Evans On Verve (1997) [FLAC] {18 CD Set}\Disc 10 of 18\05 - Jazz Samba.wav

Pre-gap length 0:00:02.62

Peak level 75.2 %
Track quality 99.8 %
Test CRC 6DC60FFA
Copy CRC 6DC60FFA
Copy OK

Track 6
Filename F:\STUFF\tip\Bill Evans - The Complete Bill Evans On Verve (1997) [FLAC] {18 CD Set}\Disc 10 of 18\06 - All Across The City.wav

Pre-gap length 0:00:02.58

Peak level 66.1 %
Track quality 100.0 %
Test CRC 4BE8AE40
Copy CRC 4BE8AE40
Copy OK

Track 7
Filename F:\STUFF\tip\Bill Evans - The Complete Bill Evans On Verve (1997) [FLAC] {18 CD Set}\Disc 10 of 18\07 - A Simple Matter Of Conviction.wav

Pre-gap length 0:00:04.80

Peak level 82.2 %
Track quality 99.9 %
Test CRC A02ECE73
Copy CRC A02ECE73
Copy OK

Track 8
Filename F:\STUFF\tip\Bill Evans - The Complete Bill Evans On Verve (1997) [FLAC] {18 CD Set}\Disc 10 of 18\08 - Stella By Starlight.wav

Pre-gap length 0:00:02.76

Peak level 85.9 %
Track quality 99.9 %
Test CRC B5507A8C
Copy CRC B5507A8C
Copy OK

Track 9
Filename F:\STUFF\tip\Bill Evans - The Complete Bill Evans On Verve (1997) [FLAC] {18 CD Set}\Disc 10 of 18\09 - Orbit (Unless it's you).wav

Pre-gap length 0:00:02.74

Peak level 70.1 %
Track quality 100.0 %
Test CRC 9A7EB541
Copy CRC 9A7EB541
Copy OK

Track 10
Filename F:\STUFF\tip\Bill Evans - The Complete Bill Evans On Verve (1997) [FLAC] {18 CD Set}\Disc 10 of 18\10 - Laura.wav

Pre-gap length 0:00:02.80

Peak level 75.8 %
Track quality 99.9 %
Test CRC 8946141A
Copy CRC 8946141A
Copy OK

Track 11
Filename F:\STUFF\tip\Bill Evans - The Complete Bill Evans On Verve (1997) [FLAC] {18 CD Set}\Disc 10 of 18\11 - My Melancholy Baby.wav

Pre-gap length 0:00:02.77

Peak level 90.7 %
Track quality 99.9 %
Test CRC E0E164AF
Copy CRC E0E164AF
Copy OK

Track 12
Filename F:\STUFF\tip\Bill Evans - The Complete Bill Evans On Verve (1997) [FLAC] {18 CD Set}\Disc 10 of 18\12 - I'm Getting Sentimental Over You.wav

Pre-gap length 0:00:02.78

Peak level 59.8 %
Track quality 99.9 %
Test CRC C762D60E
Copy CRC C762D60E
Copy OK

Track 13
Filename F:\STUFF\tip\Bill Evans - The Complete Bill Evans On Verve (1997) [FLAC] {18 CD Set}\Disc 10 of 18\13 - Star Eyes.wav

Pre-gap length 0:00:02.77

Peak level 66.7 %
Track quality 99.9 %
Test CRC 91CC16C7
Copy CRC 91CC16C7
Copy OK

Track 14
Filename F:\STUFF\tip\Bill Evans - The Complete Bill Evans On Verve (1997) [FLAC] {18 CD Set}\Disc 10 of 18\14 - Only Child.wav

Pre-gap length 0:00:01.80

Peak level 56.4 %
Track quality 100.0 %
Test CRC C921B420
Copy CRC C921B420
Copy OK

Track 15
Filename F:\STUFF\tip\Bill Evans - The Complete Bill Evans On Verve (1997) [FLAC] {18 CD Set}\Disc 10 of 18\15 - These Things Called Changes.wav

Pre-gap length 0:00:02.57

Peak level 72.6 %
Track quality 100.0 %
Test CRC C7398B4A
Copy CRC C7398B4A
Copy OK

No errors occured


End of status report

EAC extraction logfile from 8. October 2005, 17:41 for CD
Bill Evans / Complete Bill Evans On Verve (Disc 11)

Used drive : PLEXTOR DVDR PX-716A Adapter: 0 ID: 0
Read mode : Secure with NO C2, accurate stream, disable cache
Read offset correction : 30
Overread into Lead-In and Lead-Out : No

Used output format : Internal WAV Routines
44.100 Hz; 16 Bit; Stereo

Other options :
Fill up missing offset samples with silence : Yes
Delete leading and trailing silent blocks : No
Native Win32 interface for Win NT & 2000


Track 1
Filename F:\STUFF\tip\Bill Evans - The Complete Bill Evans On Verve (1997) [FLAC] {18 CD Set}\Disc 11 of 18\01 - Emily.wav

Pre-gap length 0:00:02.00

Peak level 70.1 %
Track quality 100.0 %
Test CRC 44B04E54
Copy CRC 44B04E54
Copy OK

Track 2
Filename F:\STUFF\tip\Bill Evans - The Complete Bill Evans On Verve (1997) [FLAC] {18 CD Set}\Disc 11 of 18\02 - Yesterdays.wav

Pre-gap length 0:00:01.93

Peak level 57.5 %
Track quality 100.0 %
Test CRC 5445523C
Copy CRC 5445523C
Copy OK

Track 3
Filename F:\STUFF\tip\Bill Evans - The Complete Bill Evans On Verve (1997) [FLAC] {18 CD Set}\Disc 11 of 18\03 - Santa Claus Is Coming To Town.wav

Pre-gap length 0:00:02.02

Peak level 64.3 %
Track quality 100.0 %
Test CRC DDC5A3D5
Copy CRC DDC5A3D5
Copy OK

Track 4
Filename F:\STUFF\tip\Bill Evans - The Complete Bill Evans On Verve (1997) [FLAC] {18 CD Set}\Disc 11 of 18\04 - Funny Man.wav

Pre-gap length 0:00:01.53

Peak level 52.2 %
Track quality 100.0 %
Test CRC C1FF264C
Copy CRC C1FF264C
Copy OK

Track 5
Filename F:\STUFF\tip\Bill Evans - The Complete Bill Evans On Verve (1997) [FLAC] {18 CD Set}\Disc 11 of 18\05 - The Shadow Of Your Smile.wav

Pre-gap length 0:00:01.80

Peak level 64.7 %
Track quality 99.9 %
Test CRC 3508C970
Copy CRC 3508C970
Copy OK

Track 6
Filename F:\STUFF\tip\Bill Evans - The Complete Bill Evans On Verve (1997) [FLAC] {18 CD Set}\Disc 11 of 18\06 - Little Lulu.wav

Pre-gap length 0:00:01.57

Peak level 61.2 %
Track quality 100.0 %
Test CRC 3909C41D
Copy CRC 3909C41D
Copy OK

Track 7
Filename F:\STUFF\tip\Bill Evans - The Complete Bill Evans On Verve (1997) [FLAC] {18 CD Set}\Disc 11 of 18\07 - Quiet Now.wav

Pre-gap length 0:00:01.97

Peak level 64.4 %
Track quality 100.0 %
Test CRC BB7D71FD
Copy CRC BB7D71FD
Copy OK

Track 8
Filename F:\STUFF\tip\Bill Evans - The Complete Bill Evans On Verve (1997) [FLAC] {18 CD Set}\Disc 11 of 18\08 - Happiness Is A Thing Called Joe.wav

Pre-gap length 0:00:04.80

Peak level 75.0 %
Track quality 100.0 %
Test CRC A106676E
Copy CRC A106676E
Copy OK

Track 9
Filename F:\STUFF\tip\Bill Evans - The Complete Bill Evans On Verve (1997) [FLAC] {18 CD Set}\Disc 11 of 18\09 - In A Sentimental Mood.wav

Peak level 91.8 %
Track quality 99.9 %
Test CRC E2CF377F
Copy CRC E2CF377F
Copy OK

Track 10
Filename F:\STUFF\tip\Bill Evans - The Complete Bill Evans On Verve (1997) [FLAC] {18 CD Set}\Disc 11 of 18\10 - Re Person I Knew.wav

Peak level 92.5 %
Track quality 99.9 %
Test CRC 446CB9D0
Copy CRC 446CB9D0
Copy OK

Track 11
Filename F:\STUFF\tip\Bill Evans - The Complete Bill Evans On Verve (1997) [FLAC] {18 CD Set}\Disc 11 of 18\11 - California Here I Come.wav

Peak level 82.4 %
Track quality 99.9 %
Test CRC BC723B37
Copy CRC BC723B37
Copy OK

Track 12
Filename F:\STUFF\tip\Bill Evans - The Complete Bill Evans On Verve (1997) [FLAC] {18 CD Set}\Disc 11 of 18\12 - Alfie.wav

Peak level 74.7 %
Track quality 100.0 %
Test CRC 57B75C2F
Copy CRC 57B75C2F
Copy OK

Track 13
Filename F:\STUFF\tip\Bill Evans - The Complete Bill Evans On Verve (1997) [FLAC] {18 CD Set}\Disc 11 of 18\13 - Gone With The Wind.wav

Peak level 100.0 %
Track quality 100.0 %
Test CRC F0B46381
Copy CRC F0B46381
Copy OK

Track 14
Filename F:\STUFF\tip\Bill Evans - The Complete Bill Evans On Verve (1997) [FLAC] {18 CD Set}\Disc 11 of 18\14 - Turn Out The Stars.wav

Peak level 79.2 %
Track quality 99.9 %
Test CRC 6CFFFF03
Copy CRC 6CFFFF03
Copy OK

Track 15
Filename F:\STUFF\tip\Bill Evans - The Complete Bill Evans On Verve (1997) [FLAC] {18 CD Set}\Disc 11 of 18\15 - Polka Dots and Moonbeams.wav

Peak level 68.3 %
Track quality 100.0 %
Test CRC FE003E86
Copy CRC FE003E86
Copy OK

Track 16
Filename F:\STUFF\tip\Bill Evans - The Complete Bill Evans On Verve (1997) [FLAC] {18 CD Set}\Disc 11 of 18\16 - Stella By Starlight.wav

Peak level 99.9 %
Track quality 100.0 %
Test CRC D9B1EF4A
Copy CRC D9B1EF4A
Copy OK

No errors occured


End of status report

EAC extraction logfile from 8. October 2005, 19:13 for CD
Bill Evans / Complete Bill Evans On Verve (Disc 12)

Used drive : PLEXTOR DVDR PX-716A Adapter: 0 ID: 0
Read mode : Secure with NO C2, accurate stream, disable cache
Read offset correction : 30
Overread into Lead-In and Lead-Out : No

Used output format : Internal WAV Routines
44.100 Hz; 16 Bit; Stereo

Other options :
Fill up missing offset samples with silence : Yes
Delete leading and trailing silent blocks : No
Native Win32 interface for Win NT & 2000


Track 1
Filename F:\STUFF\tip\Bill Evans - The Complete Bill Evans On Verve (1997) [FLAC] {18 CD Set}\Disc 12 of 18\01 - Very Early.wav

Pre-gap length 0:00:02.00

Peak level 77.6 %
Track quality 100.0 %
Test CRC 8994C52F
Copy CRC 8994C52F
Copy OK

Track 2
Filename F:\STUFF\tip\Bill Evans - The Complete Bill Evans On Verve (1997) [FLAC] {18 CD Set}\Disc 12 of 18\02 - You're Gonna Hear From Me.wav

Peak level 55.7 %
Track quality 100.0 %
Test CRC 4DD65AB0
Copy CRC 4DD65AB0
Copy OK

Track 3
Filename F:\STUFF\tip\Bill Evans - The Complete Bill Evans On Verve (1997) [FLAC] {18 CD Set}\Disc 12 of 18\03 - Emily.wav

Peak level 62.2 %
Track quality 99.9 %
Test CRC 92CA952D
Copy CRC 92CA952D
Copy OK

Track 4
Filename F:\STUFF\tip\Bill Evans - The Complete Bill Evans On Verve (1997) [FLAC] {18 CD Set}\Disc 12 of 18\04 - Wrap Up Your Troubles in Dreams.wav

Peak level 91.7 %
Track quality 100.0 %
Test CRC C646913C
Copy CRC C646913C
Copy OK

Track 5
Filename F:\STUFF\tip\Bill Evans - The Complete Bill Evans On Verve (1997) [FLAC] {18 CD Set}\Disc 12 of 18\05 - Round Midnight.wav

Peak level 88.2 %
Track quality 100.0 %
Test CRC E96BAC2F
Copy CRC E96BAC2F
Copy OK

Track 6
Filename F:\STUFF\tip\Bill Evans - The Complete Bill Evans On Verve (1997) [FLAC] {18 CD Set}\Disc 12 of 18\06 - On Green Dolphin Street.wav

Peak level 83.7 %
Track quality 99.9 %
Test CRC AAE7E399
Copy CRC AAE7E399
Copy OK

Track 7
Filename F:\STUFF\tip\Bill Evans - The Complete Bill Evans On Verve (1997) [FLAC] {18 CD Set}\Disc 12 of 18\07 - If You Could See Me Now.wav

Peak level 51.7 %
Track quality 99.9 %
Test CRC D289D529
Copy CRC D289D529
Copy OK

Track 8
Filename F:\STUFF\tip\Bill Evans - The Complete Bill Evans On Verve (1997) [FLAC] {18 CD Set}\Disc 12 of 18\08 - I'm Getting Sentimental Over You.wav

Peak level 100.0 %
Track quality 100.0 %
Test CRC 0C2401F6
Copy CRC 0C2401F6
Copy OK

Track 9
Filename F:\STUFF\tip\Bill Evans - The Complete Bill Evans On Verve (1997) [FLAC] {18 CD Set}\Disc 12 of 18\09 - You're Gonna Hear From Me.wav

Pre-gap length 0:00:02.77

Peak level 68.0 %
Track quality 100.0 %
Test CRC A84773D4
Copy CRC A84773D4
Copy OK

Track 10
Filename F:\STUFF\tip\Bill Evans - The Complete Bill Evans On Verve (1997) [FLAC] {18 CD Set}\Disc 12 of 18\10 - G Waltz.wav

Peak level 58.7 %
Track quality 99.9 %
Test CRC 7EE45E0C
Copy CRC 7EE45E0C
Copy OK

Track 11
Filename F:\STUFF\tip\Bill Evans - The Complete Bill Evans On Verve (1997) [FLAC] {18 CD Set}\Disc 12 of 18\11 - California, Here I Come.wav

Peak level 72.2 %
Track quality 99.9 %
Test CRC 377C042F
Copy CRC 377C042F
Copy OK

Track 12
Filename F:\STUFF\tip\Bill Evans - The Complete Bill Evans On Verve (1997) [FLAC] {18 CD Set}\Disc 12 of 18\12 - Emily.wav

Peak level 60.3 %
Track quality 100.0 %
Test CRC 2BA656A7
Copy CRC 2BA656A7
Copy OK

Track 13
Filename F:\STUFF\tip\Bill Evans - The Complete Bill Evans On Verve (1997) [FLAC] {18 CD Set}\Disc 12 of 18\13 - Alfie.wav

Peak level 57.3 %
Track quality 100.0 %
Test CRC 8741C92B
Copy CRC 8741C92B
Copy OK

Track 14
Filename F:\STUFF\tip\Bill Evans - The Complete Bill Evans On Verve (1997) [FLAC] {18 CD Set}\Disc 12 of 18\14 - Wrap Up Your Troubles In Dreams.wav

Peak level 100.0 %
Track quality 100.0 %
Test CRC 2E5FAE1D
Copy CRC 2E5FAE1D
Copy OK

No errors occured


End of status report

EAC extraction logfile from 8. October 2005, 21:34 for CD
Bill Evans / Complete Bill Evans On Verve (Disc 13)

Used drive : PLEXTOR DVDR PX-716A Adapter: 0 ID: 0
Read mode : Secure with NO C2, accurate stream, disable cache
Read offset correction : 30
Overread into Lead-In and Lead-Out : No

Used output format : Internal WAV Routines
44.100 Hz; 16 Bit; Stereo

Other options :
Fill up missing offset samples with silence : Yes
Delete leading and trailing silent blocks : No
Native Win32 interface for Win NT & 2000


Track 1
Filename F:\STUFF\tip\Bill Evans - The Complete Bill Evans On Verve (1997) [FLAC] {18 CD Set}\Disc 13 of 18\01 - In A Sentimental Mood.wav

Pre-gap length 0:00:02.00

Peak level 96.2 %
Track quality 100.0 %
Test CRC 64D6C16C
Copy CRC 64D6C16C
Copy OK

Track 2
Filename F:\STUFF\tip\Bill Evans - The Complete Bill Evans On Verve (1997) [FLAC] {18 CD Set}\Disc 13 of 18\02 - California Here I Come.wav

Peak level 98.5 %
Track quality 100.0 %
Test CRC 1F24A1D1
Copy CRC 1F24A1D1
Copy OK

Track 3
Filename F:\STUFF\tip\Bill Evans - The Complete Bill Evans On Verve (1997) [FLAC] {18 CD Set}\Disc 13 of 18\03 - You're Gonna Hear From Me.wav

Peak level 95.9 %
Track quality 100.0 %
Test CRC 762784CA
Copy CRC 762784CA
Copy OK

Track 4
Filename F:\STUFF\tip\Bill Evans - The Complete Bill Evans On Verve (1997) [FLAC] {18 CD Set}\Disc 13 of 18\04 - Alfie.wav

Peak level 74.2 %
Track quality 100.0 %
Test CRC 9D9C707C
Copy CRC 9D9C707C
Copy OK

Track 5
Filename F:\STUFF\tip\Bill Evans - The Complete Bill Evans On Verve (1997) [FLAC] {18 CD Set}\Disc 13 of 18\05 - Gone With The Wind.wav

Peak level 99.2 %
Track quality 100.0 %
Test CRC 69A7F12E
Copy CRC 69A7F12E
Copy OK

Track 6
Filename F:\STUFF\tip\Bill Evans - The Complete Bill Evans On Verve (1997) [FLAC] {18 CD Set}\Disc 13 of 18\06 - Emily.wav

Peak level 75.7 %
Track quality 99.9 %
Test CRC 8851B01C
Copy CRC 8851B01C
Copy OK

Track 7
Filename F:\STUFF\tip\Bill Evans - The Complete Bill Evans On Verve (1997) [FLAC] {18 CD Set}\Disc 13 of 18\07 - G Waltz.wav

Peak level 76.7 %
Track quality 100.0 %
Test CRC 00C4EAB7
Copy CRC 00C4EAB7
Copy OK

Track 8
Filename F:\STUFF\tip\Bill Evans - The Complete Bill Evans On Verve (1997) [FLAC] {18 CD Set}\Disc 13 of 18\08 - Wrap Up Your Troubles In Dreams.wav

Peak level 100.0 %
Track quality 100.0 %
Test CRC BE2ED104
Copy CRC BE2ED104
Copy OK

Track 9
Filename F:\STUFF\tip\Bill Evans - The Complete Bill Evans On Verve (1997) [FLAC] {18 CD Set}\Disc 13 of 18\09 - In A Sentimental Mood.wav

Pre-gap length 0:00:02.77

Peak level 76.6 %
Track quality 99.9 %
Test CRC CE27141A
Copy CRC CE27141A
Copy OK

Track 10
Filename F:\STUFF\tip\Bill Evans - The Complete Bill Evans On Verve (1997) [FLAC] {18 CD Set}\Disc 13 of 18\10 - California Here I Come.wav

Peak level 85.6 %
Track quality 100.0 %
Test CRC DD6B9FDD
Copy CRC DD6B9FDD
Copy OK

Track 11
Filename F:\STUFF\tip\Bill Evans - The Complete Bill Evans On Verve (1997) [FLAC] {18 CD Set}\Disc 13 of 18\11 - You're Gonna Hear From Me.wav

Peak level 100.0 %
Track quality 100.0 %
Test CRC C5779788
Copy CRC C5779788
Copy OK

Track 12
Filename F:\STUFF\tip\Bill Evans - The Complete Bill Evans On Verve (1997) [FLAC] {18 CD Set}\Disc 13 of 18\12 - Alfie.wav

Peak level 82.0 %
Track quality 100.0 %
Test CRC A942F3C1
Copy CRC A942F3C1
Copy OK

Track 13
Filename F:\STUFF\tip\Bill Evans - The Complete Bill Evans On Verve (1997) [FLAC] {18 CD Set}\Disc 13 of 18\13 - Gone With The Wind.wav

Peak level 100.0 %
Track quality 100.0 %
Test CRC 35A80A9A
Copy CRC 35A80A9A
Copy OK

Track 14
Filename F:\STUFF\tip\Bill Evans - The Complete Bill Evans On Verve (1997) [FLAC] {18 CD Set}\Disc 13 of 18\14 - Emily.wav

Peak level 79.9 %
Track quality 100.0 %
Test CRC FFDFD02F
Copy CRC FFDFD02F
Copy OK

Track 15
Filename F:\STUFF\tip\Bill Evans - The Complete Bill Evans On Verve (1997) [FLAC] {18 CD Set}\Disc 13 of 18\15 - G Waltz.wav

Peak level 72.1 %
Track quality 100.0 %
Test CRC A8944419
Copy CRC A8944419
Copy OK

No errors occured


End of status report

EAC extraction logfile from 8. October 2005, 22:06 for CD
Bill Evans / Complete Bill Evans On Verve (Disc 14)

Used drive : LITE-ON COMBO SOHC-5235K Adapter: 0 ID: 1
Read mode : Secure with NO C2, accurate stream, disable cache
Read offset correction : 6
Overread into Lead-In and Lead-Out : No

Used output format : Internal WAV Routines
44.100 Hz; 16 Bit; Stereo

Other options :
Fill up missing offset samples with silence : Yes
Delete leading and trailing silent blocks : No
Native Win32 interface for Win NT & 2000


Track 1
Filename F:\STUFF\tip\Bill Evans - The Complete Bill Evans On Verve (1997) [FLAC] {18 CD Set}\Disc 14 of 18\01 - Wrap Up Your Troubles In Dreams.wav

Pre-gap length 0:00:02.00

Peak level 94.3 %
Track quality 99.9 %
Test CRC 652C9397
Copy CRC 652C9397
Copy OK

Track 2
Filename F:\STUFF\tip\Bill Evans - The Complete Bill Evans On Verve (1997) [FLAC] {18 CD Set}\Disc 14 of 18\02 - On Green Dolphin Street.wav

Peak level 86.7 %
Track quality 100.0 %
Test CRC D3004719
Copy CRC D3004719
Copy OK

Track 3
Filename F:\STUFF\tip\Bill Evans - The Complete Bill Evans On Verve (1997) [FLAC] {18 CD Set}\Disc 14 of 18\03 - G Waltz.wav

Pre-gap length 0:00:01.77

Peak level 62.4 %
Track quality 99.9 %
Test CRC 84E7522E
Copy CRC 84E7522E
Copy OK

Track 4
Filename F:\STUFF\tip\Bill Evans - The Complete Bill Evans On Verve (1997) [FLAC] {18 CD Set}\Disc 14 of 18\04 - You're Gonna Hear From Me.wav

Peak level 70.0 %
Track quality 100.0 %
Test CRC 2CB102D6
Copy CRC 2CB102D6
Copy OK

Track 5
Filename F:\STUFF\tip\Bill Evans - The Complete Bill Evans On Verve (1997) [FLAC] {18 CD Set}\Disc 14 of 18\05 - Wrap Up Your Troubles In Dreams.wav

Peak level 94.8 %
Track quality 99.9 %
Test CRC 8243593A
Copy CRC 8243593A
Copy OK

Track 6
Filename F:\STUFF\tip\Bill Evans - The Complete Bill Evans On Verve (1997) [FLAC] {18 CD Set}\Disc 14 of 18\06 - Gone With The Wind.wav

Peak level 96.1 %
Track quality 99.9 %
Test CRC 5A6AB1CE
Copy CRC 5A6AB1CE
Copy OK

Track 7
Filename F:\STUFF\tip\Bill Evans - The Complete Bill Evans On Verve (1997) [FLAC] {18 CD Set}\Disc 14 of 18\07 - Emily.wav

Peak level 60.7 %
Track quality 100.0 %
Test CRC 09510219
Copy CRC 09510219
Copy OK

Track 8
Filename F:\STUFF\tip\Bill Evans - The Complete Bill Evans On Verve (1997) [FLAC] {18 CD Set}\Disc 14 of 18\08 - G Waltz.wav

Peak level 59.4 %
Track quality 99.9 %
Test CRC 47CF95C1
Copy CRC 47CF95C1
Copy OK

Track 9
Filename F:\STUFF\tip\Bill Evans - The Complete Bill Evans On Verve (1997) [FLAC] {18 CD Set}\Disc 14 of 18\09 - Spoken Intro.wav

Pre-gap length 0:00:03.80

Peak level 39.9 %
Track quality 99.8 %
Test CRC 37DA770A
Copy CRC 37DA770A
Copy OK

Track 10
Filename F:\STUFF\tip\Bill Evans - The Complete Bill Evans On Verve (1997) [FLAC] {18 CD Set}\Disc 14 of 18\10 - One For Helen.wav

Peak level 88.3 %
Track quality 99.9 %
Test CRC ADBA9DCA
Copy CRC ADBA9DCA
Copy OK

Track 11
Filename F:\STUFF\tip\Bill Evans - The Complete Bill Evans On Verve (1997) [FLAC] {18 CD Set}\Disc 14 of 18\11 - A Sleepin Bee.wav

Peak level 88.2 %
Track quality 99.9 %
Test CRC FEEA436E
Copy CRC FEEA436E
Copy OK

Track 12
Filename F:\STUFF\tip\Bill Evans - The Complete Bill Evans On Verve (1997) [FLAC] {18 CD Set}\Disc 14 of 18\12 - Mother Of Earl.wav

Peak level 49.1 %
Track quality 99.9 %
Test CRC F5022B10
Copy CRC F5022B10
Copy OK

Track 13
Filename F:\STUFF\tip\Bill Evans - The Complete Bill Evans On Verve (1997) [FLAC] {18 CD Set}\Disc 14 of 18\13 - Nardis.wav

Peak level 75.2 %
Track quality 99.9 %
Test CRC E2549A10
Copy CRC E2549A10
Copy OK

Track 14
Filename F:\STUFF\tip\Bill Evans - The Complete Bill Evans On Verve (1997) [FLAC] {18 CD Set}\Disc 14 of 18\14 - Quiet Now.wav

Peak level 57.4 %
Track quality 99.9 %
Test CRC 60BD5A8C
Copy CRC 60BD5A8C
Copy OK

No errors occured


End of status report

EAC extraction logfile from 9. October 2005, 16:46 for CD
Bill Evans / Complete Bill Evans On Verve (Disc 15)

Used drive : PLEXTOR DVDR PX-716A Adapter: 0 ID: 0
Read mode : Secure with NO C2, accurate stream, disable cache
Read offset correction : 30
Overread into Lead-In and Lead-Out : No

Used output format : Internal WAV Routines
44.100 Hz; 16 Bit; Stereo

Other options :
Fill up missing offset samples with silence : Yes
Delete leading and trailing silent blocks : No
Native Win32 interface for Win NT & 2000


Track 1
Filename F:\STUFF\tip\Bill Evans - The Complete Bill Evans On Verve (1997) [FLAC] {18 CD Set}\Disc 15 of 18\01 - I Loves You Porgy.wav

Pre-gap length 0:00:02.00

Peak level 79.4 %
Track quality 100.0 %
Test CRC 44C63178
Copy CRC 44C63178
Copy OK

Track 2
Filename F:\STUFF\tip\Bill Evans - The Complete Bill Evans On Verve (1997) [FLAC] {18 CD Set}\Disc 15 of 18\02 - The Touch Of Your Lips.wav

Pre-gap length 0:00:03.00

Peak level 66.3 %
Track quality 100.0 %
Test CRC 7648D556
Copy CRC 7648D556
Copy OK

Track 3
Filename F:\STUFF\tip\Bill Evans - The Complete Bill Evans On Verve (1997) [FLAC] {18 CD Set}\Disc 15 of 18\03 - Embraceable You.wav

Peak level 97.0 %
Track quality 100.0 %
Test CRC BBDA47EA
Copy CRC BBDA47EA
Copy OK

Track 4
Filename F:\STUFF\tip\Bill Evans - The Complete Bill Evans On Verve (1997) [FLAC] {18 CD Set}\Disc 15 of 18\04 - Someday My Prince Will Come.wav

Peak level 99.9 %
Track quality 99.9 %
Test CRC 4CFCABE3
Copy CRC 4CFCABE3
Copy OK

Track 5
Filename F:\STUFF\tip\Bill Evans - The Complete Bill Evans On Verve (1997) [FLAC] {18 CD Set}\Disc 15 of 18\05 - Walkin' Up.wav

Peak level 100.0 %
Track quality 100.0 %
Test CRC 9E4220D1
Copy CRC 9E4220D1
Copy OK

Track 6
Filename F:\STUFF\tip\Bill Evans - The Complete Bill Evans On Verve (1997) [FLAC] {18 CD Set}\Disc 15 of 18\06 - Here's That Rainy Day.wav

Pre-gap length 0:00:02.80

Peak level 86.2 %
Track quality 100.0 %
Test CRC 338B47A2
Copy CRC 338B47A2
Copy OK

Track 7
Filename F:\STUFF\tip\Bill Evans - The Complete Bill Evans On Verve (1997) [FLAC] {18 CD Set}\Disc 15 of 18\07 - A Time For Love.wav

Pre-gap length 0:00:03.06

Peak level 92.2 %
Track quality 100.0 %
Test CRC EA3087CD
Copy CRC EA3087CD
Copy OK

Track 8
Filename F:\STUFF\tip\Bill Evans - The Complete Bill Evans On Verve (1997) [FLAC] {18 CD Set}\Disc 15 of 18\08 - Midnight Mood.wav

Pre-gap length 0:00:02.80

Peak level 87.5 %
Track quality 100.0 %
Test CRC 4E106B19
Copy CRC 4E106B19
Copy OK

Track 9
Filename F:\STUFF\tip\Bill Evans - The Complete Bill Evans On Verve (1997) [FLAC] {18 CD Set}\Disc 15 of 18\09 - On A Clear Day (You can see forever).wav

Pre-gap length 0:00:02.96

Peak level 94.5 %
Track quality 100.0 %
Test CRC 4B9A140F
Copy CRC 4B9A140F
Copy OK

Track 10
Filename F:\STUFF\tip\Bill Evans - The Complete Bill Evans On Verve (1997) [FLAC] {18 CD Set}\Disc 15 of 18\10 - Never Let Me Go.wav

Pre-gap length 0:00:04.10

Peak level 88.6 %
Track quality 100.0 %
Test CRC CC4F9421
Copy CRC CC4F9421
Copy OK

Track 11
Filename F:\STUFF\tip\Bill Evans - The Complete Bill Evans On Verve (1997) [FLAC] {18 CD Set}\Disc 15 of 18\11 - A Time For Love.wav

Pre-gap length 0:00:08.60

Peak level 89.1 %
Track quality 100.0 %
Test CRC D1922045
Copy CRC D1922045
Copy OK

Track 12
Filename F:\STUFF\tip\Bill Evans - The Complete Bill Evans On Verve (1997) [FLAC] {18 CD Set}\Disc 15 of 18\12 - Midnight Mood - All The Things You Are.wav

Pre-gap length 0:01:12.00

Peak level 89.1 %
Track quality 100.0 %
Test CRC FFFC4E20
Copy CRC FFFC4E20
Copy OK

No errors occured


End of status report

EAC extraction logfile from 9. October 2005, 18:06 for CD
Bill Evans / The Complete Bill Evans on Verve (Disc 16)

Used drive : LITE-ON COMBO SOHC-5235K Adapter: 0 ID: 1
Read mode : Secure with NO C2, accurate stream, disable cache
Read offset correction : 6
Overread into Lead-In and Lead-Out : No

Used output format : Internal WAV Routines
44.100 Hz; 16 Bit; Stereo

Other options :
Fill up missing offset samples with silence : Yes
Delete leading and trailing silent blocks : No
Native Win32 interface for Win NT & 2000


Track 1
Filename F:\STUFF\tip\Bill Evans - The Complete Bill Evans On Verve (1997) [FLAC] {18 CD Set}\Disc 16 of 18\01 - Straight, No Chaser.wav

Pre-gap length 0:00:02.00

Peak level 84.9 %
Track quality 100.0 %
Test CRC 74AFC298
Copy CRC 74AFC298
Copy OK

Track 2
Filename F:\STUFF\tip\Bill Evans - The Complete Bill Evans On Verve (1997) [FLAC] {18 CD Set}\Disc 16 of 18\02 - Lover Man.wav

Pre-gap length 0:00:02.53

Peak level 75.8 %
Track quality 99.9 %
Test CRC BA90410A
Copy CRC BA90410A
Copy OK

Track 3
Filename F:\STUFF\tip\Bill Evans - The Complete Bill Evans On Verve (1997) [FLAC] {18 CD Set}\Disc 16 of 18\03 - What's New.wav

Pre-gap length 0:00:01.89

Peak level 82.5 %
Track quality 100.0 %
Test CRC 2318D295
Copy CRC 2318D295
Copy OK

Track 4
Filename F:\STUFF\tip\Bill Evans - The Complete Bill Evans On Verve (1997) [FLAC] {18 CD Set}\Disc 16 of 18\04 - Autumn Leaves.wav

Pre-gap length 0:00:02.10

Peak level 95.6 %
Track quality 100.0 %
Test CRC 5AC62910
Copy CRC 5AC62910
Copy OK

Track 5
Filename F:\STUFF\tip\Bill Evans - The Complete Bill Evans On Verve (1997) [FLAC] {18 CD Set}\Disc 16 of 18\05 - Time Out for Chris.wav

Pre-gap length 0:00:02.30

Peak level 92.5 %
Track quality 99.9 %
Test CRC 5510134B
Copy CRC 5510134B
Copy OK

Track 6
Filename F:\STUFF\tip\Bill Evans - The Complete Bill Evans On Verve (1997) [FLAC] {18 CD Set}\Disc 16 of 18\06 - Spartacus Love Theme.wav

Pre-gap length 0:00:01.82

Peak level 74.3 %
Track quality 99.9 %
Test CRC BA595A6A
Copy CRC BA595A6A
Copy OK

Track 7
Filename F:\STUFF\tip\Bill Evans - The Complete Bill Evans On Verve (1997) [FLAC] {18 CD Set}\Disc 16 of 18\07 - So What.wav

Pre-gap length 0:00:01.84

Peak level 84.4 %
Track quality 99.9 %
Test CRC A852733B
Copy CRC A852733B
Copy OK

Track 8
Filename F:\STUFF\tip\Bill Evans - The Complete Bill Evans On Verve (1997) [FLAC] {18 CD Set}\Disc 16 of 18\08 - Why Did I Choose You.wav

Pre-gap length 0:00:06.96

Peak level 88.7 %
Track quality 100.0 %
Test CRC A8C7F661
Copy CRC A8C7F661
Copy OK

Track 9
Filename F:\STUFF\tip\Bill Evans - The Complete Bill Evans On Verve (1997) [FLAC] {18 CD Set}\Disc 16 of 18\09 - Why Did I Choose You.wav

Peak level 99.7 %
Track quality 99.8 %
Test CRC 18E53255
Copy CRC 18E53255
Copy OK

Track 10
Filename F:\STUFF\tip\Bill Evans - The Complete Bill Evans On Verve (1997) [FLAC] {18 CD Set}\Disc 16 of 18\10 - Why Did I Choose You.wav

Peak level 94.8 %
Track quality 100.0 %
Test CRC F1F8BA9F
Copy CRC F1F8BA9F
Copy OK

Track 11
Filename F:\STUFF\tip\Bill Evans - The Complete Bill Evans On Verve (1997) [FLAC] {18 CD Set}\Disc 16 of 18\11 - Why Did I Choose You.wav

Peak level 90.1 %
Track quality 100.0 %
Test CRC 6B91CA4A
Copy CRC 6B91CA4A
Copy OK

Track 12
Filename F:\STUFF\tip\Bill Evans - The Complete Bill Evans On Verve (1997) [FLAC] {18 CD Set}\Disc 16 of 18\12 - Why Did I Choose You.wav

Peak level 94.9 %
Track quality 99.9 %
Test CRC C9E3E0AF
Copy CRC C9E3E0AF
Copy OK

Track 13
Filename F:\STUFF\tip\Bill Evans - The Complete Bill Evans On Verve (1997) [FLAC] {18 CD Set}\Disc 16 of 18\13 - Why Did I Choose You.wav

Peak level 99.9 %
Track quality 99.9 %
Test CRC 3D276182
Copy CRC 3D276182
Copy OK

Track 14
Filename F:\STUFF\tip\Bill Evans - The Complete Bill Evans On Verve (1997) [FLAC] {18 CD Set}\Disc 16 of 18\14 - Why Did I Choose You.wav

Peak level 99.9 %
Track quality 100.0 %
Test CRC 34465CEF
Copy CRC 34465CEF
Copy OK

Track 15
Filename F:\STUFF\tip\Bill Evans - The Complete Bill Evans On Verve (1997) [FLAC] {18 CD Set}\Disc 16 of 18\15 - Why Did I Choose You.wav

Pre-gap length 0:00:00.90

Peak level 100.0 %
Track quality 99.8 %
Test CRC EC9E7F71
Copy CRC EC9E7F71
Copy OK

No errors occured


End of status report

EAC extraction logfile from 9. October 2005, 19:33 for CD
Bill Evans / Complete Bill Evans On Verve (Disc 17)

Used drive : PLEXTOR DVDR PX-716A Adapter: 0 ID: 0
Read mode : Secure with NO C2, accurate stream, disable cache
Read offset correction : 30
Overread into Lead-In and Lead-Out : No

Used output format : Internal WAV Routines
44.100 Hz; 16 Bit; Stereo

Other options :
Fill up missing offset samples with silence : Yes
Delete leading and trailing silent blocks : No
Native Win32 interface for Win NT & 2000


Track 1
Filename F:\STUFF\tip\Bill Evans - The Complete Bill Evans On Verve (1997) [FLAC] {18 CD Set}\Disc 17 of 18\01 - I'm All Smiles.wav

Pre-gap length 0:00:02.00

Peak level 73.0 %
Track quality 99.9 %
Test CRC 10E9CBE6
Copy CRC 10E9CBE6
Copy OK

Track 2
Filename F:\STUFF\tip\Bill Evans - The Complete Bill Evans On Verve (1997) [FLAC] {18 CD Set}\Disc 17 of 18\02 - Like Someone In Love.wav

Pre-gap length 0:00:02.77

Peak level 73.9 %
Track quality 99.9 %
Test CRC CF8FF7F2
Copy CRC CF8FF7F2
Copy OK

Track 3
Filename F:\STUFF\tip\Bill Evans - The Complete Bill Evans On Verve (1997) [FLAC] {18 CD Set}\Disc 17 of 18\03 - Children's Play Song.wav

Pre-gap length 0:00:03.13

Peak level 99.9 %
Track quality 100.0 %
Test CRC 8DD5587A
Copy CRC 8DD5587A
Copy OK

Track 4
Filename F:\STUFF\tip\Bill Evans - The Complete Bill Evans On Verve (1997) [FLAC] {18 CD Set}\Disc 17 of 18\04 - Soiree (ct).wav

Pre-gap length 0:00:05.44

Peak level 92.4 %
Track quality 100.0 %
Test CRC A4F04019
Copy CRC A4F04019
Copy OK

Track 5
Filename F:\STUFF\tip\Bill Evans - The Complete Bill Evans On Verve (1997) [FLAC] {18 CD Set}\Disc 17 of 18\05 - Soiree (mst).wav

Peak level 81.3 %
Track quality 100.0 %
Test CRC A65A9B73
Copy CRC A65A9B73
Copy OK

Track 6
Filename F:\STUFF\tip\Bill Evans - The Complete Bill Evans On Verve (1997) [FLAC] {18 CD Set}\Disc 17 of 18\06 - Soiree (ct).wav

Peak level 78.6 %
Track quality 100.0 %
Test CRC DCC21DBE
Copy CRC DCC21DBE
Copy OK

Track 7
Filename F:\STUFF\tip\Bill Evans - The Complete Bill Evans On Verve (1997) [FLAC] {18 CD Set}\Disc 17 of 18\07 - Lullaby For Helene (ct).wav

Pre-gap length 0:00:03.02

Peak level 72.4 %
Track quality 100.0 %
Test CRC BC74729C
Copy CRC BC74729C
Copy OK

Track 8
Filename F:\STUFF\tip\Bill Evans - The Complete Bill Evans On Verve (1997) [FLAC] {18 CD Set}\Disc 17 of 18\08 - Lullaby For Helene (ct).wav

Peak level 53.6 %
Track quality 100.0 %
Test CRC 9C5B53A8
Copy CRC 9C5B53A8
Copy OK

Track 9
Filename F:\STUFF\tip\Bill Evans - The Complete Bill Evans On Verve (1997) [FLAC] {18 CD Set}\Disc 17 of 18\09 - Lullaby For Helene (ct).wav

Peak level 78.3 %
Track quality 100.0 %
Test CRC CA639A56
Copy CRC CA639A56
Copy OK

Track 10
Filename F:\STUFF\tip\Bill Evans - The Complete Bill Evans On Verve (1997) [FLAC] {18 CD Set}\Disc 17 of 18\10 - Lullaby For Helene (mst).wav

Pre-gap length 0:00:01.70

Peak level 73.9 %
Track quality 100.0 %
Test CRC C641D2FC
Copy CRC C641D2FC
Copy OK

Track 11
Filename F:\STUFF\tip\Bill Evans - The Complete Bill Evans On Verve (1997) [FLAC] {18 CD Set}\Disc 17 of 18\11 - What Are You Doing For The Rest Of Your Life (ct).wav

Pre-gap length 0:00:01.76

Peak level 85.1 %
Track quality 100.0 %
Test CRC 16B76735
Copy CRC 16B76735
Copy OK

Track 12
Filename F:\STUFF\tip\Bill Evans - The Complete Bill Evans On Verve (1997) [FLAC] {18 CD Set}\Disc 17 of 18\12 - What Are You Doing For The Rest Of Your Life (ct).wav

Pre-gap length 0:00:01.80

Peak level 83.7 %
Track quality 100.0 %
Test CRC FEA64252
Copy CRC FEA64252
Copy OK

Track 13
Filename F:\STUFF\tip\Bill Evans - The Complete Bill Evans On Verve (1997) [FLAC] {18 CD Set}\Disc 17 of 18\13 - What Are You Doing For The Rest Of Your Life (ct).wav

Peak level 82.6 %
Track quality 100.0 %
Test CRC CFF891F1
Copy CRC CFF891F1
Copy OK

Track 14
Filename F:\STUFF\tip\Bill Evans - The Complete Bill Evans On Verve (1997) [FLAC] {18 CD Set}\Disc 17 of 18\14 - What Are You Doing For The Rest Of Your Life (mst).wav

Pre-gap length 0:00:15.84

Peak level 73.1 %
Track quality 100.0 %
Test CRC 44CA76F3
Copy CRC 44CA76F3
Copy OK

Track 15
Filename F:\STUFF\tip\Bill Evans - The Complete Bill Evans On Verve (1997) [FLAC] {18 CD Set}\Disc 17 of 18\15 - The Dolphin - Before (ct).wav

Pre-gap length 0:00:07.93

Peak level 60.6 %
Track quality 100.0 %
Test CRC 13D7D878
Copy CRC 13D7D878
Copy OK

Track 16
Filename F:\STUFF\tip\Bill Evans - The Complete Bill Evans On Verve (1997) [FLAC] {18 CD Set}\Disc 17 of 18\16 - The Dolphin - Before (ct).wav

Peak level 57.1 %
Track quality 99.9 %
Test CRC 6ADD5FCF
Copy CRC 6ADD5FCF
Copy OK

Track 17
Filename F:\STUFF\tip\Bill Evans - The Complete Bill Evans On Verve (1997) [FLAC] {18 CD Set}\Disc 17 of 18\17 - The Dolphin - Before (ct).wav

Peak level 57.8 %
Track quality 100.0 %
Test CRC 7C413CAE
Copy CRC 7C413CAE
Copy OK

Track 18
Filename F:\STUFF\tip\Bill Evans - The Complete Bill Evans On Verve (1997) [FLAC] {18 CD Set}\Disc 17 of 18\18 - The Dolphin - Before (ct).wav

Peak level 60.8 %
Track quality 100.0 %
Test CRC A42E8047
Copy CRC A42E8047
Copy OK

Track 19
Filename F:\STUFF\tip\Bill Evans - The Complete Bill Evans On Verve (1997) [FLAC] {18 CD Set}\Disc 17 of 18\19 - The Dolphin - Before (ct).wav

Peak level 59.5 %
Track quality 100.0 %
Test CRC 2DD90941
Copy CRC 2DD90941
Copy OK

Track 20
Filename F:\STUFF\tip\Bill Evans - The Complete Bill Evans On Verve (1997) [FLAC] {18 CD Set}\Disc 17 of 18\20 - The Dolphin - Before (ct).wav

Peak level 67.0 %
Track quality 100.0 %
Test CRC E63C21AA
Copy CRC E63C21AA
Copy OK

Track 21
Filename F:\STUFF\tip\Bill Evans - The Complete Bill Evans On Verve (1997) [FLAC] {18 CD Set}\Disc 17 of 18\21 - The Dolphin - Before (ct).wav

Peak level 54.6 %
Track quality 100.0 %
Test CRC C41FE330
Copy CRC C41FE330
Copy OK

No errors occured


End of status report

EAC extraction logfile from 9. October 2005, 19:49 for CD
Bill Evans / The Complete Bill Evans on Verve (Disc 18)

Used drive : LITE-ON COMBO SOHC-5235K Adapter: 0 ID: 1
Read mode : Secure with NO C2, accurate stream, disable cache
Read offset correction : 6
Overread into Lead-In and Lead-Out : No

Used output format : Internal WAV Routines
44.100 Hz; 16 Bit; Stereo

Other options :
Fill up missing offset samples with silence : Yes
Delete leading and trailing silent blocks : No
Native Win32 interface for Win NT & 2000


Track 1
Filename F:\STUFF\tip\Bill Evans - The Complete Bill Evans On Verve (1997) [FLAC] {18 CD Set}\Disc 18 of 18\01 - The Dolphin - Before.wav

Pre-gap length 0:00:02.00

Peak level 99.9 %
Track quality 99.9 %
Test CRC 30623990
Copy CRC 30623990
Copy OK

Track 2
Filename F:\STUFF\tip\Bill Evans - The Complete Bill Evans On Verve (1997) [FLAC] {18 CD Set}\Disc 18 of 18\02 - The Dolphin - After.wav

Pre-gap length 0:00:01.00

Peak level 96.6 %
Track quality 99.9 %
Test CRC E4519F92
Copy CRC E4519F92
Copy OK

Track 3
Filename F:\STUFF\tip\Bill Evans - The Complete Bill Evans On Verve (1997) [FLAC] {18 CD Set}\Disc 18 of 18\03 - Comrade Conrad.wav

Pre-gap length 0:00:09.82

Peak level 99.9 %
Track quality 99.9 %
Test CRC 6D570473
Copy CRC 6D570473
Copy OK

Track 4
Filename F:\STUFF\tip\Bill Evans - The Complete Bill Evans On Verve (1997) [FLAC] {18 CD Set}\Disc 18 of 18\04 - Comrade Conrad.wav

Peak level 72.9 %
Track quality 99.9 %
Test CRC E1C35B4E
Copy CRC E1C35B4E
Copy OK

Track 5
Filename F:\STUFF\tip\Bill Evans - The Complete Bill Evans On Verve (1997) [FLAC] {18 CD Set}\Disc 18 of 18\05 - Comrade Conrad.wav

Peak level 63.1 %
Track quality 99.9 %
Test CRC D43F1F6E
Copy CRC D43F1F6E
Copy OK

Track 6
Filename F:\STUFF\tip\Bill Evans - The Complete Bill Evans On Verve (1997) [FLAC] {18 CD Set}\Disc 18 of 18\06 - It Must Be Love.wav

Pre-gap length 0:00:10.46

Peak level 71.0 %
Track quality 100.0 %
Test CRC BA5A0B82
Copy CRC BA5A0B82
Copy OK

Track 7
Filename F:\STUFF\tip\Bill Evans - The Complete Bill Evans On Verve (1997) [FLAC] {18 CD Set}\Disc 18 of 18\07 - It Must Be Love.wav

Peak level 78.7 %
Track quality 100.0 %
Test CRC C648E9F1
Copy CRC C648E9F1
Copy OK

Track 8
Filename F:\STUFF\tip\Bill Evans - The Complete Bill Evans On Verve (1997) [FLAC] {18 CD Set}\Disc 18 of 18\08 - It Must Be Love.wav

Peak level 79.4 %
Track quality 99.9 %
Test CRC DB3C06CB
Copy CRC DB3C06CB
Copy OK

Track 9
Filename F:\STUFF\tip\Bill Evans - The Complete Bill Evans On Verve (1997) [FLAC] {18 CD Set}\Disc 18 of 18\09 - Spoken Introduction.wav

Pre-gap length 0:00:06.53

Peak level 53.7 %
Track quality 100.0 %
Test CRC DF5369CD
Copy CRC DF5369CD
Copy OK

Track 10
Filename F:\STUFF\tip\Bill Evans - The Complete Bill Evans On Verve (1997) [FLAC] {18 CD Set}\Disc 18 of 18\10 - Dancing in the Dark.wav

Peak level 100.0 %
Track quality 99.9 %
Test CRC B617FADB
Copy CRC B617FADB
Copy OK

Track 11
Filename F:\STUFF\tip\Bill Evans - The Complete Bill Evans On Verve (1997) [FLAC] {18 CD Set}\Disc 18 of 18\11 - I Love You.wav

Peak level 62.9 %
Track quality 100.0 %
Test CRC 258D24B4
Copy CRC 258D24B4
Copy OK

Track 12
Filename F:\STUFF\tip\Bill Evans - The Complete Bill Evans On Verve (1997) [FLAC] {18 CD Set}\Disc 18 of 18\12 - 'S Wonderful.wav

Peak level 63.0 %
Track quality 99.9 %
Test CRC 9618271D
Copy CRC 9618271D
Copy OK

No errors occured


End of status report


Bill Evans - The Complete Bill Evans on Verve (1997) [18CD Box Set] {Verve} [repost]

Bill Evans - The Complete Bill Evans on Verve (1997) [18CD Box Set] {Verve} [repost]

Bill Evans - The Complete Bill Evans on Verve (1997) [18CD Box Set] {Verve} [repost]


All thanks goes to the original releaser!