Subcategories

Bill Evans & Jim Hall - Intermodulation (1966) {2003 Japan Jazz The Best Series 24bit Remaster UCCU-5143}

Posted By: ruskaval
Bill Evans & Jim Hall - Intermodulation (1966) {2003 Japan Jazz The Best Series 24bit Remaster UCCU-5143}

Bill Evans & Jim Hall - Intermodulation (1966) {2003 Japan Jazz The Best Series 24bit Remaster UCCU-5143}
EAC rip (secure mode) | FLAC (tracks)+CUE+LOG -> 129 Mb | MP3 @320 -> 76 Mb
Full Artwork @ 300 dpi (png) -> 41 Mb | 5% repair rar | 24bit remaster
© 1966, 2003 Verve / Universal Japan | UCCU-5143 | Verve LP V6-8655
Jazz / Post Bop / Modal Music / Piano / Guitar

A magnificent follow up to the Undercurrent album from the team of Bill Evans and Jim Hall – and like that one, a set that features amazing interplay between piano and guitar! Hall's guitar has never sounded better – and in the airy company of Evans, it takes on many of the same qualities as on his famous late 50s recordings in the Jimmy Guiffre trio. Bill's work is great too – almost more tonally focused than before, with perfectly chosen notes that resonate beautifully in this very spare space. Titles include "Jazz Samba", "All Across The City", "Angel Face", and "Turn Out The Stars".
Bill Evans & Jim Hall - Intermodulation (1966) {2003 Japan Jazz The Best Series 24bit Remaster UCCU-5143}


Personnel:
Bill Evans - piano
Jim Hall - guitar

tracklist:
01 - I've Got You Under My Skin
02 - My Man's Gone Now
03 - Turn Out the Stars
04 - Angel Face
05 - Jazz Samba
06 - All Across the City

Exact Audio Copy V1.0 beta 2 from 29. April 2011

EAC extraction logfile from 3. August 2011, 20:42

Bill Evans & Jim Hall / Intermodulation

Used drive : HL-DT-STDVDRAM_GT30N Adapter: 1 ID: 0

Read mode : Secure
Utilize accurate stream : Yes
Defeat audio cache : Yes
Make use of C2 pointers : No

Read offset correction : 103
Overread into Lead-In and Lead-Out : No
Fill up missing offset samples with silence : Yes
Delete leading and trailing silent blocks : No
Null samples used in CRC calculations : Yes
Used interface : Native Win32 interface for Win NT & 2000
Gap handling : Appended to previous track

Used output format : User Defined Encoder
Selected bitrate : 640 kBit/s
Quality : High
Add ID3 tag : No
Command line compressor : C:\Program Files\Exact Audio Copyv1.0b2\Flac\flac.exe
Additional command line options : -8 -V -T "ARTIST=%artist%" -T "TITLE=%title%" -T "ALBUM=%albumtitle%" -T "DATE=%year%" -T "TRACKNUMBER=%tracknr%" -T "TOTALTRACKS=%numtracks%" -T "GENRE=%genre%" -T "ALBUMARTIST=%albumartist%" -T "ALBUM ARTIST=%albumartist%


TOC of the extracted CD

Track | Start | Length | Start sector | End sector
––––––––––––––––––––––––––––-
1 | 0:00.00 | 3:25.10 | 0 | 15384
2 | 3:25.10 | 6:47.65 | 15385 | 45974
3 | 10:13.00 | 7:36.00 | 45975 | 80174
4 | 17:49.00 | 6:36.12 | 80175 | 109886
5 | 24:25.12 | 3:10.00 | 109887 | 124136
6 | 27:35.12 | 4:51.13 | 124137 | 145974


Track 1

Filename I:\my upload\Bill Evans, Jim Hall - Intermodulation (1966) [FLAC] {Verve Records, Universal Japan 2003, 24bit Mastering, UCCU-5143}\01 - I've Got You Under My Skin.wav

Pre-gap length 0:00:02.00

Peak level 89.0 %
Extraction speed 1.2 X
Track quality 100.0 %
Test CRC C8E464DF
Copy CRC C8E464DF
Accurately ripped (confidence 4) [C68FDD36] (AR v1)
Copy OK

Track 2

Filename I:\my upload\Bill Evans, Jim Hall - Intermodulation (1966) [FLAC] {Verve Records, Universal Japan 2003, 24bit Mastering, UCCU-5143}\02 - My Man's Gone Now.wav

Pre-gap length 0:00:02.42

Peak level 89.1 %
Extraction speed 1.5 X
Track quality 100.0 %
Test CRC A4DE69CD
Copy CRC A4DE69CD
Accurately ripped (confidence 4) [3B0ABD8E] (AR v1)
Copy OK

Track 3

Filename I:\my upload\Bill Evans, Jim Hall - Intermodulation (1966) [FLAC] {Verve Records, Universal Japan 2003, 24bit Mastering, UCCU-5143}\03 - Turn Out the Stars.wav

Pre-gap length 0:00:02.37

Peak level 70.2 %
Extraction speed 1.7 X
Track quality 100.0 %
Test CRC 1B393D51
Copy CRC 1B393D51
Accurately ripped (confidence 4) [03697559] (AR v1)
Copy OK

Track 4

Filename I:\my upload\Bill Evans, Jim Hall - Intermodulation (1966) [FLAC] {Verve Records, Universal Japan 2003, 24bit Mastering, UCCU-5143}\04 - Angel Face.wav

Pre-gap length 0:00:01.57

Peak level 62.3 %
Extraction speed 1.9 X
Track quality 100.0 %
Test CRC 0F4AFCD9
Copy CRC 0F4AFCD9
Accurately ripped (confidence 4) [9F979554] (AR v1)
Copy OK

Track 5

Filename I:\my upload\Bill Evans, Jim Hall - Intermodulation (1966) [FLAC] {Verve Records, Universal Japan 2003, 24bit Mastering, UCCU-5143}\05 - Jazz Samba.wav

Pre-gap length 0:00:01.64

Peak level 43.9 %
Extraction speed 1.8 X
Track quality 100.0 %
Test CRC 376C5C15
Copy CRC 376C5C15
Accurately ripped (confidence 4) [2C4E08DE] (AR v1)
Copy OK

Track 6

Filename I:\my upload\Bill Evans, Jim Hall - Intermodulation (1966) [FLAC] {Verve Records, Universal Japan 2003, 24bit Mastering, UCCU-5143}\06 - All Across the City.wav

Pre-gap length 0:00:01.39

Peak level 52.2 %
Extraction speed 1.8 X
Track quality 99.9 %
Test CRC 517E7D47
Copy CRC 517E7D47
Accurately ripped (confidence 4) [D237D38E] (AR v1)
Copy OK


All tracks accurately ripped

No errors occurred

End of status report

==== Log checksum 1EF031C6C98F576FBC0B6E30A54F71C826D1957C8A1CCDFBC82290C459F210C8 ====


Bill Evans & Jim Hall - Intermodulation (1966) {2003 Japan Jazz The Best Series 24bit Remaster UCCU-5143}

Bill Evans & Jim Hall - Intermodulation (1966) {2003 Japan Jazz The Best Series 24bit Remaster UCCU-5143}


see more Japan Jazz The Best Series…