Subcategories

Billie Holiday - The Complete Commodore Recordings, 1939-1944 (1997) {2CD Set GRP Records CMD 24012}

Posted By: ruskaval
Billie Holiday - The Complete Commodore Recordings, 1939-1944 (1997) {2CD Set GRP Records CMD 24012}

Billie Holiday - The Complete Commodore Recordings, 1939-1944 (1997) {2CD Set GRP Records CMD 24012}
EAC rip (secure mode) | FLAC (tracks)+CUE+LOG -> 353 Mb | MP3 @320 -> 290 Mb
Full Artwork @ 300 dpi (jpg) -> 86 Mb | 5% repair rar
© 1939-44, 1997 Commodore / GRP Records | CMD 24012
Jazz / Vocal Jazz / Swing / Classic Female Blues / Traditional Pop

Throughout these sessions, a window into Billie Holiday's creative process is provided by the inclusion of alternate takes. Many of them are rare, although all have previously been issued on one or another of the labels that have interacted with Commodore over the years. As alternates for records on other labels also reveal, once Billie conceptualized her approach to a song, she seldom varied the basic template. She seemed to decide the best way to organize the expressive gifts at her disposal and "photograph" in her mind a musical image of how she would do the number. Once that image was in place, subsequent versions for the most part differed only in matters of nuance or animation.
Billie Holiday - The Complete Commodore Recordings, 1939-1944 (1997) {2CD Set GRP Records CMD 24012}

Billie Holiday recorded on four occasions for the Commodore label: once in 1939 (a date that resulted in "Fine and Mellow" and "Strange Fruit") and three sessions in 1944 (dates highlighted by "I Cover the Waterfront," "I'm Yours," "He's Funny That Way," "Billie's Blues," and "On the Sunny Side of the Street"). While the former session has Lady Day joined by a background octet that includes trumpeter Frankie Newton, the Eddie Heywood Sextet forms the nucleus of the later dates. This two-CD set has all 18 selections and no less than 27 alternate takes. Since the great majority of the performances are ballads, and with the exception of pianist Heywood, there are very few instrumental solos, there are no significant differences between the versions. Therefore, this set (as opposed to a single CD of the master takes), even though it is well-conceived, is strictly for completists.
Billie Holiday - The Complete Commodore Recordings, 1939-1944 (1997) {2CD Set GRP Records CMD 24012}

In 1939 Lewis Allan's song "Strange Fruit" was a focal point of Billie Holiday's performances, a grimly poetic evocation of lynching delivered with tremendous dramatic power. It was so pointed a protest, however, that Columbia refused to record it. Milt Gabler arranged to record it for Commodore, his independent jazz label, and when it was paired with the sensual "Fine and Mellow," it became Holiday's first hit record. This two-CD set includes all the takes from the 1939 and 1944 sessions, and they're some of Holiday's finest moments in the recording studio, combining first-rate material and sympathetic support that includes pianist Eddie Heywood, drummer Sid Catlett, and trombonist Vic Dickenson. Holiday's vocal and interpretive skills were seldom as beautifully balanced as they are here.
Billie Holiday - The Complete Commodore Recordings, 1939-1944 (1997) {2CD Set GRP Records CMD 24012}


Personnel:
Billie Holiday (vocals)
Tab Smith, Lem Davis (alto saxophone)
Stan Payne, Kenneth Holon (tenor saxophone)
Frankie Newton, Doc Cheatham, Freddie Webster (trumpet)
Vic Dickerson (trombone)
Sonny White, Eddie Heywood (piano)
Jimmy McLin, Teddy Walters (guitar)
John Williams, John Simmons (bass)
Eddie Dougherty, Sid Catlett (drums)

Recorded in New York, New York on April 20, 1939 and March 25, April 1 & April 8, 1944.
Includes liner notes by Stuart Nicholson.
Compilation producers: Orrin Keepnews, Joel Dorn.


Billie Holiday - The Complete Commodore Recordings, 1939-1944 (1997) {2CD Set GRP Records CMD 24012}


track list:

Disc 1

01. Strange Fruit [0:03:13.49]
02. Strange Fruit #2 [0:03:21.20]
03. Yesterdays [0:03:26.93]
04. Yesterdays #2 [0:03:00.77]
05. Fine and Mellow [0:03:18.40]
06. I Gotta Right to Sing the Blues [0:02:51.22]
07. I Gotta Right to Sing the Blues #2 [0:02:51.70]
08. How Am I to Know #3 [0:02:31.22]
09. How Am I to Know #2 [-1] [0:02:36.84]
10. How Am I to Know #2 [-2] [0:02:40.06]
11. How Am I to Know [0:02:47.00]
12. My Old Flame #3 [0:03:21.82]
13. My Old Flame [take 2] [0:03:07.04]
14. My Old Flame #2 [0:03:12.82]
15. My Old Flame [0:03:05.13]
16. I'll Get By (As Long As I Have You) [0:03:01.26]
17. I'l Get By #2 [0:03:00.73]
18. I Cover the Waterfront #3 [0:03:52.26]
19. I Cover the Waterfront #2 [0:03:44.64]
20. I Cover the Waterfront [-1] [0:03:24.09]
21. I Cover the Waterfront [0:03:33.04]
22. I'll Be Seeing You #3 [0:03:39.69]
23. I'll Be Seeing You [0:03:33.37]
24. I'll Be Seeing You #2 [0:03:27.13]

Billie Holiday - The Complete Commodore Recordings, 1939-1944 (1997) {2CD Set GRP Records CMD 24012}


Disc 2
01. I'm Yours #3 [0:03:14.17]
02. I'm Yours #2 [0:03:25.42]
03. I'm Yours [0:03:18.86]
04. Embraceable You #3 [0:03:15.93]
05. Embraceable You [0:03:18.30]
06. Embraceable You #2 [0:03:14.69]
07. As Time Goes By [0:03:14.57]
08. As Time Goes By #2 [0:03:17.00]
09. He's Funny That Way #2 [0:03:34.89]
10. He's Funny That Way [take 2A] [0:03:17.57]
11. He's Funny That Way [0:03:18.02]
12. He's Funny That Way #4 [0:03:05.90]
13. He's Funny That Way #3 [0:03:05.29]
14. Lover, Come Back to Me [-1] [0:03:25.46]
15. Lover, Come Back to Me #3 [0:03:16.90]
16. Billie's Blues #2 [0:03:30.60]
17. Billie's Blues #3 [0:02:55.60]
18. Lover, Come Back to Me [0:03:22.46]
19. Billie's Blues [0:03:10.09]
20. On the Sunny Side of the Street [0:03:04.77]
21. Lover, Come Back to Me #2 [0:03:18.26]

Billie Holiday - The Complete Commodore Recordings, 1939-1944 (1997) {2CD Set GRP Records CMD 24012}


Exact Audio Copy V0.99 prebeta 5 from 4. May 2009

EAC extraction logfile from 3. July 2009, 20:03

Billie Holiday / The Complete Commodore Recordings - Disc 1

Used drive : LITE-ON CD-RW SOHR-5238S Adapter: 5 ID: 3

Read mode : Secure
Utilize accurate stream : Yes
Defeat audio cache : Yes
Make use of C2 pointers : No

Read offset correction : 6
Overread into Lead-In and Lead-Out : No
Fill up missing offset samples with silence : Yes
Delete leading and trailing silent blocks : No
Null samples used in CRC calculations : Yes
Used interface : Installed external ASPI interface
Gap handling : Appended to previous track

Used output format : Internal WAV Routines
Sample format : 44.100 Hz; 16 Bit; Stereo


TOC of the extracted CD

Track | Start | Length | Start sector | End sector
––––––––––––––––––––––––––––-
1 | 0:00.00 | 3:13.37 | 0 | 14511
2 | 3:13.37 | 3:21.15 | 14512 | 29601
3 | 6:34.52 | 3:26.70 | 29602 | 45121
4 | 10:01.47 | 3:00.58 | 45122 | 58679
5 | 13:02.30 | 3:18.30 | 58680 | 73559
6 | 16:20.60 | 2:51.17 | 73560 | 86401
7 | 19:12.02 | 2:51.53 | 86402 | 99279
8 | 22:03.55 | 2:31.17 | 99280 | 110621
9 | 24:34.72 | 2:36.63 | 110622 | 122384
10 | 27:11.60 | 2:40.05 | 122385 | 134389
11 | 29:51.65 | 2:47.00 | 134390 | 146914
12 | 32:38.65 | 3:21.62 | 146915 | 162051
13 | 36:00.52 | 3:07.03 | 162052 | 176079
14 | 39:07.55 | 3:12.62 | 176080 | 190541
15 | 42:20.42 | 3:05.10 | 190542 | 204426
16 | 45:25.52 | 3:01.20 | 204427 | 218021
17 | 48:26.72 | 3:00.55 | 218022 | 231576
18 | 51:27.52 | 3:52.20 | 231577 | 248996
19 | 55:19.72 | 3:44.48 | 248997 | 265844
20 | 59:04.45 | 3:24.07 | 265845 | 281151
21 | 62:28.52 | 3:33.03 | 281152 | 297129
22 | 66:01.55 | 3:39.52 | 297130 | 313606
23 | 69:41.32 | 3:33.28 | 313607 | 329609
24 | 73:14.60 | 3:27.10 | 329610 | 345144


Track 1

Filename F:\eac\Billie Commodore\D1\01 - Strange Fruit.wav

Pre-gap length 0:00:02.00

Peak level 98.8 %
Track quality 100.0 %
Test CRC 6C62F719
Copy CRC 6C62F719
Cannot be verified as accurate (confidence 7) [F94AB745], AccurateRip returned [60E56B4D]
Copy OK

Track 2

Filename F:\eac\Billie Commodore\D1\02 - Strange Fruit #2.wav

Pre-gap length 0:00:02.73

Peak level 99.9 %
Track quality 100.0 %
Test CRC 5AA79790
Copy CRC 5AA79790
Cannot be verified as accurate (confidence 7) [A99EC724], AccurateRip returned [D314F0A2]
Copy OK

Track 3

Filename F:\eac\Billie Commodore\D1\03 - Yesterdays.wav

Pre-gap length 0:00:02.73

Peak level 95.8 %
Track quality 100.0 %
Test CRC CDEAECBD
Copy CRC CDEAECBD
Cannot be verified as accurate (confidence 8) [3E4DFAAB], AccurateRip returned [1A680411]
Copy OK

Track 4

Filename F:\eac\Billie Commodore\D1\04 - Yesterdays #2.wav

Pre-gap length 0:00:02.66

Peak level 100.0 %
Track quality 100.0 %
Test CRC 84BD1607
Copy CRC 84BD1607
Cannot be verified as accurate (confidence 7) [F9327257], AccurateRip returned [77F24133]
Copy OK

Track 5

Filename F:\eac\Billie Commodore\D1\05 - Fine and Mellow.wav

Pre-gap length 0:00:02.74

Peak level 70.7 %
Track quality 100.0 %
Test CRC 27CB692A
Copy CRC 27CB692A
Cannot be verified as accurate (confidence 8) [7E0026A2], AccurateRip returned [5C73DE32]
Copy OK

Track 6

Filename F:\eac\Billie Commodore\D1\06 - I Gotta Right to Sing the Blues.wav

Pre-gap length 0:00:02.64

Peak level 74.7 %
Track quality 100.0 %
Test CRC E4CEAB52
Copy CRC E4CEAB52
Cannot be verified as accurate (confidence 8) [37E7A317], AccurateRip returned [9CECE1B1]
Copy OK

Track 7

Filename F:\eac\Billie Commodore\D1\07 - I Gotta Right to Sing the Blues #2.wav

Peak level 95.8 %
Track quality 100.0 %
Test CRC 42F73CC1
Copy CRC 42F73CC1
Cannot be verified as accurate (confidence 7) [91C0515B], AccurateRip returned [BD8504D9]
Copy OK

Track 8

Filename F:\eac\Billie Commodore\D1\08 - How Am I to Know #3.wav

Pre-gap length 0:00:02.60

Peak level 94.3 %
Track quality 100.0 %
Test CRC B57635C9
Copy CRC B57635C9
Cannot be verified as accurate (confidence 7) [25B9026C], AccurateRip returned [43BEEEC8]
Copy OK

Track 9

Filename F:\eac\Billie Commodore\D1\09 - How Am I to Know #2 [-1].wav

Pre-gap length 0:00:02.56

Peak level 85.7 %
Track quality 100.0 %
Test CRC 8F8C2015
Copy CRC 8F8C2015
Cannot be verified as accurate (confidence 7) [F2DCA8DE], AccurateRip returned [A1931D06]
Copy OK

Track 10

Filename F:\eac\Billie Commodore\D1\10 - How Am I to Know #2 [-2].wav

Peak level 89.3 %
Track quality 99.9 %
Test CRC 1082D699
Copy CRC 1082D699
Cannot be verified as accurate (confidence 7) [584D8114], AccurateRip returned [B2C1BEEA]
Copy OK

Track 11

Filename F:\eac\Billie Commodore\D1\11 - How Am I to Know.wav

Pre-gap length 0:00:02.70

Peak level 92.5 %
Track quality 100.0 %
Test CRC 743ACD6F
Copy CRC 743ACD6F
Cannot be verified as accurate (confidence 8) [41FE4315], AccurateRip returned [9E5646A7]
Copy OK

Track 12

Filename F:\eac\Billie Commodore\D1\12 - My Old Flame #3.wav

Pre-gap length 0:00:02.64

Peak level 92.6 %
Track quality 100.0 %
Test CRC AD413CD7
Copy CRC AD413CD7
Cannot be verified as accurate (confidence 7) [62E4F121], AccurateRip returned [1906E4CB]
Copy OK

Track 13

Filename F:\eac\Billie Commodore\D1\13 - My Old Flame [take 2].wav

Pre-gap length 0:00:02.56

Peak level 95.4 %
Track quality 100.0 %
Test CRC 93CBB277
Copy CRC 93CBB277
Cannot be verified as accurate (confidence 7) [EF351BF8], AccurateRip returned [1EB5F086]
Copy OK

Track 14

Filename F:\eac\Billie Commodore\D1\14 - My Old Flame #2.wav

Pre-gap length 0:00:02.53

Peak level 83.9 %
Track quality 100.0 %
Test CRC 542C83A9
Copy CRC 542C83A9
Cannot be verified as accurate (confidence 7) [B110EC8A], AccurateRip returned [86D7A858]
Copy OK

Track 15

Filename F:\eac\Billie Commodore\D1\15 - My Old Flame.wav

Pre-gap length 0:00:02.60

Peak level 89.1 %
Track quality 100.0 %
Test CRC 463F1643
Copy CRC 463F1643
Cannot be verified as accurate (confidence 7) [922AA243], AccurateRip returned [66D91FBD]
Copy OK

Track 16

Filename F:\eac\Billie Commodore\D1\16 - I'll Get By (As Long As I Have You).wav

Pre-gap length 0:00:02.60

Peak level 82.9 %
Track quality 100.0 %
Test CRC EBD4EFD0
Copy CRC EBD4EFD0
Cannot be verified as accurate (confidence 8) [0E065524], AccurateRip returned [9F3B5052]
Copy OK

Track 17

Filename F:\eac\Billie Commodore\D1\17 - I'l Get By #2.wav

Pre-gap length 0:00:02.62

Peak level 84.5 %
Track quality 100.0 %
Test CRC E72732BC
Copy CRC E72732BC
Cannot be verified as accurate (confidence 7) [ECD2BF55], AccurateRip returned [A87518AD]
Copy OK

Track 18

Filename F:\eac\Billie Commodore\D1\18 - I Cover the Waterfront #3.wav

Pre-gap length 0:00:02.62

Peak level 100.0 %
Track quality 100.0 %
Test CRC 523E48BB
Copy CRC 523E48BB
Cannot be verified as accurate (confidence 7) [E3BEF9F5], AccurateRip returned [9B4427F5]
Copy OK

Track 19

Filename F:\eac\Billie Commodore\D1\19 - I Cover the Waterfront #2.wav

Pre-gap length 0:00:02.60

Peak level 100.0 %
Track quality 100.0 %
Test CRC 73882B88
Copy CRC 73882B88
Cannot be verified as accurate (confidence 7) [1897E7D2], AccurateRip returned [61E198FC]
Copy OK

Track 20

Filename F:\eac\Billie Commodore\D1\20 - I Cover the Waterfront [-1].wav

Pre-gap length 0:00:02.57

Peak level 85.9 %
Track quality 100.0 %
Test CRC 69EBF41E
Copy CRC 69EBF41E
Cannot be verified as accurate (confidence 7) [EB1E3E9C], AccurateRip returned [CD62E99E]
Copy OK

Track 21

Filename F:\eac\Billie Commodore\D1\21 - I Cover the Waterfront.wav

Pre-gap length 0:00:02.53

Peak level 97.0 %
Track quality 100.0 %
Test CRC C6588D62
Copy CRC C6588D62
Cannot be verified as accurate (confidence 8) [D0C3E75B], AccurateRip returned [5E7CBBF5]
Copy OK

Track 22

Filename F:\eac\Billie Commodore\D1\22 - I'll Be Seeing You #3.wav

Pre-gap length 0:00:02.60

Peak level 100.0 %
Track quality 100.0 %
Test CRC DF08F2DA
Copy CRC DF08F2DA
Cannot be verified as accurate (confidence 7) [C76657B1], AccurateRip returned [0DF93085]
Copy OK

Track 23

Filename F:\eac\Billie Commodore\D1\23 - I'll Be Seeing You.wav

Pre-gap length 0:00:02.56

Peak level 100.0 %
Track quality 100.0 %
Test CRC 40235598
Copy CRC 40235598
Cannot be verified as accurate (confidence 8) [326BFB33], AccurateRip returned [75FED451]
Copy OK

Track 24

Filename F:\eac\Billie Commodore\D1\24 - I'll Be Seeing You #2.wav

Pre-gap length 0:00:02.60

Peak level 97.0 %
Track quality 100.0 %
Test CRC FA4889AA
Copy CRC FA4889AA
Cannot be verified as accurate (confidence 7) [FC9E4032], AccurateRip returned [EF56A5A2]
Copy OK


No tracks could be verified as accurate
You may have a different pressing from the one(s) in the database

No errors occurred

End of status report





Exact Audio Copy V0.99 prebeta 5 from 4. May 2009

EAC extraction logfile from 4. July 2009, 6:53

Billie Holiday / The Complete Commodore Recordings - Disc 2

Used drive : LITE-ON CD-RW SOHR-5238S Adapter: 5 ID: 3

Read mode : Secure
Utilize accurate stream : Yes
Defeat audio cache : Yes
Make use of C2 pointers : No

Read offset correction : 6
Overread into Lead-In and Lead-Out : No
Fill up missing offset samples with silence : Yes
Delete leading and trailing silent blocks : No
Null samples used in CRC calculations : Yes
Used interface : Installed external ASPI interface
Gap handling : Appended to previous track

Used output format : Internal WAV Routines
Sample format : 44.100 Hz; 16 Bit; Stereo


TOC of the extracted CD

Track | Start | Length | Start sector | End sector
––––––––––––––––––––––––––––-
1 | 0:00.32 | 3:14.13 | 32 | 14594
2 | 3:14.45 | 3:25.32 | 14595 | 30001
3 | 6:40.02 | 3:18.65 | 30002 | 44916
4 | 9:58.67 | 3:15.70 | 44917 | 59611
5 | 13:14.62 | 3:18.23 | 59612 | 74484
6 | 16:33.10 | 3:14.52 | 74485 | 89086
7 | 19:47.62 | 3:14.43 | 89087 | 103679
8 | 23:02.30 | 3:17.00 | 103680 | 118454
9 | 26:19.30 | 3:34.67 | 118455 | 134571
10 | 29:54.22 | 3:17.43 | 134572 | 149389
11 | 33:11.65 | 3:18.02 | 149390 | 164241
12 | 36:29.67 | 3:05.68 | 164242 | 178184
13 | 39:35.60 | 3:05.22 | 178185 | 192081
14 | 42:41.07 | 3:25.35 | 192082 | 207491
15 | 46:06.42 | 3:16.68 | 207492 | 222259
16 | 49:23.35 | 3:30.45 | 222260 | 238054
17 | 52:54.05 | 2:55.45 | 238055 | 251224
18 | 55:49.50 | 3:22.35 | 251225 | 266409
19 | 59:12.10 | 3:10.07 | 266410 | 280666
20 | 62:22.17 | 3:04.58 | 280667 | 294524
21 | 65:27.00 | 3:18.20 | 294525 | 309394


Track 1

Filename F:\eac\Billie Commodore\D2\01 - I'm Yours #3.wav

Pre-gap length 0:00:02.42

Peak level 87.9 %
Track quality 100.0 %
Test CRC 45D57240
Copy CRC 45D57240
Track not present in AccurateRip database
Copy OK

Track 2

Filename F:\eac\Billie Commodore\D2\02 - I'm Yours #2.wav

Pre-gap length 0:00:02.66

Peak level 100.0 %
Track quality 100.0 %
Test CRC CD64A879
Copy CRC CD64A879
Track not present in AccurateRip database
Copy OK

Track 3

Filename F:\eac\Billie Commodore\D2\03 - I'm Yours.wav

Pre-gap length 0:00:02.69

Peak level 90.4 %
Track quality 100.0 %
Test CRC 3CBE6FC5
Copy CRC 3CBE6FC5
Track not present in AccurateRip database
Copy OK

Track 4

Filename F:\eac\Billie Commodore\D2\04 - Embraceable You #3.wav

Pre-gap length 0:00:02.60

Peak level 87.7 %
Track quality 100.0 %
Test CRC 76E52A11
Copy CRC 76E52A11
Track not present in AccurateRip database
Copy OK

Track 5

Filename F:\eac\Billie Commodore\D2\05 - Embraceable You.wav

Pre-gap length 0:00:02.56

Peak level 86.9 %
Track quality 100.0 %
Test CRC EA53EB13
Copy CRC EA53EB13
Track not present in AccurateRip database
Copy OK

Track 6

Filename F:\eac\Billie Commodore\D2\06 - Embraceable You #2.wav

Pre-gap length 0:00:02.57

Peak level 95.5 %
Track quality 100.0 %
Test CRC A5DE6E9C
Copy CRC A5DE6E9C
Track not present in AccurateRip database
Copy OK

Track 7

Filename F:\eac\Billie Commodore\D2\07 - As Time Goes By.wav

Pre-gap length 0:00:02.69

Peak level 90.8 %
Track quality 99.9 %
Test CRC 68B62F4F
Copy CRC 68B62F4F
Track not present in AccurateRip database
Copy OK

Track 8

Filename F:\eac\Billie Commodore\D2\08 - As Time Goes By #2.wav

Pre-gap length 0:00:02.64

Peak level 91.0 %
Track quality 100.0 %
Test CRC 9F2514B1
Copy CRC 9F2514B1
Track not present in AccurateRip database
Copy OK

Track 9

Filename F:\eac\Billie Commodore\D2\09 - He's Funny That Way #2.wav

Pre-gap length 0:00:02.44

Peak level 93.9 %
Track quality 100.0 %
Test CRC 9A55025C
Copy CRC 9A55025C
Track not present in AccurateRip database
Copy OK

Track 10

Filename F:\eac\Billie Commodore\D2\10 - He's Funny That Way [take 2A].wav

Pre-gap length 0:00:02.56

Peak level 91.3 %
Track quality 99.9 %
Test CRC ECF42710
Copy CRC ECF42710
Track not present in AccurateRip database
Copy OK

Track 11

Filename F:\eac\Billie Commodore\D2\11 - He's Funny That Way.wav

Pre-gap length 0:00:02.57

Peak level 81.9 %
Track quality 100.0 %
Test CRC 1B13EB26
Copy CRC 1B13EB26
Track not present in AccurateRip database
Copy OK

Track 12

Filename F:\eac\Billie Commodore\D2\12 - He's Funny That Way #4.wav

Pre-gap length 0:00:02.66

Peak level 89.1 %
Track quality 100.0 %
Test CRC 3BE9CD6D
Copy CRC 3BE9CD6D
Track not present in AccurateRip database
Copy OK

Track 13

Filename F:\eac\Billie Commodore\D2\13 - He's Funny That Way #3.wav

Pre-gap length 0:00:02.57

Peak level 78.2 %
Track quality 99.9 %
Test CRC F6792409
Copy CRC F6792409
Track not present in AccurateRip database
Copy OK

Track 14

Filename F:\eac\Billie Commodore\D2\14 - Lover, Come Back to Me [-1].wav

Pre-gap length 0:00:02.56

Peak level 94.6 %
Track quality 100.0 %
Test CRC FDFEFB6E
Copy CRC FDFEFB6E
Track not present in AccurateRip database
Copy OK

Track 15

Filename F:\eac\Billie Commodore\D2\15 - Lover, Come Back to Me #3.wav

Pre-gap length 0:00:02.56

Peak level 94.0 %
Track quality 99.9 %
Test CRC 357FBDAC
Copy CRC 357FBDAC
Track not present in AccurateRip database
Copy OK

Track 16

Filename F:\eac\Billie Commodore\D2\16 - Billie's Blues #2.wav

Pre-gap length 0:00:02.57

Peak level 90.1 %
Track quality 100.0 %
Test CRC 39536512
Copy CRC 39536512
Track not present in AccurateRip database
Copy OK

Track 17

Filename F:\eac\Billie Commodore\D2\17 - Billie's Blues #3.wav

Pre-gap length 0:00:02.60

Peak level 100.0 %
Track quality 100.0 %
Test CRC 8FCEEF7D
Copy CRC 8FCEEF7D
Track not present in AccurateRip database
Copy OK

Track 18

Filename F:\eac\Billie Commodore\D2\18 - Lover, Come Back to Me.wav

Pre-gap length 0:00:02.46

Peak level 100.0 %
Track quality 100.0 %
Test CRC 36B51821
Copy CRC 36B51821
Track not present in AccurateRip database
Copy OK

Track 19

Filename F:\eac\Billie Commodore\D2\19 - Billie's Blues.wav

Pre-gap length 0:00:02.60

Peak level 100.0 %
Track quality 100.0 %
Test CRC 41012DDE
Copy CRC 41012DDE
Track not present in AccurateRip database
Copy OK

Track 20

Filename F:\eac\Billie Commodore\D2\20 - On the Sunny Side of the Street.wav

Pre-gap length 0:00:02.60

Peak level 95.2 %
Track quality 100.0 %
Test CRC 5C0BE088
Copy CRC 5C0BE088
Track not present in AccurateRip database
Copy OK

Track 21

Filename F:\eac\Billie Commodore\D2\21 - Lover, Come Back to Me #2.wav

Pre-gap length 0:00:02.57

Peak level 100.0 %
Track quality 99.9 %
Test CRC EBB74A77
Copy CRC EBB74A77
Track not present in AccurateRip database
Copy OK


None of the tracks are present in the AccurateRip database

No errors occurred

End of status report


Billie Holiday - The Complete Commodore Recordings, 1939-1944 (1997) {2CD Set GRP Records CMD 24012}


see also:
Billie Holiday - The Complete Billie Holiday On Verve 1945-1959 (1992) [10CD Box Set] {Verve-PolyGram}



===