Tags
Language
Tags
March 2024
Su Mo Tu We Th Fr Sa
25 26 27 28 29 1 2
3 4 5 6 7 8 9
10 11 12 13 14 15 16
17 18 19 20 21 22 23
24 25 26 27 28 29 30
31 1 2 3 4 5 6

Billie Holiday - The Rough Guide to Billie Holiday (Birth Of A Legend) (2019)

Posted By: delpotro
Billie Holiday - The Rough Guide to Billie Holiday (Birth Of A Legend) (2019)

Billie Holiday - The Rough Guide to Billie Holiday (Birth Of A Legend) (2019)
EAC Rip | FLAC (tracks+log+.cue) - 163 Mb | MP3 CBR 320 kbps - 180 Mb | 01:16:43
Vocal Jazz, Swing | Label: Music Rough Guides, World Music Network

Arguably the most iconic and lastingly influential jazz singer of all time, Billie Holiday expressed an incredible depth of emotion that spoke of hard times and injustice as well as triumph. With accompaniment by some of the finest bands of the era, these classic tracks were recorded during her creative heyday when her voice was at its potent best.

Ine night in 1939, Billie Holiday stood on stage in New York City and sang for the first time a song that may be the most harrowing ever written. A lament for the racist lynchings which were still commonplace across America’s Deep South, an audible gasp went up from the racially integrated audience as she sang:

Southern trees bear strange fruit
Blood on the leaves and blood at the root
Black bodies swinging in the southern breeze
Strange fruit hanging from the poplar trees

The shocking lyrics and the searing pain which is evident in Holiday’s voice, make “Strange Fruit” unlike anything else in popular music. When she performed “Strange Fruit” live, she closed her show with the song for there was nothing that could follow. Bar staff were ordered stop serving and the room was darkened except for a single spotlight on Holiday's face, as she stood with eyes closed, as if evoking a prayer.

“Strange Fruit” has since been hailed as the song that birthed the civil rights movement and in 1999 Time magazine named it "Best Song of the 20th Century”. The song also seemed to sum up Holiday’s life. “Strange Fruit” described a tragedy but was an artistic triumph, just as the singer herself transcended early poverty, addiction, brutal treatment by the men in her life and institutionalised racism to become a dazzling talent and one of the most expressive singers of all time. “Strange Fruit” closes this collection in tribute to the way Holiday performed the song in concert. Yet as the other selections on this disc show, it represented only one facet of her artistry.

Whether she was performing blues, jazz, Tin Pan Alley pop, Broadway show tunes or European cabaret songs, Billie Holiday had a way of making every song she sang sound like her own uniquely personal property.

Born Eleanora Fagan on April 7, 1915 in Philadelphia, the daughter of an unwed teenage couple, not long after her birth, her father Clarence Holiday (whose surname she would later adopt) abandoned his family and she was largely raised by relatives. By the age of nine she had been sent to reform school and her formal education ended when she was 11. By 1929 she was living in Harlem with her mother and was working as a prostitute. Following a police raid she was sent to the workhouse. On her release she began singing in nightclubs and made her first recordings in 1933, after being discovered by Columbia executive John Hammond, who described her as the first female vocalist he’d ever heard who could sing “like an improvising jazz genius."

The material included in this collection was recorded in the 1930s and 1940s when her voice was at its most potent. She is accompanied by some of the finest bands of the era, led by Teddy Wilson, Count Basie, Eddie Heywood, Paul Whiteman, Benny Carter, Artie Shaw and Sy Oliver as well as great musicians including the saxophonist Lester Young (who named her ‘Lady Day’) and Louis Armstrong (with whom she duets delightfully on “My Sweet Hunk O’ Trash”).

She died in 1959 at the age of 44, from cirrhosis of the liver and heart disease caused by her chronic drinking and drug addiction. She had been swindled out of her earnings and was almost penniless and even as she lay on her death bed she was arrested for possession of narcotics and a police guard placed in her room. To the end the personal tragedy of her life and the genius of her singing seemed to be intertwined.
Tracklist:
1. Good Morning Heartache (03:06)
2. Body And Soul (02:54)
3. I Loves You Porgy (02:53)
4. Now They Call It Swing (02:56)
5. I Hear Music (02:39)
6. You're My Thrill (03:21)
7. All Of Me (02:58)
8. My Man (02:59)
9. Until The Real Thing Comes Along (03:07)
10. The Very Thought Of You (02:42)
11. Fine And Mellow (03:14)
12. I Gotta Right To Sing The Blues (02:49)
13. Trav'lin' Light (03:13)
14. Swing Brother Swing (02:53)
15. St. Louis Blues (02:49)
16. You Go To My Head (02:50)
17. Embraceable You (03:14)
18. Any Old Time (03:10)
19. As Time Goes By (03:09)
20. He's Funny That Way (02:37)
21. Love, Come Back To Me (03:17)
22. I'm Yours (03:14)
23. My Sweet Hunk O'Trash (03:18)
24. Can't Help Lovin' Dat Man (03:11)
25. Strange Fruit (03:10)

Exact Audio Copy V1.3 from 2. September 2016

EAC extraction logfile from 21. August 2020, 15:24

Billie Holiday / The Rough Guide to Billie Holiday

Used drive : PLEXTOR PX-891SAF Adapter: 1 ID: 0

Read mode : Secure
Utilize accurate stream : Yes
Defeat audio cache : Yes
Make use of C2 pointers : No

Read offset correction : 6
Overread into Lead-In and Lead-Out : No
Fill up missing offset samples with silence : Yes
Delete leading and trailing silent blocks : No
Null samples used in CRC calculations : Yes
Used interface : Native Win32 interface for Win NT & 2000
Gap handling : Appended to previous track

Used output format : User Defined Encoder
Selected bitrate : 1024 kBit/s
Quality : High
Add ID3 tag : No
Command line compressor : C:\Program Files (x86)\Exact Audio Copy\Flac\flac.exe
Additional command line options : -8 -V -T "ARTIST=%artist%" -T "TITLE=%title%" -T "ALBUM=%albumtitle%" -T "DATE=%year%" -T "TRACKNUMBER=%tracknr%" -T "GENRE=%genre%" -T "PERFORMER=%albuminterpret%" -T "COMPOSER=%composer%" %haslyrics%–tag-from-file=LYRICS="%lyricsfile%"%haslyrics% -T "ALBUMARTIST=%albumartist%" -T "DISCNUMBER=%cdnumber%" -T "TOTALDISCS=%totalcds%" -T "TOTALTRACKS=%numtracks%" -T "COMMENT=%comment%" %source% -o %dest%


TOC of the extracted CD

Track | Start | Length | Start sector | End sector
––––––––––––––––––––––––––––-
1 | 0:00.00 | 3:08.38 | 0 | 14137
2 | 3:08.38 | 2:56.47 | 14138 | 27384
3 | 6:05.10 | 2:55.66 | 27385 | 40575
4 | 9:01.01 | 2:58.64 | 40576 | 53989
5 | 11:59.65 | 2:41.01 | 53990 | 66065
6 | 14:40.66 | 3:23.28 | 66066 | 81318
7 | 18:04.19 | 3:00.25 | 81319 | 94843
8 | 21:04.44 | 3:01.06 | 94844 | 108424
9 | 24:05.50 | 3:09.19 | 108425 | 122618
10 | 27:14.69 | 2:44.55 | 122619 | 134973
11 | 29:59.49 | 3:16.51 | 134974 | 149724
12 | 33:16.25 | 2:51.31 | 149725 | 162580
13 | 36:07.56 | 3:15.70 | 162581 | 177275
14 | 39:23.51 | 2:55.66 | 177276 | 190466
15 | 42:19.42 | 2:51.31 | 190467 | 203322
16 | 45:10.73 | 2:52.12 | 203323 | 216234
17 | 48:03.10 | 3:16.51 | 216235 | 230985
18 | 51:19.61 | 3:12.17 | 230986 | 245402
19 | 54:32.03 | 3:11.36 | 245403 | 259763
20 | 57:43.39 | 2:39.40 | 259764 | 271728
21 | 60:23.04 | 3:19.49 | 271729 | 286702
22 | 63:42.53 | 3:16.51 | 286703 | 301453
23 | 66:59.29 | 3:20.30 | 301454 | 316483
24 | 70:19.59 | 3:13.53 | 316484 | 331011
25 | 73:33.37 | 3:10.17 | 331012 | 345278


Track 1

Filename D:\#EAC new\#wav+flac\#New\Billie Holiday - The Rough Guide to Billie Holiday\01. Billie Holiday - Good Morning Heartache.wav

Pre-gap length 0:00:02.00

Peak level 100.0 %
Extraction speed 4.4 X
Track quality 100.0 %
Test CRC 7F165894
Copy CRC 7F165894
Accurately ripped (confidence 2) [0BF8A69C] (AR v2)
Copy OK

Track 2

Filename D:\#EAC new\#wav+flac\#New\Billie Holiday - The Rough Guide to Billie Holiday\02. Billie Holiday - Body and Soul.wav

Pre-gap length 0:00:02.00

Peak level 83.0 %
Extraction speed 3.7 X
Track quality 99.9 %
Test CRC 4241D4D1
Copy CRC 4241D4D1
Accurately ripped (confidence 2) [C70509BD] (AR v2)
Copy OK

Track 3

Filename D:\#EAC new\#wav+flac\#New\Billie Holiday - The Rough Guide to Billie Holiday\03. Billie Holiday - I Loves You Porgy.wav

Pre-gap length 0:00:02.00

Peak level 100.0 %
Extraction speed 4.9 X
Track quality 100.0 %
Test CRC D3DE391C
Copy CRC D3DE391C
Accurately ripped (confidence 2) [B2B026A0] (AR v2)
Copy OK

Track 4

Filename D:\#EAC new\#wav+flac\#New\Billie Holiday - The Rough Guide to Billie Holiday\04. Billie Holiday - Now They Call It Swing.wav

Pre-gap length 0:00:02.00

Peak level 74.5 %
Extraction speed 5.3 X
Track quality 100.0 %
Test CRC 05B6B01F
Copy CRC 05B6B01F
Accurately ripped (confidence 2) [6AE724E6] (AR v2)
Copy OK

Track 5

Filename D:\#EAC new\#wav+flac\#New\Billie Holiday - The Rough Guide to Billie Holiday\05. Billie Holiday - I Hear Music.wav

Pre-gap length 0:00:02.00

Peak level 72.6 %
Extraction speed 4.2 X
Track quality 99.9 %
Test CRC 203CC4B0
Copy CRC 203CC4B0
Accurately ripped (confidence 2) [ECEE8BFF] (AR v2)
Copy OK

Track 6

Filename D:\#EAC new\#wav+flac\#New\Billie Holiday - The Rough Guide to Billie Holiday\06. Billie Holiday - You’re My Thrill.wav

Pre-gap length 0:00:02.00

Peak level 99.9 %
Extraction speed 5.9 X
Track quality 100.0 %
Test CRC 8BB5878B
Copy CRC 8BB5878B
Accurately ripped (confidence 2) [99931A4F] (AR v2)
Copy OK

Track 7

Filename D:\#EAC new\#wav+flac\#New\Billie Holiday - The Rough Guide to Billie Holiday\07. Billie Holiday - All of Me.wav

Pre-gap length 0:00:02.00

Peak level 78.3 %
Extraction speed 6.0 X
Track quality 100.0 %
Test CRC 220EE2CE
Copy CRC 220EE2CE
Accurately ripped (confidence 2) [C2E93846] (AR v2)
Copy OK

Track 8

Filename D:\#EAC new\#wav+flac\#New\Billie Holiday - The Rough Guide to Billie Holiday\08. Billie Holiday - My Man.wav

Pre-gap length 0:00:02.00

Peak level 96.7 %
Extraction speed 6.3 X
Track quality 100.0 %
Test CRC 6F88B322
Copy CRC 6F88B322
Accurately ripped (confidence 2) [9FC5B3BB] (AR v2)
Copy OK

Track 9

Filename D:\#EAC new\#wav+flac\#New\Billie Holiday - The Rough Guide to Billie Holiday\09. Billie Holiday - Until the Real Thing Comes Along.wav

Pre-gap length 0:00:02.00

Peak level 72.2 %
Extraction speed 5.2 X
Track quality 99.9 %
Test CRC D22C7A0B
Copy CRC D22C7A0B
Accurately ripped (confidence 2) [219BEED0] (AR v2)
Copy OK

Track 10

Filename D:\#EAC new\#wav+flac\#New\Billie Holiday - The Rough Guide to Billie Holiday\10. Billie Holiday - The Very Thought of You.wav

Pre-gap length 0:00:02.00

Peak level 83.0 %
Extraction speed 6.6 X
Track quality 100.0 %
Test CRC 9A2357BF
Copy CRC 9A2357BF
Accurately ripped (confidence 2) [167D7F70] (AR v2)
Copy OK

Track 11

Filename D:\#EAC new\#wav+flac\#New\Billie Holiday - The Rough Guide to Billie Holiday\11. Billie Holiday - Fine and Mellow.wav

Pre-gap length 0:00:02.00

Peak level 79.0 %
Extraction speed 7.0 X
Track quality 100.0 %
Test CRC F7344502
Copy CRC F7344502
Accurately ripped (confidence 2) [DE9EA6FE] (AR v2)
Copy OK

Track 12

Filename D:\#EAC new\#wav+flac\#New\Billie Holiday - The Rough Guide to Billie Holiday\12. Billie Holiday - I Gotta Right to Sing the Blues.wav

Pre-gap length 0:00:02.00

Peak level 87.1 %
Extraction speed 7.1 X
Track quality 100.0 %
Test CRC 2052D9FD
Copy CRC 2052D9FD
Accurately ripped (confidence 2) [5B21B033] (AR v2)
Copy OK

Track 13

Filename D:\#EAC new\#wav+flac\#New\Billie Holiday - The Rough Guide to Billie Holiday\13. Billie Holiday - Trav’lin’ Light.wav

Pre-gap length 0:00:02.00

Peak level 76.7 %
Extraction speed 7.4 X
Track quality 100.0 %
Test CRC 19ECA511
Copy CRC 19ECA511
Accurately ripped (confidence 2) [CC8967E7] (AR v2)
Copy OK

Track 14

Filename D:\#EAC new\#wav+flac\#New\Billie Holiday - The Rough Guide to Billie Holiday\14. Billie Holiday - Swing Brother Swing.wav

Pre-gap length 0:00:02.00

Peak level 75.1 %
Extraction speed 7.4 X
Track quality 100.0 %
Test CRC 1EFDA195
Copy CRC 1EFDA195
Accurately ripped (confidence 2) [90974A17] (AR v2)
Copy OK

Track 15

Filename D:\#EAC new\#wav+flac\#New\Billie Holiday - The Rough Guide to Billie Holiday\15. Billie Holiday - St. Louis Blues.wav

Pre-gap length 0:00:02.00

Peak level 81.4 %
Extraction speed 7.6 X
Track quality 100.0 %
Test CRC 9B86AAD7
Copy CRC 9B86AAD7
Accurately ripped (confidence 2) [44F528D5] (AR v2)
Copy OK

Track 16

Filename D:\#EAC new\#wav+flac\#New\Billie Holiday - The Rough Guide to Billie Holiday\16. Billie Holiday - You Go to My Head.wav

Pre-gap length 0:00:02.00

Peak level 99.8 %
Extraction speed 7.8 X
Track quality 100.0 %
Test CRC D2B2BD96
Copy CRC D2B2BD96
Accurately ripped (confidence 2) [2A2E18B7] (AR v2)
Copy OK

Track 17

Filename D:\#EAC new\#wav+flac\#New\Billie Holiday - The Rough Guide to Billie Holiday\17. Billie Holiday - Embraceable You.wav

Pre-gap length 0:00:02.00

Peak level 79.3 %
Extraction speed 8.1 X
Track quality 100.0 %
Test CRC 3093B673
Copy CRC 3093B673
Accurately ripped (confidence 2) [D4A8D1B5] (AR v2)
Copy OK

Track 18

Filename D:\#EAC new\#wav+flac\#New\Billie Holiday - The Rough Guide to Billie Holiday\18. Billie Holiday - Any Old Time.wav

Pre-gap length 0:00:02.00

Peak level 99.9 %
Extraction speed 6.5 X
Track quality 99.9 %
Test CRC ABE9CF63
Copy CRC ABE9CF63
Accurately ripped (confidence 2) [8AE6E9B5] (AR v2)
Copy OK

Track 19

Filename D:\#EAC new\#wav+flac\#New\Billie Holiday - The Rough Guide to Billie Holiday\19. Billie Holiday - As Time Goes By.wav

Pre-gap length 0:00:02.00

Peak level 89.1 %
Extraction speed 8.4 X
Track quality 100.0 %
Test CRC 5591360A
Copy CRC 5591360A
Accurately ripped (confidence 2) [6CC476A9] (AR v2)
Copy OK

Track 20

Filename D:\#EAC new\#wav+flac\#New\Billie Holiday - The Rough Guide to Billie Holiday\20. Billie Holiday - He’s Funny That Way.wav

Pre-gap length 0:00:02.00

Peak level 82.9 %
Extraction speed 8.3 X
Track quality 100.0 %
Test CRC B90FB05B
Copy CRC B90FB05B
Accurately ripped (confidence 2) [132537F1] (AR v2)
Copy OK

Track 21

Filename D:\#EAC new\#wav+flac\#New\Billie Holiday - The Rough Guide to Billie Holiday\21. Billie Holiday - Lover, Come Back to Me.wav

Pre-gap length 0:00:02.00

Peak level 56.8 %
Extraction speed 8.7 X
Track quality 100.0 %
Test CRC 38E18A88
Copy CRC 38E18A88
Accurately ripped (confidence 2) [EAE66B6E] (AR v2)
Copy OK

Track 22

Filename D:\#EAC new\#wav+flac\#New\Billie Holiday - The Rough Guide to Billie Holiday\22. Billie Holiday - I’m Yours.wav

Pre-gap length 0:00:02.00

Peak level 70.8 %
Extraction speed 8.8 X
Track quality 100.0 %
Test CRC 44E1D5D6
Copy CRC 44E1D5D6
Accurately ripped (confidence 2) [C17BACE0] (AR v2)
Copy OK

Track 23

Filename D:\#EAC new\#wav+flac\#New\Billie Holiday - The Rough Guide to Billie Holiday\23. Billie Holiday - My Sweet Hunk o’ Trash.wav

Pre-gap length 0:00:02.00

Peak level 72.6 %
Extraction speed 9.1 X
Track quality 100.0 %
Test CRC B669B820
Copy CRC B669B820
Accurately ripped (confidence 2) [D0485C3D] (AR v2)
Copy OK

Track 24

Filename D:\#EAC new\#wav+flac\#New\Billie Holiday - The Rough Guide to Billie Holiday\24. Billie Holiday - Can’t Help Lovin’ Dat Man.wav

Pre-gap length 0:00:02.00

Peak level 96.7 %
Extraction speed 9.1 X
Track quality 100.0 %
Test CRC 11F44933
Copy CRC 11F44933
Accurately ripped (confidence 2) [7F6F0ABB] (AR v2)
Copy OK

Track 25

Filename D:\#EAC new\#wav+flac\#New\Billie Holiday - The Rough Guide to Billie Holiday\25. Billie Holiday - Strange Fruit.wav

Pre-gap length 0:00:02.00

Peak level 100.0 %
Extraction speed 7.2 X
Track quality 99.9 %
Test CRC E5DAA325
Copy CRC E5DAA325
Accurately ripped (confidence 2) [0E664251] (AR v2)
Copy OK


All tracks accurately ripped

No errors occurred

End of status report

–– CUETools DB Plugin V2.1.6

[CTDB TOCID: ziMBMnTsld.XNVU3HZ_UpaTb6Iw-] found
Submit result: ziMBMnTsld.XNVU3HZ_UpaTb6Iw- has been confirmed
Track | CTDB Status
1 | (9/9) Accurately ripped
2 | (9/9) Accurately ripped
3 | (9/9) Accurately ripped
4 | (9/9) Accurately ripped
5 | (9/9) Accurately ripped
6 | (9/9) Accurately ripped
7 | (9/9) Accurately ripped
8 | (9/9) Accurately ripped
9 | (9/9) Accurately ripped
10 | (9/9) Accurately ripped
11 | (9/9) Accurately ripped
12 | (9/9) Accurately ripped
13 | (9/9) Accurately ripped
14 | (9/9) Accurately ripped
15 | (9/9) Accurately ripped
16 | (9/9) Accurately ripped
17 | (9/9) Accurately ripped
18 | (9/9) Accurately ripped
19 | (9/9) Accurately ripped
20 | (9/9) Accurately ripped
21 | (9/9) Accurately ripped
22 | (9/9) Accurately ripped
23 | (9/9) Accurately ripped
24 | (9/9) Accurately ripped
25 | (9/9) Accurately ripped


==== Log checksum 7653FD0963AB34ACD3E18C1024CF119BFB9FB8EF32CA0DC279E49F1EE895AC26 ====

––––––––––––––––––––––––––––––

Exact Audio Copy V1.3 from 2. September 2016

EAC extraction logfile from 21. August 2020, 15:24

Billie Holiday / The Rough Guide to Billie Holiday

Used drive : PLEXTOR PX-891SAF Adapter: 1 ID: 0

Read mode : Secure
Utilize accurate stream : Yes
Defeat audio cache : Yes
Make use of C2 pointers : No

Read offset correction : 6
Overread into Lead-In and Lead-Out : No
Fill up missing offset samples with silence : Yes
Delete leading and trailing silent blocks : No
Null samples used in CRC calculations : Yes
Used interface : Native Win32 interface for Win NT & 2000
Gap handling : Appended to previous track

Used output format : User Defined Encoder
Selected bitrate : 1024 kBit/s
Quality : High
Add ID3 tag : No
Command line compressor : C:\Program Files (x86)\Exact Audio Copy\Flac\flac.exe
Additional command line options : -8 -V -T "ARTIST=%artist%" -T "TITLE=%title%" -T "ALBUM=%albumtitle%" -T "DATE=%year%" -T "TRACKNUMBER=%tracknr%" -T "GENRE=%genre%" -T "PERFORMER=%albuminterpret%" -T "COMPOSER=%composer%" %haslyrics%–tag-from-file=LYRICS="%lyricsfile%"%haslyrics% -T "ALBUMARTIST=%albumartist%" -T "DISCNUMBER=%cdnumber%" -T "TOTALDISCS=%totalcds%" -T "TOTALTRACKS=%numtracks%" -T "COMMENT=%comment%" %source% -o %dest%


TOC of the extracted CD

Track | Start | Length | Start sector | End sector
––––––––––––––––––––––––––––-
1 | 0:00.00 | 3:08.38 | 0 | 14137
2 | 3:08.38 | 2:56.47 | 14138 | 27384
3 | 6:05.10 | 2:55.66 | 27385 | 40575
4 | 9:01.01 | 2:58.64 | 40576 | 53989
5 | 11:59.65 | 2:41.01 | 53990 | 66065
6 | 14:40.66 | 3:23.28 | 66066 | 81318
7 | 18:04.19 | 3:00.25 | 81319 | 94843
8 | 21:04.44 | 3:01.06 | 94844 | 108424
9 | 24:05.50 | 3:09.19 | 108425 | 122618
10 | 27:14.69 | 2:44.55 | 122619 | 134973
11 | 29:59.49 | 3:16.51 | 134974 | 149724
12 | 33:16.25 | 2:51.31 | 149725 | 162580
13 | 36:07.56 | 3:15.70 | 162581 | 177275
14 | 39:23.51 | 2:55.66 | 177276 | 190466
15 | 42:19.42 | 2:51.31 | 190467 | 203322
16 | 45:10.73 | 2:52.12 | 203323 | 216234
17 | 48:03.10 | 3:16.51 | 216235 | 230985
18 | 51:19.61 | 3:12.17 | 230986 | 245402
19 | 54:32.03 | 3:11.36 | 245403 | 259763
20 | 57:43.39 | 2:39.40 | 259764 | 271728
21 | 60:23.04 | 3:19.49 | 271729 | 286702
22 | 63:42.53 | 3:16.51 | 286703 | 301453
23 | 66:59.29 | 3:20.30 | 301454 | 316483
24 | 70:19.59 | 3:13.53 | 316484 | 331011
25 | 73:33.37 | 3:10.17 | 331012 | 345278


Track 1

Filename D:\#EAC new\#wav+flac\#New\Billie Holiday - The Rough Guide to Billie Holiday\01. Billie Holiday - Good Morning Heartache.wav

Pre-gap length 0:00:02.00

Peak level 100.0 %
Extraction speed 4.4 X
Track quality 100.0 %
Test CRC 7F165894
Copy CRC 7F165894
Accurately ripped (confidence 2) [0BF8A69C] (AR v2)
Copy OK

Track 2

Filename D:\#EAC new\#wav+flac\#New\Billie Holiday - The Rough Guide to Billie Holiday\02. Billie Holiday - Body and Soul.wav

Pre-gap length 0:00:02.00

Peak level 83.0 %
Extraction speed 3.7 X
Track quality 99.9 %
Test CRC 4241D4D1
Copy CRC 4241D4D1
Accurately ripped (confidence 2) [C70509BD] (AR v2)
Copy OK

Track 3

Filename D:\#EAC new\#wav+flac\#New\Billie Holiday - The Rough Guide to Billie Holiday\03. Billie Holiday - I Loves You Porgy.wav

Pre-gap length 0:00:02.00

Peak level 100.0 %
Extraction speed 4.9 X
Track quality 100.0 %
Test CRC D3DE391C
Copy CRC D3DE391C
Accurately ripped (confidence 2) [B2B026A0] (AR v2)
Copy OK

Track 4

Filename D:\#EAC new\#wav+flac\#New\Billie Holiday - The Rough Guide to Billie Holiday\04. Billie Holiday - Now They Call It Swing.wav

Pre-gap length 0:00:02.00

Peak level 74.5 %
Extraction speed 5.3 X
Track quality 100.0 %
Test CRC 05B6B01F
Copy CRC 05B6B01F
Accurately ripped (confidence 2) [6AE724E6] (AR v2)
Copy OK

Track 5

Filename D:\#EAC new\#wav+flac\#New\Billie Holiday - The Rough Guide to Billie Holiday\05. Billie Holiday - I Hear Music.wav

Pre-gap length 0:00:02.00

Peak level 72.6 %
Extraction speed 4.2 X
Track quality 99.9 %
Test CRC 203CC4B0
Copy CRC 203CC4B0
Accurately ripped (confidence 2) [ECEE8BFF] (AR v2)
Copy OK

Track 6

Filename D:\#EAC new\#wav+flac\#New\Billie Holiday - The Rough Guide to Billie Holiday\06. Billie Holiday - You’re My Thrill.wav

Pre-gap length 0:00:02.00

Peak level 99.9 %
Extraction speed 5.9 X
Track quality 100.0 %
Test CRC 8BB5878B
Copy CRC 8BB5878B
Accurately ripped (confidence 2) [99931A4F] (AR v2)
Copy OK

Track 7

Filename D:\#EAC new\#wav+flac\#New\Billie Holiday - The Rough Guide to Billie Holiday\07. Billie Holiday - All of Me.wav

Pre-gap length 0:00:02.00

Peak level 78.3 %
Extraction speed 6.0 X
Track quality 100.0 %
Test CRC 220EE2CE
Copy CRC 220EE2CE
Accurately ripped (confidence 2) [C2E93846] (AR v2)
Copy OK

Track 8

Filename D:\#EAC new\#wav+flac\#New\Billie Holiday - The Rough Guide to Billie Holiday\08. Billie Holiday - My Man.wav

Pre-gap length 0:00:02.00

Peak level 96.7 %
Extraction speed 6.3 X
Track quality 100.0 %
Test CRC 6F88B322
Copy CRC 6F88B322
Accurately ripped (confidence 2) [9FC5B3BB] (AR v2)
Copy OK

Track 9

Filename D:\#EAC new\#wav+flac\#New\Billie Holiday - The Rough Guide to Billie Holiday\09. Billie Holiday - Until the Real Thing Comes Along.wav

Pre-gap length 0:00:02.00

Peak level 72.2 %
Extraction speed 5.2 X
Track quality 99.9 %
Test CRC D22C7A0B
Copy CRC D22C7A0B
Accurately ripped (confidence 2) [219BEED0] (AR v2)
Copy OK

Track 10

Filename D:\#EAC new\#wav+flac\#New\Billie Holiday - The Rough Guide to Billie Holiday\10. Billie Holiday - The Very Thought of You.wav

Pre-gap length 0:00:02.00

Peak level 83.0 %
Extraction speed 6.6 X
Track quality 100.0 %
Test CRC 9A2357BF
Copy CRC 9A2357BF
Accurately ripped (confidence 2) [167D7F70] (AR v2)
Copy OK

Track 11

Filename D:\#EAC new\#wav+flac\#New\Billie Holiday - The Rough Guide to Billie Holiday\11. Billie Holiday - Fine and Mellow.wav

Pre-gap length 0:00:02.00

Peak level 79.0 %
Extraction speed 7.0 X
Track quality 100.0 %
Test CRC F7344502
Copy CRC F7344502
Accurately ripped (confidence 2) [DE9EA6FE] (AR v2)
Copy OK

Track 12

Filename D:\#EAC new\#wav+flac\#New\Billie Holiday - The Rough Guide to Billie Holiday\12. Billie Holiday - I Gotta Right to Sing the Blues.wav

Pre-gap length 0:00:02.00

Peak level 87.1 %
Extraction speed 7.1 X
Track quality 100.0 %
Test CRC 2052D9FD
Copy CRC 2052D9FD
Accurately ripped (confidence 2) [5B21B033] (AR v2)
Copy OK

Track 13

Filename D:\#EAC new\#wav+flac\#New\Billie Holiday - The Rough Guide to Billie Holiday\13. Billie Holiday - Trav’lin’ Light.wav

Pre-gap length 0:00:02.00

Peak level 76.7 %
Extraction speed 7.4 X
Track quality 100.0 %
Test CRC 19ECA511
Copy CRC 19ECA511
Accurately ripped (confidence 2) [CC8967E7] (AR v2)
Copy OK

Track 14

Filename D:\#EAC new\#wav+flac\#New\Billie Holiday - The Rough Guide to Billie Holiday\14. Billie Holiday - Swing Brother Swing.wav

Pre-gap length 0:00:02.00

Peak level 75.1 %
Extraction speed 7.4 X
Track quality 100.0 %
Test CRC 1EFDA195
Copy CRC 1EFDA195
Accurately ripped (confidence 2) [90974A17] (AR v2)
Copy OK

Track 15

Filename D:\#EAC new\#wav+flac\#New\Billie Holiday - The Rough Guide to Billie Holiday\15. Billie Holiday - St. Louis Blues.wav

Pre-gap length 0:00:02.00

Peak level 81.4 %
Extraction speed 7.6 X
Track quality 100.0 %
Test CRC 9B86AAD7
Copy CRC 9B86AAD7
Accurately ripped (confidence 2) [44F528D5] (AR v2)
Copy OK

Track 16

Filename D:\#EAC new\#wav+flac\#New\Billie Holiday - The Rough Guide to Billie Holiday\16. Billie Holiday - You Go to My Head.wav

Pre-gap length 0:00:02.00

Peak level 99.8 %
Extraction speed 7.8 X
Track quality 100.0 %
Test CRC D2B2BD96
Copy CRC D2B2BD96
Accurately ripped (confidence 2) [2A2E18B7] (AR v2)
Copy OK

Track 17

Filename D:\#EAC new\#wav+flac\#New\Billie Holiday - The Rough Guide to Billie Holiday\17. Billie Holiday - Embraceable You.wav

Pre-gap length 0:00:02.00

Peak level 79.3 %
Extraction speed 8.1 X
Track quality 100.0 %
Test CRC 3093B673
Copy CRC 3093B673
Accurately ripped (confidence 2) [D4A8D1B5] (AR v2)
Copy OK

Track 18

Filename D:\#EAC new\#wav+flac\#New\Billie Holiday - The Rough Guide to Billie Holiday\18. Billie Holiday - Any Old Time.wav

Pre-gap length 0:00:02.00

Peak level 99.9 %
Extraction speed 6.5 X
Track quality 99.9 %
Test CRC ABE9CF63
Copy CRC ABE9CF63
Accurately ripped (confidence 2) [8AE6E9B5] (AR v2)
Copy OK

Track 19

Filename D:\#EAC new\#wav+flac\#New\Billie Holiday - The Rough Guide to Billie Holiday\19. Billie Holiday - As Time Goes By.wav

Pre-gap length 0:00:02.00

Peak level 89.1 %
Extraction speed 8.4 X
Track quality 100.0 %
Test CRC 5591360A
Copy CRC 5591360A
Accurately ripped (confidence 2) [6CC476A9] (AR v2)
Copy OK

Track 20

Filename D:\#EAC new\#wav+flac\#New\Billie Holiday - The Rough Guide to Billie Holiday\20. Billie Holiday - He’s Funny That Way.wav

Pre-gap length 0:00:02.00

Peak level 82.9 %
Extraction speed 8.3 X
Track quality 100.0 %
Test CRC B90FB05B
Copy CRC B90FB05B
Accurately ripped (confidence 2) [132537F1] (AR v2)
Copy OK

Track 21

Filename D:\#EAC new\#wav+flac\#New\Billie Holiday - The Rough Guide to Billie Holiday\21. Billie Holiday - Lover, Come Back to Me.wav

Pre-gap length 0:00:02.00

Peak level 56.8 %
Extraction speed 8.7 X
Track quality 100.0 %
Test CRC 38E18A88
Copy CRC 38E18A88
Accurately ripped (confidence 2) [EAE66B6E] (AR v2)
Copy OK

Track 22

Filename D:\#EAC new\#wav+flac\#New\Billie Holiday - The Rough Guide to Billie Holiday\22. Billie Holiday - I’m Yours.wav

Pre-gap length 0:00:02.00

Peak level 70.8 %
Extraction speed 8.8 X
Track quality 100.0 %
Test CRC 44E1D5D6
Copy CRC 44E1D5D6
Accurately ripped (confidence 2) [C17BACE0] (AR v2)
Copy OK

Track 23

Filename D:\#EAC new\#wav+flac\#New\Billie Holiday - The Rough Guide to Billie Holiday\23. Billie Holiday - My Sweet Hunk o’ Trash.wav

Pre-gap length 0:00:02.00

Peak level 72.6 %
Extraction speed 9.1 X
Track quality 100.0 %
Test CRC B669B820
Copy CRC B669B820
Accurately ripped (confidence 2) [D0485C3D] (AR v2)
Copy OK

Track 24

Filename D:\#EAC new\#wav+flac\#New\Billie Holiday - The Rough Guide to Billie Holiday\24. Billie Holiday - Can’t Help Lovin’ Dat Man.wav

Pre-gap length 0:00:02.00

Peak level 96.7 %
Extraction speed 9.1 X
Track quality 100.0 %
Test CRC 11F44933
Copy CRC 11F44933
Accurately ripped (confidence 2) [7F6F0ABB] (AR v2)
Copy OK

Track 25

Filename D:\#EAC new\#wav+flac\#New\Billie Holiday - The Rough Guide to Billie Holiday\25. Billie Holiday - Strange Fruit.wav

Pre-gap length 0:00:02.00

Peak level 100.0 %
Extraction speed 7.2 X
Track quality 99.9 %
Test CRC E5DAA325
Copy CRC E5DAA325
Accurately ripped (confidence 2) [0E664251] (AR v2)
Copy OK


All tracks accurately ripped

No errors occurred

End of status report

–– CUETools DB Plugin V2.1.6

[CTDB TOCID: ziMBMnTsld.XNVU3HZ_UpaTb6Iw-] found
Submit result: ziMBMnTsld.XNVU3HZ_UpaTb6Iw- has been confirmed
Track | CTDB Status
1 | (9/9) Accurately ripped
2 | (9/9) Accurately ripped
3 | (9/9) Accurately ripped
4 | (9/9) Accurately ripped
5 | (9/9) Accurately ripped
6 | (9/9) Accurately ripped
7 | (9/9) Accurately ripped
8 | (9/9) Accurately ripped
9 | (9/9) Accurately ripped
10 | (9/9) Accurately ripped
11 | (9/9) Accurately ripped
12 | (9/9) Accurately ripped
13 | (9/9) Accurately ripped
14 | (9/9) Accurately ripped
15 | (9/9) Accurately ripped
16 | (9/9) Accurately ripped
17 | (9/9) Accurately ripped
18 | (9/9) Accurately ripped
19 | (9/9) Accurately ripped
20 | (9/9) Accurately ripped
21 | (9/9) Accurately ripped
22 | (9/9) Accurately ripped
23 | (9/9) Accurately ripped
24 | (9/9) Accurately ripped
25 | (9/9) Accurately ripped


==== Log checksum 7653FD0963AB34ACD3E18C1024CF119BFB9FB8EF32CA0DC279E49F1EE895AC26 ====

Thanks to the Original ripper !