Subcategories

Billy Joel - Stormfront {1989, 2008 japanese Mini LP ReIssue} (Reuploaded)

Posted By: luckburz
Billy Joel - Stormfront {1989, 2008 japanese Mini LP ReIssue} (Reuploaded)

Billy Joel - Stormfront
EAC+LOG+CUE | FLAC: 322 MB | Full Artwork | 5% Recovery Info
Label/Cat#: Sony Music # MHCP-550 | Country/Year: Japan 2008, 1989
Genre: Rock, Pop | Style: Pop Rock

MD5 [X] CUE [X] LOG [X] INFO TEXT [X] ARTWORK [X]

selfrip [X] not my rip []

Exact Audio Copy V0.99 prebeta 4 from 23. January 2008

EAC Auslese-Logdatei vom 25. März 2008, 19:00

Billy Joel / Stormfront (Japan Cardboard Sleeve MHCP-550)

Benutztes Laufwerk : HL-DT-STDVDRAM GSA-H12L Adapter: 0 ID: 1

Lesemodus : Sicher
Benutze Accurate Stream : Ja
Audio Puffer abgeschaltet : Nein
Benutze C2 Fehlerinformationen : Nein

Leseoffset Korrektur : 667
Überlesen in das Lead-In und Lead-Out : Nein
Fülle fehlende Offsetsample mit Stille auf : Ja
Lösche führende und nachfolgende stille Blöcke : Nein
Null Samples gehen in CRC Berechnungen ein : Ja
Benutzte Schnittstelle : Natürliche Win32 Schnittstelle für Win NT/2000/XP
Pausenbehandlung : Hinter dem vorigen Track angehängt

Benutztes Ausgabeformat : Interne WAV Routinen
Sampleformat : 44.100 Hz; 16 Bit; Stereo


TOC der ausgelesenen CD

Track | Start | Länge | Startsektor | Endsektor
–––––––––––––––––––––––––––-
1 | 0:00.00 | 5:09.57 | 0 | 23231
2 | 5:09.57 | 4:50.30 | 23232 | 45011
3 | 10:00.12 | 3:44.45 | 45012 | 61856
4 | 13:44.57 | 4:23.15 | 61857 | 81596
5 | 18:07.72 | 4:29.38 | 81597 | 101809
6 | 22:37.35 | 5:17.00 | 101810 | 125584
7 | 27:54.35 | 4:06.20 | 125585 | 144054
8 | 32:00.55 | 4:30.00 | 144055 | 164304
9 | 36:30.55 | 4:49.42 | 164305 | 186021
10 | 41:20.22 | 3:38.38 | 186022 | 202409


Track 1

Dateiname V:\INCOMING\LOSSLESS\ZZZ-EAC\01 That´s Not Her Style.wav

Pausenlänge 0:00:02.00

Spitzenpegel 95.6 %
Track Qualität 100.0 %
Test CRC EBB66607
Kopie CRC EBB66607
Track ist nicht enthalten in der AccurateRip Datenbank
Kopie OK

Track 2

Dateiname V:\INCOMING\LOSSLESS\ZZZ-EAC\02 We Didn´t Start The Fire.wav

Spitzenpegel 96.3 %
Track Qualität 100.0 %
Test CRC 78EF25BC
Kopie CRC 78EF25BC
Track ist nicht enthalten in der AccurateRip Datenbank
Kopie OK

Track 3

Dateiname V:\INCOMING\LOSSLESS\ZZZ-EAC\03 The Downeaster 'Alexa'.wav

Spitzenpegel 96.0 %
Track Qualität 100.0 %
Test CRC 10BD8C21
Kopie CRC 10BD8C21
Track ist nicht enthalten in der AccurateRip Datenbank
Kopie OK

Track 4

Dateiname V:\INCOMING\LOSSLESS\ZZZ-EAC\04 I Go To Extremes.wav

Spitzenpegel 95.9 %
Track Qualität 100.0 %
Test CRC 4433E9E3
Kopie CRC 4433E9E3
Track ist nicht enthalten in der AccurateRip Datenbank
Kopie OK

Track 5

Dateiname V:\INCOMING\LOSSLESS\ZZZ-EAC\05 Shameless.wav

Spitzenpegel 96.2 %
Track Qualität 100.0 %
Test CRC 0D77A8F9
Kopie CRC 0D77A8F9
Track ist nicht enthalten in der AccurateRip Datenbank
Kopie OK

Track 6

Dateiname V:\INCOMING\LOSSLESS\ZZZ-EAC\06 Storm Front.wav

Pausenlänge 0:00:01.48

Spitzenpegel 96.4 %
Track Qualität 100.0 %
Test CRC D4930897
Kopie CRC D4930897
Track ist nicht enthalten in der AccurateRip Datenbank
Kopie OK

Track 7

Dateiname V:\INCOMING\LOSSLESS\ZZZ-EAC\07 Leningrad.wav

Spitzenpegel 96.7 %
Track Qualität 100.0 %
Test CRC 7FDDA0EE
Kopie CRC 7FDDA0EE
Track ist nicht enthalten in der AccurateRip Datenbank
Kopie OK

Track 8

Dateiname V:\INCOMING\LOSSLESS\ZZZ-EAC\08 State Of Grace.wav

Spitzenpegel 96.6 %
Track Qualität 100.0 %
Test CRC 4C3823FE
Kopie CRC 4C3823FE
Track ist nicht enthalten in der AccurateRip Datenbank
Kopie OK

Track 9

Dateiname V:\INCOMING\LOSSLESS\ZZZ-EAC\09 When In Rome.wav

Spitzenpegel 96.6 %
Track Qualität 99.9 %
Test CRC EF88316F
Kopie CRC EF88316F
Track ist nicht enthalten in der AccurateRip Datenbank
Kopie OK

Track 10

Dateiname V:\INCOMING\LOSSLESS\ZZZ-EAC\10 And So It Goes.wav

Pausenlänge 0:00:02.15

Spitzenpegel 94.5 %
Track Qualität 99.9 %
Test CRC 97B36436
Kopie CRC 97B36436
Track ist nicht enthalten in der AccurateRip Datenbank
Kopie OK


Keiner der Tracks ist in der AccurateRip Datenbank vorhanden

Keine Fehler aufgetreten

Ende des Statusreports

foobar2000 1.1.14a / Dynamic Range Meter 1.1.1
log date: 2013-01-22 21:43:26

––––––––––––––––––––––––––––––––––––––––
Analyzed: Billy Joel / Stormfront (Japan Cardboard Sleeve MHCP-550)
––––––––––––––––––––––––––––––––––––––––

DR Peak RMS Duration Track
––––––––––––––––––––––––––––––––––––––––
DR6 -0.39 dB -8.42 dB 5:10 01-That´s Not Her Style
DR6 -0.33 dB -8.67 dB 4:50 02-We Didn´t Start The Fire
DR7 -0.35 dB -8.92 dB 3:45 03-The Downeaster 'Alexa'
DR7 -0.35 dB -8.33 dB 4:23 04-I Go To Extremes
DR7 -0.33 dB -8.98 dB 4:30 05-Shameless
DR7 -0.31 dB -8.27 dB 5:17 06-Storm Front
DR8 -0.29 dB -10.33 dB 4:06 07-Leningrad
DR7 -0.29 dB -9.40 dB 4:30 08-State Of Grace
DR8 -0.29 dB -9.21 dB 4:50 09-When In Rome
DR12 -0.48 dB -15.37 dB 3:39 10-And So It Goes
––––––––––––––––––––––––––––––––––––––––

Number of tracks: 10
Official DR value: DR7

Samplerate: 44100 Hz
Channels: 2
Bits per sample: 16
Bitrate: 714 kbps
Codec: FLAC
================================================================================



CD Info:

Billy Joel - Stormfront

Label: Sony Music
Catalog#: MHCP-550
Format: CD, Album
Country: Japan
Released: 2008, 1989
Genre: Rock, Pop
Style: Pop Rock

Tracklist:

1. "That's Not Her Style" – 5:10
2. "We Didn't Start the Fire" – 4:50
3. "The Downeaster 'Alexa'" – 3:44
4. "I Go to Extremes" – 4:23
5. "Shameless" – 4:26
6. "Storm Front" – 5:17
7. "Leningrad" – 4:06
8. "State of Grace" – 4:30
9. "When In Rome" – 4:44
10. "And So It Goes" – 3:38

Billy Joel - Stormfront {1989, 2008 japanese Mini LP ReIssue} (Reuploaded)


Storm Front is the eleventh studio album by American singer-songwriter Billy Joel, released on October 24, 1989. It features one of Joel's three #1 hits, "We Didn't Start the Fire", a fast-paced song that cataloged a list of historical events, trends, and cultural icons from after World War II (when Joel was born) until 1989, and "Leningrad", a story-song about a friendship between an American and a Russian during the final years of the Cold War.

"I Go to Extremes", a song describing the ups and downs of his emotional life, placed at #6. Other songs that placed in the top 100 were "And So It Goes" (#37), "The Downeaster 'Alexa'" (#57), and "That's Not Her Style" (#77). The cover depicts a storm warning flag. wikipedia
Billy Joel - Stormfront {1989, 2008 japanese Mini LP ReIssue} (Reuploaded)

// classical music \\
// all of my uploads \\
________________

Download:

Filepost FLAC
Filepost Artwork
________________