Subcategories

Bireli Lagrene - Foreign Affairs (1988) (Repost)

Posted By: Domestos
Bireli Lagrene - Foreign Affairs (1988) (Repost)

Bireli Lagrene - Foreign Affairs (1988)
EAC Rip | FLAC (tracks+.cue, log) ~ 271.86 Mb | 46:58 | Scans included
Gypsy Contemporary Jazz | Country: France | Label: Blue Note (CDP 7 90967 2)

Guitarist Bireli Lagrene, who started out as a young teenager very influenced by Django Reinhardt, has made a strong attempt to get away from the Reinhardt gypsy image. On this set, his guitar is often very rock-oriented and, although there are some acoustic moments, the emphasis is on fusion originals. The music is spirited and fun but not performed with a great deal of subtlety. Bireli Lagrene's future development (which direction will he head in next?) should be well worth watching.

Bireli Lagrene - guitar, electric bass, vocal
Koono - keyboards
Jeff Andrews - electric bass
Jurgen Attig - fretless bass
Dennis Chambers - drums
Cafe - percussion

Bireli Lagrene - Foreign Affairs (1988) (Repost)

Track List:
01 - Timothee - 4:38
02 - Josef - 5:23
03 - Rue de Pierre (Part IV) - 2:09
04 - Jack Rabbit - 4:19
05 - Foreign Affairs - 7:11
06 - Passing Through the Night - 5:12
07 - Rue de Pierre (Part V) - 1:37
08 - Senegal - 6:15
09 - Rue de Pierre (Part III) - 3:12
10 - St. Jean - 3:15
11 - I Can't Get Started - 3:41

EAC extraction logfile from 11. December 2009, 11:07 for CD
Bireli Lagrene / Foreign Affairs

Used drive : LITE-ON CD-RW SOHR-5238S Adapter: 1 ID: 0
Read mode : Secure with NO C2, accurate stream, disable cache
Read offset correction : 6
Overread into Lead-In and Lead-Out : Yes

Used output format : C:\Program Files\MediaCoder\codecs\flac.exe (User Defined Encoder)
192 kBit/s
Additional command line options : ?8 ?V ?T "ARTIST=%a" ?T "TITLE=%t" ?T "ALBUM=%g" ?T "DATE=%y" ?T "TRACKNUMBER=%n" ?T "GENRE=%m" ?T "COMMENT=EAC FLAC ?8" %s

Other options :
Fill up missing offset samples with silence : Yes
Delete leading and trailing silent blocks : No
Installed external ASPI interface

Track 1
Filename F:\Torrents CD\Bireli Lagrene-Foreign Affairs-1988[Contemporary Jazz]\01 - Timothee .wav

Pre-gap length 0:00:02.00

Peak level 94.4 %
Track quality 100.0 %
Test CRC 7B149289
Copy CRC 7B149289
Copy OK

Track 2
Filename F:\Torrents CD\Bireli Lagrene-Foreign Affairs-1988[Contemporary Jazz]\02 - Josef .wav

Pre-gap length 0:00:02.57

Peak level 99.0 %
Track quality 99.9 %
Test CRC 8872EDBC
Copy CRC 8872EDBC
Copy OK

Track 3
Filename F:\Torrents CD\Bireli Lagrene-Foreign Affairs-1988[Contemporary Jazz]\03 - Rue de Pierre (Part IV) .wav

Pre-gap length 0:00:04.20

Peak level 60.9 %
Track quality 100.0 %
Test CRC 8DFA560B
Copy CRC 8DFA560B
Copy OK

Track 4
Filename F:\Torrents CD\Bireli Lagrene-Foreign Affairs-1988[Contemporary Jazz]\04 - Jack Rabbit .wav

Pre-gap length 0:00:01.13

Peak level 98.0 %
Track quality 100.0 %
Test CRC 0B89995E
Copy CRC 0B89995E
Copy OK

Track 5
Filename F:\Torrents CD\Bireli Lagrene-Foreign Affairs-1988[Contemporary Jazz]\05 - Foreign Affairs .wav

Pre-gap length 0:00:03.16

Peak level 97.3 %
Track quality 99.9 %
Test CRC 0970E752
Copy CRC 0970E752
Copy OK

Track 6
Filename F:\Torrents CD\Bireli Lagrene-Foreign Affairs-1988[Contemporary Jazz]\06 - Passing Through the Night .wav

Pre-gap length 0:00:05.82

Peak level 80.0 %
Track quality 100.0 %
Test CRC A351A014
Copy CRC A351A014
Copy OK

Track 7
Filename F:\Torrents CD\Bireli Lagrene-Foreign Affairs-1988[Contemporary Jazz]\07 - Rue de Pierre (Part V) .wav

Pre-gap length 0:00:04.37

Peak level 56.3 %
Track quality 99.8 %
Test CRC 6C4F4BD6
Copy CRC 6C4F4BD6
Copy OK

Track 8
Filename F:\Torrents CD\Bireli Lagrene-Foreign Affairs-1988[Contemporary Jazz]\08 - Senegal .wav

Pre-gap length 0:00:01.42

Peak level 97.8 %
Track quality 100.0 %
Test CRC 931F94FC
Copy CRC 931F94FC
Copy OK

Track 9
Filename F:\Torrents CD\Bireli Lagrene-Foreign Affairs-1988[Contemporary Jazz]\09 - Rue de Pierre (Part III) .wav

Pre-gap length 0:00:03.46

Peak level 50.8 %
Track quality 100.0 %
Test CRC B1941E05
Copy CRC B1941E05
Copy OK

Track 10
Filename F:\Torrents CD\Bireli Lagrene-Foreign Affairs-1988[Contemporary Jazz]\10 - St. Jean .wav

Pre-gap length 0:00:02.88

Peak level 91.7 %
Track quality 100.0 %
Test CRC 2C6F564F
Copy CRC 2C6F564F
Copy OK

Track 11
Filename F:\Torrents CD\Bireli Lagrene-Foreign Affairs-1988[Contemporary Jazz]\11 - I Can't Get Started .wav

Pre-gap length 0:00:04.20

Peak level 52.5 %
Track quality 99.7 %
Test CRC 474F42E2
Copy CRC 474F42E2
Copy OK

No errors occured

End of status report

All thanks go to the arami
More Music in My Blog
Follow My RSS Channel