Blank & Jones - Relax Edition Three (2007)

Posted By: meditation
Blank & Jones - Relax Edition Three (2007)

Blank & Jones - Relax Edition Three (2007)
Trance/Downtempo/Ambient | Flac (image + .cue + log) : 820Mb | MP3 - 320 kbps : 308Mb | Covers | RS.com

Two CD set. Long-awaited third installment in the Relax series by the German DJs and producers. This 'chill-out' series mixes their love of classic Trance music with a modern chilled Lounge twist. Disc One features 12 new Blank & Jones recordings guaranteed to calm your frayed Rave nerves while the Disc Two features an additional nine tracks including remixes of a few tracks from Disc One and other new mixes.

Exact Audio Copy V0.99 prebeta 4 from 23. January 2008

EAC extraction logfile from 17. October 2008, 20:48

Blank & Jones / Relax Edition Three CD1 Sun

Used drive : PLEXTOR DVDR PX-760A Adapter: 1 ID: 0

Read mode : Secure
Utilize accurate stream : Yes
Defeat audio cache : Yes
Make use of C2 pointers : No

Read offset correction : 30
Overread into Lead-In and Lead-Out : No
Fill up missing offset samples with silence : Yes
Delete leading and trailing silent blocks : No
Null samples used in CRC calculations : Yes
Used interface : Native Win32 interface for Win NT & 2000
Gap handling : Appended to previous track

Used output format : User Defined Encoder
Selected bitrate : 320 kBit/s
Quality : High
Add ID3 tag : No
Command line compressor : C:\Program Files\FLAC\flac.exe
Additional command line options : -8 -V -T "ARTIST=%a" -T "TITLE=%t" -T "ALBUM=%g" -T "DATE=%y" -T "TRACKNUMBER=%n" -T "GENRE=%m" -T "COMMENT=EAC FLAC -8" %s


TOC of the extracted CD

Track | Start | Length | Start sector | End sector
––––––––––––––––––––––––––––-
1 | 0:00.00 | 3:16.10 | 0 | 14709
2 | 3:16.10 | 3:50.29 | 14710 | 31988
3 | 7:06.39 | 4:12.16 | 31989 | 50904
4 | 11:18.55 | 4:39.35 | 50905 | 71864
5 | 15:58.15 | 4:02.54 | 71865 | 90068
6 | 20:00.69 | 2:50.59 | 90069 | 102877
7 | 22:51.53 | 4:19.25 | 102878 | 122327
8 | 27:11.03 | 3:47.73 | 122328 | 139425
9 | 30:59.01 | 5:45.03 | 139426 | 165303
10 | 36:44.04 | 4:06.24 | 165304 | 183777
11 | 40:50.28 | 4:40.54 | 183778 | 204831
12 | 45:31.07 | 4:08.54 | 204832 | 223485


Track 1

Filename C:\APE\Blank & Jones\2007 - Relax Edition Three\CD1 - Sun\1-01. Roots.wav

Pre-gap length 0:00:02.00

Peak level 96.6 %
Track quality 100.0 %
Test CRC B2D44F50
Copy CRC B2D44F50
Track not present in AccurateRip database
Copy OK

Track 2

Filename C:\APE\Blank & Jones\2007 - Relax Edition Three\CD1 - Sun\1-02. Nothing Can Come Between Us.wav

Peak level 96.6 %
Track quality 100.0 %
Test CRC F586A431
Copy CRC F586A431
Track not present in AccurateRip database
Copy OK

Track 3

Filename C:\APE\Blank & Jones\2007 - Relax Edition Three\CD1 - Sun\1-03. City Lights.wav

Peak level 96.6 %
Track quality 100.0 %
Test CRC EF03A6CA
Copy CRC EF03A6CA
Track not present in AccurateRip database
Copy OK

Track 4

Filename C:\APE\Blank & Jones\2007 - Relax Edition Three\CD1 - Sun\1-04. Die Blaue Stunde.wav

Peak level 96.6 %
Track quality 100.0 %
Test CRC 7231B502
Copy CRC 7231B502
Track not present in AccurateRip database
Copy OK

Track 5

Filename C:\APE\Blank & Jones\2007 - Relax Edition Three\CD1 - Sun\1-05. Perfect Love.wav

Peak level 96.6 %
Track quality 99.9 %
Test CRC F1DA3777
Copy CRC F1DA3777
Track not present in AccurateRip database
Copy OK

Track 6

Filename C:\APE\Blank & Jones\2007 - Relax Edition Three\CD1 - Sun\1-06. The Palms.wav

Peak level 96.6 %
Track quality 100.0 %
Test CRC 9A33DA16
Copy CRC 9A33DA16
Track not present in AccurateRip database
Copy OK

Track 7

Filename C:\APE\Blank & Jones\2007 - Relax Edition Three\CD1 - Sun\1-07. Summer Breeze.wav

Peak level 96.6 %
Track quality 99.9 %
Test CRC 31942F83
Copy CRC 31942F83
Track not present in AccurateRip database
Copy OK

Track 8

Filename C:\APE\Blank & Jones\2007 - Relax Edition Three\CD1 - Sun\1-08. Florent 2 am.wav

Peak level 96.6 %
Track quality 100.0 %
Test CRC C7635AAF
Copy CRC C7635AAF
Track not present in AccurateRip database
Copy OK

Track 9

Filename C:\APE\Blank & Jones\2007 - Relax Edition Three\CD1 - Sun\1-09. That Loving Feeling.wav

Peak level 96.6 %
Track quality 100.0 %
Test CRC 73E35964
Copy CRC 73E35964
Track not present in AccurateRip database
Copy OK

Track 10

Filename C:\APE\Blank & Jones\2007 - Relax Edition Three\CD1 - Sun\1-10. California Sunrise.wav

Peak level 96.6 %
Track quality 100.0 %
Test CRC 04DFDB46
Copy CRC 04DFDB46
Track not present in AccurateRip database
Copy OK

Track 11

Filename C:\APE\Blank & Jones\2007 - Relax Edition Three\CD1 - Sun\1-11. Friends.wav

Peak level 96.6 %
Track quality 100.0 %
Test CRC 26F54496
Copy CRC 26F54496
Track not present in AccurateRip database
Copy OK

Track 12

Filename C:\APE\Blank & Jones\2007 - Relax Edition Three\CD1 - Sun\1-12. Down.wav

Peak level 96.6 %
Track quality 99.9 %
Test CRC C98BDB43
Copy CRC C98BDB43
Track not present in AccurateRip database
Copy OK


None of the tracks are present in the AccurateRip database

No errors occurred

End of status report


Exact Audio Copy V0.99 prebeta 4 from 23. January 2008

EAC extraction logfile from 17. October 2008, 21:48

Blank & Jones / Relax Edition Three CD2 Moon

Used drive : PLEXTOR DVDR PX-760A Adapter: 1 ID: 0

Read mode : Secure
Utilize accurate stream : Yes
Defeat audio cache : Yes
Make use of C2 pointers : No

Read offset correction : 30
Overread into Lead-In and Lead-Out : No
Fill up missing offset samples with silence : Yes
Delete leading and trailing silent blocks : No
Null samples used in CRC calculations : Yes
Used interface : Native Win32 interface for Win NT & 2000
Gap handling : Appended to previous track

Used output format : User Defined Encoder
Selected bitrate : 320 kBit/s
Quality : High
Add ID3 tag : No
Command line compressor : C:\Program Files\FLAC\flac.exe
Additional command line options : -8 -V -T "ARTIST=%a" -T "TITLE=%t" -T "ALBUM=%g" -T "DATE=%y" -T "TRACKNUMBER=%n" -T "GENRE=%m" -T "COMMENT=EAC FLAC -8" %s


TOC of the extracted CD

Track | Start | Length | Start sector | End sector
––––––––––––––––––––––––––––-
1 | 0:00.00 | 7:02.70 | 0 | 31719
2 | 7:02.70 | 6:33.73 | 31720 | 61267
3 | 13:36.68 | 6:41.54 | 61268 | 91396
4 | 20:18.47 | 7:04.58 | 91397 | 123254
5 | 27:23.30 | 6:24.01 | 123255 | 152055
6 | 33:47.31 | 6:28.12 | 152056 | 181167
7 | 40:15.43 | 4:36.19 | 181168 | 201886
8 | 44:51.62 | 6:27.04 | 201887 | 230915
9 | 51:18.66 | 8:25.69 | 230916 | 268859


Track 1

Filename C:\APE\Blank & Jones\2007 - Relax Edition Three\CD2 - Moon\2-01. Time (Beach House Mix).wav

Pre-gap length 0:00:02.00

Peak level 97.7 %
Track quality 100.0 %
Test CRC 7F51CA57
Copy CRC 7F51CA57
Track not present in AccurateRip database
Copy OK

Track 2

Filename C:\APE\Blank & Jones\2007 - Relax Edition Three\CD2 - Moon\2-02. Still The Same (Club Rome Mix).wav

Peak level 97.7 %
Track quality 100.0 %
Test CRC 357270DE
Copy CRC 357270DE
Track not present in AccurateRip database
Copy OK

Track 3

Filename C:\APE\Blank & Jones\2007 - Relax Edition Three\CD2 - Moon\2-03. City Lights (Late Night Dub Mix).wav

Peak level 97.7 %
Track quality 100.0 %
Test CRC 9D39F880
Copy CRC 9D39F880
Track not present in AccurateRip database
Copy OK

Track 4

Filename C:\APE\Blank & Jones\2007 - Relax Edition Three\CD2 - Moon\2-04. Captain Of Her Heart (Lounge Instrumental).wav

Peak level 97.7 %
Track quality 100.0 %
Test CRC AD29A7B9
Copy CRC AD29A7B9
Track not present in AccurateRip database
Copy OK

Track 5

Filename C:\APE\Blank & Jones\2007 - Relax Edition Three\CD2 - Moon\2-05. Deliver Me (Funk Dub).wav

Peak level 97.7 %
Track quality 100.0 %
Test CRC 9AEB1CE4
Copy CRC 9AEB1CE4
Track not present in AccurateRip database
Copy OK

Track 6

Filename C:\APE\Blank & Jones\2007 - Relax Edition Three\CD2 - Moon\2-06. Lazy.wav

Peak level 97.7 %
Track quality 99.9 %
Test CRC 1B2AA547
Copy CRC 1B2AA547
Track not present in AccurateRip database
Copy OK

Track 7

Filename C:\APE\Blank & Jones\2007 - Relax Edition Three\CD2 - Moon\2-07. Nothing Can Between Us (Deep Mix).wav

Peak level 97.7 %
Track quality 99.9 %
Test CRC 80048A7C
Copy CRC 80048A7C
Track not present in AccurateRip database
Copy OK

Track 8

Filename C:\APE\Blank & Jones\2007 - Relax Edition Three\CD2 - Moon\2-08. Josephine (Balearic House Mix).wav

Peak level 97.7 %
Track quality 100.0 %
Test CRC 74E995CC
Copy CRC 74E995CC
Track not present in AccurateRip database
Copy OK

Track 9

Filename C:\APE\Blank & Jones\2007 - Relax Edition Three\CD2 - Moon\2-09. People From Ibiza (Bongoloverz Mix).wav

Peak level 97.7 %
Track quality 100.0 %
Test CRC 7C7538DA
Copy CRC 7C7538DA
Track not present in AccurateRip database
Copy OK


None of the tracks are present in the AccurateRip database

No errors occurred

End of status report


Tracklist:
CD 1 (Sun):

01. Roots 03:17
02. Nothing Can Come Between Us (with Mike Francis) 03:50
03. City Lights (with Mike Francis) 04:12
04. Die Blaue Stunde 04:39
05. Perfect Love (with Mike Francis) 04:03
06. The Palms 02:50
07. Summer Breeze (with Mike Francis) 04:19
08. Florent 2 a.m. 03:47
09. That Loving Feeling (with Mike Francis) 05:45
10. California Sunrise 04:06
11. Friends (with Mike Francis) 04:53
12. Down (with Mike Francis) 04:10
CD 2 (Moon):
01. Time (Beach House Mix) (with Mike Francis) 07:02
02. Still The Same (Club Rome Mix) (with Mike Francis) 06:34
03. City Lights (Late Night Dub Mix) (with Mike Francis) 06:41
04. Captain Of Her Heart (Lounge Instrumental) 07:04
05. Deliver Me (Funk Dub) (with Mike Francis) 06:24
06. Lazy 06:27
07. Nothing Can Come Between Us (Deep Mix) (with Mike Francis) 04:36
08. Josephine (Balrearic House Mix) (with Mike Francis) 06:27
09. People From Ibiza (Bongoloverz Mix) 08:25