Subcategories

Black Uhuru - Live At Rockpalast - Essen 1981 (2017) {CD+DVD9 MIG 90652)

Posted By: ruskaval
Black Uhuru  - Live At Rockpalast - Essen 1981 (2017) {CD+DVD9 MIG 90652)

Black Uhuru - Live At Rockpalast - Essen 1981 (2017) {CD+DVD9 MIG 90652)
EAC rip (secure mode) | FLAC (tracks)+CUE+LOG -> 501 Mb | MP3 @320 -> 175 Mb
DVD9 -> 6.34 Gb | All Regions | NTSC 4:3 | LPCM, 2 ch | ~ 118 min | ISO Image
Full Artwork @ 300 dpi (jpg) -> 53 Mb | 5% repair rar
© 1981, 2017 WDR / MIG-Music | MIG 90652
Reggae / Roots Reggae

SLY & ROBBIE recruited the American rock guitarist Daryl Thompson († 2014) whom they knew from their time with PETER TOSH. They engaged the keyboardist Franklyn 'Bubbler' Waul who was however not allowed to play the reggae typical shuffle organ but to steadily thrash the offbeat onto the piano. Those two musicians who were being replaced at several shows with Keith Sterling and Mikey Chung formed the core of BLACK UHURU which together with a second guitarist and a percussionist also dominated the stage in Essen.

Sly's varied drum patterns, Robbie's bass drive, the straight offbeat and Thompson's warped guitar licks were a combination that never had been heard like this in reggae before, a hypnotic wall of sound as basis for the revolutionary Rastafarian lyrics of Michael Rose, Puma Jones and Duckie Simpson, now and then interrupted by surprising echo effects. After their performance at ROCKPALAST, BLACK UHURU enjoyed worldwide success.
Black Uhuru  - Live At Rockpalast - Essen 1981 (2017) {CD+DVD9 MIG 90652)


tracklist:
CD

1. Shine Eye Gal
2. Plastic Smile
3. Puff She Puff
4. King Selassie
5. Youth Of Eglington
6. Push Push
7. General Penitentiary
8. Happiness
9. World Is Africa
10. Sponji Reggae
11. Sinsemilla
12. Guess Who Is Coming To Dinner
13. Abortion

Black Uhuru  - Live At Rockpalast - Essen 1981 (2017) {CD+DVD9 MIG 90652)


DVD
1. Shine Eye Gal
2. Plastic Smile
3. Puff She Puff
4. King Selassie
5. Youth Of Eglington
6. Push Push
7. General Penitentiary
8. Happiness
9. World Is Africa
10. Sponji Reggae
11. Sinsemilla
12. Guess Who Is Coming To Dinner
13. Abortion

Black Uhuru  - Live At Rockpalast - Essen 1981 (2017) {CD+DVD9 MIG 90652)


Exact Audio Copy V1.3 from 2. September 2016

EAC extraction logfile from 28. September 2017, 5:28

Black Uhuru / Live At Rockpalast - Essen

Used drive : hp DVDRW GUD1N Adapter: 1 ID: 0

Read mode : Secure
Utilize accurate stream : Yes
Defeat audio cache : Yes
Make use of C2 pointers : No

Read offset correction : 6
Overread into Lead-In and Lead-Out : No
Fill up missing offset samples with silence : Yes
Delete leading and trailing silent blocks : No
Null samples used in CRC calculations : Yes
Used interface : Native Win32 interface for Win NT & 2000
Gap handling : Appended to previous track

Used output format : User Defined Encoder
Selected bitrate : 128 kBit/s
Quality : High
Add ID3 tag : No
Command line compressor : C:\Program Files (x86)\Exact Audio Copy\Flac\flac.exe
Additional command line options : -8 -V -T "ARTIST=%artist%" -T "TITLE=%title%" -T "ALBUM=%albumtitle%" -T "DATE=%year%" -T "TRACKNUMBER=%tracknr%" -T "TOTALTRACKS=%numtracks%" -T "GENRE=%genre%" -T "ALBUMARTIST=%albumartist%" -T "ALBUM ARTIST=%albumartist%" -T "COMMENT=EAC Secure Mode, Test & Copy, AccurateRip, FLAC -8" %source%


TOC of the extracted CD

Track | Start | Length | Start sector | End sector
––––––––––––––––––––––––––––-
1 | 0:00.00 | 5:41.72 | 0 | 25646
2 | 5:41.72 | 5:11.61 | 25647 | 49032
3 | 10:53.58 | 5:22.28 | 49033 | 73210
4 | 16:16.11 | 5:02.05 | 73211 | 95865
5 | 21:18.16 | 5:02.31 | 95866 | 118546
6 | 26:20.47 | 5:17.49 | 118547 | 142370
7 | 31:38.21 | 4:22.55 | 142371 | 162075
8 | 36:01.01 | 4:49.63 | 162076 | 183813
9 | 40:50.64 | 5:21.00 | 183814 | 207888
10 | 46:11.64 | 5:09.39 | 207889 | 231102
11 | 51:21.28 | 7:26.01 | 231103 | 264553
12 | 58:47.29 | 6:58.55 | 264554 | 295958
13 | 65:46.09 | 8:45.26 | 295959 | 335359


Track 1

Filename C:\addisthe legendflacmaker\01 - Shine Eye Gal.wav

Pre-gap length 0:00:02.00

Peak level 96.0 %
Extraction speed 1.2 X
Track quality 99.9 %
Test CRC 30C87188
Copy CRC 30C87188
Accurately ripped (confidence 7) [CD46F136] (AR v2)
Copy OK

Track 2

Filename C:\addisthe legendflacmaker\02 - Plastic Smile.wav

Peak level 95.7 %
Extraction speed 1.5 X
Track quality 100.0 %
Test CRC F85DE0B7
Copy CRC F85DE0B7
Accurately ripped (confidence 7) [5B91312B] (AR v2)
Copy OK

Track 3

Filename C:\addisthe legendflacmaker\03 - Puff She Puff.wav

Peak level 95.8 %
Extraction speed 1.5 X
Track quality 99.9 %
Test CRC 724BBF3F
Copy CRC 724BBF3F
Accurately ripped (confidence 6) [DB1E0585] (AR v2)
Copy OK

Track 4

Filename C:\addisthe legendflacmaker\04 - King Selassie.wav

Peak level 99.9 %
Extraction speed 1.8 X
Track quality 100.0 %
Test CRC 3551D733
Copy CRC 3551D733
Accurately ripped (confidence 6) [A1E12ACB] (AR v2)
Copy OK

Track 5

Filename C:\addisthe legendflacmaker\05 - Youth Of Eglington.wav

Peak level 95.4 %
Extraction speed 1.7 X
Track quality 99.9 %
Test CRC 5620BF4C
Copy CRC 5620BF4C
Accurately ripped (confidence 7) [7DEF62EA] (AR v2)
Copy OK

Track 6

Filename C:\addisthe legendflacmaker\06 - Push Push.wav

Peak level 98.5 %
Extraction speed 2.0 X
Track quality 100.0 %
Test CRC 145B7CCD
Copy CRC 145B7CCD
Accurately ripped (confidence 7) [22808A4B] (AR v2)
Copy OK

Track 7

Filename C:\addisthe legendflacmaker\07 - General Penitentiary.wav

Peak level 95.1 %
Extraction speed 2.1 X
Track quality 100.0 %
Test CRC E64F139D
Copy CRC E64F139D
Accurately ripped (confidence 7) [F831DD69] (AR v2)
Copy OK

Track 8

Filename C:\addisthe legendflacmaker\08 - Happiness.wav

Peak level 96.2 %
Extraction speed 2.0 X
Track quality 99.9 %
Test CRC F03031DA
Copy CRC F03031DA
Accurately ripped (confidence 7) [DAB58C20] (AR v2)
Copy OK

Track 9

Filename C:\addisthe legendflacmaker\09 - World Is Africa.wav

Peak level 100.0 %
Extraction speed 2.1 X
Track quality 99.9 %
Test CRC 384C8F8E
Copy CRC 384C8F8E
Accurately ripped (confidence 7) [CA148208] (AR v2)
Copy OK

Track 10

Filename C:\addisthe legendflacmaker\10 - Sponji Reggae.wav

Peak level 95.2 %
Extraction speed 2.4 X
Track quality 100.0 %
Test CRC 133808AD
Copy CRC 133808AD
Accurately ripped (confidence 7) [21B5BA99] (AR v2)
Copy OK

Track 11

Filename C:\addisthe legendflacmaker\11 - Sinsemilla.wav

Peak level 96.8 %
Extraction speed 2.6 X
Track quality 100.0 %
Test CRC 6BB69BD8
Copy CRC 6BB69BD8
Accurately ripped (confidence 7) [8F5E7BB9] (AR v2)
Copy OK

Track 12

Filename C:\addisthe legendflacmaker\12 - Guess Who Is Coming To Dinner.wav

Peak level 99.7 %
Extraction speed 2.7 X
Track quality 100.0 %
Test CRC 3B81745C
Copy CRC 3B81745C
Accurately ripped (confidence 7) [09152DB5] (AR v2)
Copy OK

Track 13

Filename C:\addisthe legendflacmaker\13 - Abortion.wav

Peak level 98.1 %
Extraction speed 2.8 X
Track quality 100.0 %
Test CRC F47CEEED
Copy CRC F47CEEED
Accurately ripped (confidence 7) [3F85611F] (AR v2)
Copy OK


All tracks accurately ripped

No errors occurred

End of status report

–– CUETools DB Plugin V2.1.6

[CTDB TOCID: eDYuKpzaykZirU0O5HwvWVVtlh8-] found
Submit result: eDYuKpzaykZirU0O5HwvWVVtlh8- has been confirmed
Track | CTDB Status
1 | (10/10) Accurately ripped
2 | (10/10) Accurately ripped
3 | (10/10) Accurately ripped
4 | (10/10) Accurately ripped
5 | (10/10) Accurately ripped
6 | (10/10) Accurately ripped
7 | (10/10) Accurately ripped
8 | (10/10) Accurately ripped
9 | (10/10) Accurately ripped
10 | (10/10) Accurately ripped
11 | (10/10) Accurately ripped
12 | (10/10) Accurately ripped
13 | (10/10) Accurately ripped


==== Log checksum 34E2EAEDCFD96D61804D4FB3A354E9A9AF365C3B341B3F24982C89B19B79058C ====

I 06:43:35 DVD Decrypter Version 3.5.4.0 started!
I 06:43:36 Home Edition (6.2, Build 9200)
I 06:43:36 Initialising SPTI…
I 06:43:36 Searching for SCSI / ATAPI devices…
I 06:43:36 Found 1 DVD-RAM/±RW!
W 06:43:38 Possible Structure Protection Found!
W 06:43:38 1 area has been marked as 'suspect'.
W 06:43:38 Dummy sectors will be inserted where necessary.
W 06:47:27 Possible Structure Protection Found!
W 06:47:27 1 area has been marked as 'suspect'.
W 06:47:27 Dummy sectors will be inserted where necessary.
W 06:48:59 Possible Structure Protection Found!
W 06:48:59 1 area has been marked as 'suspect'.
W 06:48:59 Dummy sectors will be inserted where necessary.
I 06:49:09 Operation Started!
I 06:49:09 Source Device: [0:0:0] hp DVDRW GUD1N MD00 (E:) (Unknown (0x0B))
I 06:49:09 Source Media Type: DVD-ROM
I 06:49:09 Source Media Region Code: 1; 2; 3; 4; 5; 6; 8
I 06:49:09 Source Media Copyright Protection System Type: None
I 06:49:09 Source Media Implementation Identifier: Apple Computer, Inc.
I 06:49:09 Destination File: C:\Users\Rastafari\Documents\rasta\BLACK_UHURU.ISO
I 06:49:09 File Splitting: None
I 06:49:09 Hardware Read Error Retries: 20
I 06:49:09 Remove Structure Protection: No
I 06:49:09 Bad Sector Removal Method: Normal
I 06:49:09 Detect Mastering Errors: No
I 06:49:09 Remove Macrovision Protection: Yes
I 06:49:09 Extracting Sectors… (LBA: 0 - 3286239)
I 06:49:12 Found IFO File: VIDEO_TS.IFO - (LBA: 316 - 325)
I 06:49:12 Found VOB File: VIDEO_TS.VOB - (LBA: 326 - 382) - KEY: N/A
I 06:49:12 Found BUP File: VIDEO_TS.BUP - (LBA: 383 - 392)
I 06:49:12 Found IFO File: VTS_01_0.IFO - (LBA: 393 - 402)
I 06:49:12 Found VOB File: VTS_01_0.VOB - (LBA: 403 - 590) - KEY: N/A
I 06:49:12 Found VOB File: VTS_01_1.VOB - (LBA: 591 - 757) - KEY: N/A
I 06:49:12 Found BUP File: VTS_01_0.BUP - (LBA: 758 - 767)
I 06:49:12 Found IFO File: VTS_02_0.IFO - (LBA: 768 - 801)
I 06:49:12 Found VOB File: VTS_02_0.VOB - (LBA: 802 - 858) - KEY: N/A
I 06:49:12 Found VOB File: VTS_02_1.VOB - (LBA: 859 - 525060) - KEY: N/A
I 06:52:18 Found VOB File: VTS_02_2.VOB - (LBA: 525061 - 1049262) - KEY: N/A
I 06:54:36 Found VOB File: VTS_02_3.VOB - (LBA: 1049263 - 1573464) - KEY: N/A
I 06:56:31 Found VOB File: VTS_02_4.VOB - (LBA: 1573465 - 2097666) - KEY: N/A
I 06:58:20 Found VOB File: VTS_02_5.VOB - (LBA: 2097667 - 2494899) - KEY: N/A
I 06:59:53 Found BUP File: VTS_02_0.BUP - (LBA: 2494900 - 2494933)
I 06:59:53 Found IFO File: VTS_03_0.IFO - (LBA: 2494934 - 2494943)
I 06:59:53 Found VOB File: VTS_03_0.VOB - (LBA: 2494944 - 2495000) - KEY: N/A
I 06:59:53 Found VOB File: VTS_03_1.VOB - (LBA: 2495001 - 2617297) - KEY: N/A
I 07:00:25 Found BUP File: VTS_03_0.BUP - (LBA: 2617298 - 2617307)
I 07:00:25 Found IFO File: VTS_04_0.IFO - (LBA: 2617308 - 2617317)
I 07:00:25 Found VOB File: VTS_04_0.VOB - (LBA: 2617318 - 2617374) - KEY: N/A
I 07:00:25 Found VOB File: VTS_04_1.VOB - (LBA: 2617375 - 2787683) - KEY: N/A
I 07:01:12 Found BUP File: VTS_04_0.BUP - (LBA: 2787684 - 2787693)
I 07:01:12 Found IFO File: VTS_05_0.IFO - (LBA: 2787694 - 2787703)
I 07:01:12 Found VOB File: VTS_05_0.VOB - (LBA: 2787704 - 2787760) - KEY: N/A
I 07:01:12 Found VOB File: VTS_05_1.VOB - (LBA: 2787761 - 2965714) - KEY: N/A
I 07:02:05 Found BUP File: VTS_05_0.BUP - (LBA: 2965715 - 2965724)
I 07:02:05 Found IFO File: VTS_06_0.IFO - (LBA: 2965725 - 2965734)
I 07:02:05 Found VOB File: VTS_06_0.VOB - (LBA: 2965735 - 2965791) - KEY: N/A
I 07:02:05 Found VOB File: VTS_06_1.VOB - (LBA: 2965792 - 3093580) - KEY: N/A
I 07:02:47 Found BUP File: VTS_06_0.BUP - (LBA: 3093581 - 3093590)
I 07:02:47 Found IFO File: VTS_07_0.IFO - (LBA: 3093591 - 3093600)
I 07:02:47 Found VOB File: VTS_07_0.VOB - (LBA: 3093601 - 3093657) - KEY: N/A
I 07:02:47 Found VOB File: VTS_07_1.VOB - (LBA: 3093658 - 3286220) - KEY: N/A
I 07:03:58 Found BUP File: VTS_07_0.BUP - (LBA: 3286221 - 3286230)
I 07:03:58 Operation Successfully Completed! - Duration: 00:14:48
I 07:03:58 Average Read Rate: 7 401 KB/s (5.3x) - Maximum Read Rate: 10 286 KB/s (7.4x)
I 07:05:09 Close Request Acknowledged
I 07:05:09 Closing Down…
I 07:05:18 Shutting down SPTI…
I 07:05:18 DVD Decrypter closed!


Black Uhuru  - Live At Rockpalast - Essen 1981 (2017) {CD+DVD9 MIG 90652)

Black Uhuru  - Live At Rockpalast - Essen 1981 (2017) {CD+DVD9 MIG 90652)

Black Uhuru  - Live At Rockpalast - Essen 1981 (2017) {CD+DVD9 MIG 90652)

Black Uhuru  - Live At Rockpalast - Essen 1981 (2017) {CD+DVD9 MIG 90652)


thanks to addis…


===