Subcategories

Blackberry Smoke - Find A Light (2018) {3 Legged Records MOSH609} (Complete Artwork)

Posted By: ruskaval
Blackberry Smoke - Find A Light (2018) {3 Legged Records MOSH609} (Complete Artwork)

Blackberry Smoke - Find A Light (2018) {3 Legged Records MOSH609} (Complete Artwork)
EAC rip (secure mode) | FLAC (tracks)+CUE+LOG -> 384 Mb | MP3 @320 -> 128 Mb
Full Artwork @ 600 dpi (jpg) -> 213 Mb | 5% repair rar
© 2018 3 Legged Records / Earache records | MOSH609
Rock / Southern Rock / Blues Rock

Blackberry Smoke's southernness is so deeply ingrained that when they knock out an expert homage to Skynyrd, as they do on "I'll Keep Ramblin'," it seems effortless. This is just who they are – they've internalized all their influences – not just the late, lamented Ronnie Van Zant, the Allman Brothers, and Tom Petty, but a bunch of classic rock 45s from the '60s, plus a hint of Crosby, Stills & Nash – and they can kick up a storm and lay down a mellow groove with equal ease.

This is why Find a Light satisfies even when it doesn't surprise: Blackberry Smoke are traditionalists through and through, carrying the flame for good old-fashioned American rock & roll. Now that they're closing in on their 20th anniversary, Blackberry Smoke sound like veterans in the best possible sense. As a band, they carry their chops and muscle with casual authority, letting the leathery rhythms speak as loudly as the songs themselves. And Charlie Starr's songs are sturdy things, crafted with care and evoking the past without being beholden to it. The result is a splendid little record that simultaneously feels brand new and like a lost gem.
Blackberry Smoke - Find A Light (2018) {3 Legged Records MOSH609} (Complete Artwork)


Personnel:

Charlie Starr - lead vocals, guitar, pedal steel, banjo.
Richard Turner - bass guitar, vocals.
Paul Jackson - guitar, vocals.
Brandon Still - piano, organ.
Brit Turner - drums, percussion.

With Their Friends:
Robert Randolph: Pedal Steel Guitar
Benji Shanks: 12-String Guitar, Dobro
Levi Lowrey: Fiddle
Gaurav Malhotra: Congas
Amanda Shires, Oliver Wood, Chris Wood: Vocals
The Black Bettys (Sherie Murphy & Sherita Murphy): vocals

Tracklisting:

01. "Flesh and Bone" (Charlie Starr) 4:32
02. "Run Away From it All" (Starr, K. Nelson) 4:29
03. "The Crooked Kind" (Starr) 3:40
04. "Medicate my Mind" (Starr, T. Meadows) 4:42
05. "I've Got This Song" (Starr) 4:52
06. "Best Seat in the House" (Starr, K. Nelson) 4:25
07. "I'll Keep Ramblin'" (R. Randolph, Starr) 5:37
08. "Seems so Far" (Starr, T. Meadows) 4:01
09. "Lord Strikes me Dead" (Starr) 3:43
10. "Let me Down Easy" (Starr, K. Nelson) 2:57
11. "Nobody Gives a Damn" (Starr, K. Nelson) 3:22
12. "Till the Wheels Fall Off" (Starr) 3:47
13. "Mother Mountain" (Starr) 3:39

Exact Audio Copy V1.3 from 2. September 2016

EAC extraction logfile from 11. November 2018, 17:03

Blackberry Smoke / Find A Light

Used drive : ASUS DRW-24F1ST a Adapter: 1 ID: 0

Read mode : Secure
Utilize accurate stream : Yes
Defeat audio cache : Yes
Make use of C2 pointers : No

Read offset correction : 6
Overread into Lead-In and Lead-Out : No
Fill up missing offset samples with silence : Yes
Delete leading and trailing silent blocks : No
Null samples used in CRC calculations : Yes
Used interface : Native Win32 interface for Win NT & 2000
Gap handling : Appended to previous track

Used output format : User Defined Encoder
Selected bitrate : 128 kBit/s
Quality : High
Add ID3 tag : No
Command line compressor : C:\Program Files (x86)\Exact Audio Copy\FLAC\FLAC.EXE
Additional command line options : -8 -V -T "ARTIST=%artist%" -T "TITLE=%title%" -T "ALBUM=%albumtitle%" -T "DATE=%year%" -T "TRACKNUMBER=%tracknr%" -T "TOTALTRACKS=%numtracks%" -T "GENRE=%genre%" -T "ALBUMARTIST=%albumartist%" -T "ALBUM ARTIST=%albumartist%" -T "COMMENT=EAC Secure Mode, Test & Copy, AccurateRip, FLAC -8" %source%


TOC of the extracted CD

Track | Start | Length | Start sector | End sector
––––––––––––––––––––––––––––-
1 | 0:01.00 | 4:32.28 | 75 | 20502
2 | 4:33.28 | 4:28.71 | 20503 | 40673
3 | 9:02.24 | 3:40.11 | 40674 | 57184
4 | 12:42.35 | 4:41.45 | 57185 | 78304
5 | 17:24.05 | 4:51.38 | 78305 | 100167
6 | 22:15.43 | 4:25.01 | 100168 | 120043
7 | 26:40.44 | 5:36.53 | 120044 | 145296
8 | 32:17.22 | 4:00.38 | 145297 | 163334
9 | 36:17.60 | 3:43.01 | 163335 | 180060
10 | 40:00.61 | 2:56.38 | 180061 | 193298
11 | 42:57.24 | 3:22.26 | 193299 | 208474
12 | 46:19.50 | 3:46.64 | 208475 | 225488
13 | 50:06.39 | 3:38.49 | 225489 | 241887


Track 1

Filename L:\EAC\01 - Flesh And Bone.wav

Pre-gap length 0:00:03.00

Peak level 99.9 %
Extraction speed 2.1 X
Track quality 100.0 %
Test CRC 9233A2E6
Copy CRC 9233A2E6
Accurately ripped (confidence 10) [5935AB90] (AR v2)
Copy OK

Track 2

Filename L:\EAC\02 - Run Away From It All.wav

Pre-gap length 0:00:00.23

Peak level 99.9 %
Extraction speed 2.1 X
Track quality 100.0 %
Test CRC 65C2CA3A
Copy CRC 65C2CA3A
Accurately ripped (confidence 10) [1D749A22] (AR v2)
Copy OK

Track 3

Filename L:\EAC\03 - The Crooked Kind.wav

Pre-gap length 0:00:01.04

Peak level 99.9 %
Extraction speed 2.0 X
Track quality 100.0 %
Test CRC 5706D255
Copy CRC 5706D255
Accurately ripped (confidence 10) [B4CFBD7C] (AR v2)
Copy OK

Track 4

Filename L:\EAC\04 - Medicate My Mind.wav

Pre-gap length 0:00:03.14

Peak level 99.9 %
Extraction speed 2.1 X
Track quality 100.0 %
Test CRC 5327E748
Copy CRC 5327E748
Accurately ripped (confidence 10) [515BBA45] (AR v2)
Copy OK

Track 5

Filename L:\EAC\05 - I've Got This Song.wav

Pre-gap length 0:00:02.14

Peak level 99.9 %
Extraction speed 1.9 X
Track quality 99.9 %
Test CRC 29EFAB89
Copy CRC 29EFAB89
Accurately ripped (confidence 10) [540605A7] (AR v2)
Copy OK

Track 6

Filename L:\EAC\06 - Best Seat In The House.wav

Pre-gap length 0:00:00.10

Peak level 99.9 %
Extraction speed 2.1 X
Track quality 100.0 %
Test CRC 2C514D1C
Copy CRC 2C514D1C
Accurately ripped (confidence 10) [2FCFF77D] (AR v2)
Copy OK

Track 7

Filename L:\EAC\07 - I'll Keep Ramblin' (featuring Robert Randolph).wav

Pre-gap length 0:00:01.73

Peak level 99.9 %
Extraction speed 2.1 X
Track quality 100.0 %
Test CRC 74901E4A
Copy CRC 74901E4A
Accurately ripped (confidence 10) [B1AE7FB0] (AR v2)
Copy OK

Track 8

Filename L:\EAC\08 - Seems So Far.wav

Pre-gap length 0:00:02.19

Peak level 99.9 %
Extraction speed 2.0 X
Track quality 100.0 %
Test CRC 02C6C21E
Copy CRC 02C6C21E
Accurately ripped (confidence 10) [35F1D048] (AR v2)
Copy OK

Track 9

Filename L:\EAC\09 - Lord Strike Me Dead.wav

Pre-gap length 0:00:01.52

Peak level 99.9 %
Extraction speed 2.0 X
Track quality 100.0 %
Test CRC EFA8346E
Copy CRC EFA8346E
Accurately ripped (confidence 10) [8D90B111] (AR v2)
Copy OK

Track 10

Filename L:\EAC\10 - Let Me Down Easy (featuring Amanda Shires).wav

Pre-gap length 0:00:01.70

Peak level 99.9 %
Extraction speed 1.9 X
Track quality 100.0 %
Test CRC 0C688A37
Copy CRC 0C688A37
Accurately ripped (confidence 10) [7EFC21AA] (AR v2)
Copy OK

Track 11

Filename L:\EAC\11 - Nobody Gives A Damn.wav

Pre-gap length 0:00:02.05

Peak level 99.9 %
Extraction speed 2.0 X
Track quality 100.0 %
Test CRC 858D78F7
Copy CRC 858D78F7
Accurately ripped (confidence 10) [E09E0FA7] (AR v2)
Copy OK

Track 12

Filename L:\EAC\12 - Till The Wheels Fall Off.wav

Pre-gap length 0:00:01.41

Peak level 99.9 %
Extraction speed 2.0 X
Track quality 100.0 %
Test CRC AE170350
Copy CRC AE170350
Accurately ripped (confidence 10) [36A157F6] (AR v2)
Copy OK

Track 13

Filename L:\EAC\13 - Mother Mountain (featuring The Wood Brothers).wav

Pre-gap length 0:00:01.51

Peak level 99.8 %
Extraction speed 2.0 X
Track quality 100.0 %
Test CRC CAEA5FF5
Copy CRC CAEA5FF5
Accurately ripped (confidence 10) [9FE2E61B] (AR v2)
Copy OK


All tracks accurately ripped

No errors occurred

End of status report

–– CUETools DB Plugin V2.1.6

[CTDB TOCID: uSxuKJWKK8muQzwPlyR4NV0KK7Q-] found
Submit result: uSxuKJWKK8muQzwPlyR4NV0KK7Q- has been confirmed
Track | CTDB Status
1 | (115/115) Accurately ripped
2 | (115/115) Accurately ripped
3 | (115/115) Accurately ripped
4 | (115/115) Accurately ripped
5 | (115/115) Accurately ripped
6 | (115/115) Accurately ripped
7 | (115/115) Accurately ripped
8 | (115/115) Accurately ripped
9 | (115/115) Accurately ripped
10 | (115/115) Accurately ripped
11 | (115/115) Accurately ripped
12 | (115/115) Accurately ripped
13 | (115/115) Accurately ripped


==== Log checksum B0D287559431DE24C0D27364EEDB309764C723B3162A811A4AFD8277A7C7A132 ====


Blackberry Smoke - Find A Light (2018) {3 Legged Records MOSH609} (Complete Artwork)

Blackberry Smoke - Find A Light (2018) {3 Legged Records MOSH609} (Complete Artwork)


see also:
Blackberry Smoke - Like An Arrow (2016) {Earache Records MOSH574}



===