Subcategories

Blank & Jones - Relax - Edition Four (2 CD)

Posted By: FLESH
Blank & Jones - Relax - Edition Four (2 CD)

Blank & Jones - Relax - Edition Four (2 CD)
Electronic, Abstract, Downtempo, Ambient
FLAC+cue+log | 849.6 Mb | MP3, 192 Kbps | 189.6 Mb | Covers
Label: Soundcolours | Catalog#: SC 0109 | Country: Germany | Released: 17 Apr 2009

Tracklisting:
CD1 - Sun
1-01 Face À La Mer (6:25)
1-02 Happy Dreamer (Blank & Jones Relax Mix) (4:54)
1-03 Nuits Blanches (4:06)
1-04 Relax (Your Mind) (6:12)
1-05 Chilled Cream (6:56)
1-06 Try Again (Blank & Jones Relax Mix) (5:18)
1-07 Heart Of Wax (Late Night Mix) (4:47)
1-08 Smooth (4:22)
1-09 Up 2 You (5:39)
1-10 Blue Moon (5:10)
1-11 Pure (6:10)
1-12 Consequences (Late Night Mix) (8:01)
1-13 Lullaby (Les Yeux Fermes) (5:51)

CD2 - Moon
2-01 Where You Belong (Poolside House Mix) (7:05)
2-02 Lazy Life (5:19)
2-03 Listen To My Heartbeat (5:55)
2-04 Butterfisch (9:08)
2-05 Do It (7:08)
2-06 El Verano (7:43)
2-07 Relax (Your Mind) (Boutique Mix) (6:00)
2-08 Fierce People (5:01)
2-09 Beauty (5:31)
2-10 Every Day Every Night (4:37)

Exact Audio Copy V0.99 prebeta 4 from 23. January 2008

EAC extraction logfile from 20. April 2009, 15:56

Blank & Jones / Relax Edition Four (CD1 - Sun)

Used drive : PIONEER DVD-RW DVR-112D Adapter: 1 ID: 0

Read mode : Secure
Utilize accurate stream : Yes
Defeat audio cache : Yes
Make use of C2 pointers : No

Read offset correction : 48
Overread into Lead-In and Lead-Out : No
Fill up missing offset samples with silence : Yes
Delete leading and trailing silent blocks : No
Null samples used in CRC calculations : Yes
Used interface : Installed external ASPI interface

Used output format : User Defined Encoder
Selected bitrate : 192 kBit/s
Quality : Low
Add ID3 tag : Yes
Command line compressor : C:\Program Files\E A C Audio\Flac\flac.exe
Additional command line options : -V -8 -T "artist=%a" -T "title=%t" -T "album=%g" -T "date=%y" -T "tracknumber=%n" -T "genre=%m" %s


TOC of the extracted CD

Track | Start | Length | Start sector | End sector
––––––––––––––––––––––––––––-
1 | 0:00.00 | 6:35.54 | 0 | 29678
2 | 6:35.54 | 5:00.25 | 29679 | 52203
3 | 11:36.04 | 4:05.24 | 52204 | 70602
4 | 15:41.28 | 6:15.62 | 70603 | 98789
5 | 21:57.15 | 6:52.71 | 98790 | 129760
6 | 28:50.11 | 5:18.24 | 129761 | 153634
7 | 34:08.35 | 4:51.55 | 153635 | 175514
8 | 39:00.15 | 4:21.61 | 175515 | 195150
9 | 43:22.01 | 5:42.49 | 195151 | 220849
10 | 49:04.50 | 5:15.47 | 220850 | 244521
11 | 54:20.22 | 6:05.27 | 244522 | 271923
12 | 60:25.49 | 8:06.39 | 271924 | 308412
13 | 68:32.13 | 6:33.64 | 308413 | 337951


Range status and errors

Selected range

Filename G:\Blank & Jones - Relax Edition Four\Blank & Jones - Relax Edition Four (CD1 - Sun).wav

Peak level 100.0 %
Range quality 100.0 %
Test CRC E18DCBDD
Copy CRC E18DCBDD
Copy OK

No errors occurred


AccurateRip summary

Track 1 not present in database
Track 2 not present in database
Track 3 not present in database
Track 4 not present in database
Track 5 not present in database
Track 6 not present in database
Track 7 not present in database
Track 8 not present in database
Track 9 not present in database
Track 10 not present in database
Track 11 not present in database
Track 12 not present in database
Track 13 not present in database

None of the tracks are present in the AccurateRip database

End of status report

Exact Audio Copy V0.99 prebeta 4 from 23. January 2008

EAC extraction logfile from 20. April 2009, 17:03

Blank & Jones / Relax Edition Four (CD2 - Moon)

Used drive : PIONEER DVD-RW DVR-112D Adapter: 1 ID: 0

Read mode : Secure
Utilize accurate stream : Yes
Defeat audio cache : Yes
Make use of C2 pointers : No

Read offset correction : 48
Overread into Lead-In and Lead-Out : No
Fill up missing offset samples with silence : Yes
Delete leading and trailing silent blocks : No
Null samples used in CRC calculations : Yes
Used interface : Installed external ASPI interface

Used output format : User Defined Encoder
Selected bitrate : 192 kBit/s
Quality : Low
Add ID3 tag : Yes
Command line compressor : C:\Program Files\E A C Audio\Flac\flac.exe
Additional command line options : -V -8 -T "artist=%a" -T "title=%t" -T "album=%g" -T "date=%y" -T "tracknumber=%n" -T "genre=%m" %s


TOC of the extracted CD

Track | Start | Length | Start sector | End sector
––––––––––––––––––––––––––––-
1 | 0:00.00 | 7:08.31 | 0 | 32130
2 | 7:08.31 | 5:21.31 | 32131 | 56236
3 | 12:29.62 | 5:57.33 | 56237 | 83044
4 | 18:27.20 | 9:10.11 | 83045 | 124305
5 | 27:37.31 | 7:10.36 | 124306 | 156591
6 | 34:47.67 | 7:43.31 | 156592 | 191347
7 | 42:31.23 | 6:01.27 | 191348 | 218449
8 | 48:32.50 | 5:02.70 | 218450 | 241169
9 | 53:35.45 | 5:33.26 | 241170 | 266170
10 | 59:08.71 | 4:36.45 | 266171 | 286915


Range status and errors

Selected range

Filename G:\Blank & Jones - Relax Edition Four\Blank & Jones - Relax Edition Four (CD2 - Moon).wav

Peak level 99.9 %
Range quality 99.9 %
Test CRC FF38D202
Copy CRC FF38D202
Copy OK

No errors occurred


AccurateRip summary

Track 1 not present in database
Track 2 not present in database
Track 3 not present in database
Track 4 not present in database
Track 5 not present in database
Track 6 not present in database
Track 7 not present in database
Track 8 not present in database
Track 9 not present in database
Track 10 not present in database

None of the tracks are present in the AccurateRip database

End of status report

lossless
Скачать с RapidShare
CD1
Part 1 | Part 2 | Part 3 | Part 4 | Part 5
CD2
Part 2 | Part 2 | Part 3 | Part 4 | Part 5

MP3
Скачать с RapidShare
CD1
Part 1 | Part 2
CD2
CD2

Covers
Covers

Folder Music RapidShare

Welcome to my Blog