Subcategories
Tags
Language
Tags

Blanket Of Secrecy - Ears Have Walls (1982/2018)

Posted By: delpotro
Blanket Of Secrecy - Ears Have Walls (1982/2018)

Blanket Of Secrecy - Ears Have Walls (1982/2018)
EAC Rip | FLAC (tracks+log+.cue) - 337 Mb | MP3 CBR 320 kbps - 130 Mb | Covers included | 00:56:26
New Wave, Synthpop | Label: Avex Asia | Ru

One of the finest pop albums of its time, Walls Have Ears remains one of many overlooked gems from the new wave era. This mysterious trio wrote pure and unabashed pop songs heavily influenced by the '60s and '70s and dressed them up in '80s clothing. Guitars float and shimmer above a synth foundation, allowing vocal harmonies (and some bits of brass) to roam freely in and out of each song. The haunting "Say You Will" is drop-dead gorgeous with its acoustic guitar riff and pained vocals. "Yo-Yo" could have been a massive hit with its classic hook bouncing around the room. "Remember Me and You," "Tell Me Baby" and "Love Me Too" contain all the elements that make pop music so enchanting and enticing. When BOS get all gooey on ballads such as "Lovers," "Close to Me" and "Photograph," the effects are mesmerizing. An album to love and embrace your whole life through. – AllMusic Review by Stephen Schnee
Tracklist:
1. Say You Will (04:01)
2. Young Heart (03:41)
3. Love Me Too (02:46)
4. Remember Me And You (03:22)
5. Long Cool Glass (03:35)
6. Photograph (04:39)
7. Yo Yo (03:18)
8. Close To Me (04:08)
9. Something I Don't Need (03:01)
10. Tell Me Baby (03:30)
11. Lovers (04:52)
12. B.O.S. Theme (03:25)
13. Feather In My Hand (03:39)
14. In The Garden (02:46)
15. Say You Will (Extended Version) (05:34)

Exact Audio Copy V1.0 beta 3 from 29. August 2011

EAC extraction logfile from 7. November 2019, 18:38

Blanket of Secrecy / Ears Have Walls

Used drive : SAMSUNG CDRW/DVD SM-352F Adapter: 0 ID: 0

Read mode : Secure
Utilize accurate stream : Yes
Defeat audio cache : Yes
Make use of C2 pointers : No

Read offset correction : 6
Overread into Lead-In and Lead-Out : No
Fill up missing offset samples with silence : Yes
Delete leading and trailing silent blocks : No
Null samples used in CRC calculations : Yes
Used interface : Native Win32 interface for Win NT & 2000
Gap handling : Appended to previous track

Used output format : User Defined Encoder
Selected bitrate : 1024 kBit/s
Quality : High
Add ID3 tag : No
Command line compressor : C:\Program Files\flac-1.3.2-win\win32\flac.exe
Additional command line options : -8 -V -T "ARTIST=%artist%" -T "TITLE=%title%" -T "ALBUM=%albumtitle%" -T "DATE=%year%" -T "TRACKNUMBER=%tracknr%" -T "GENRE=%genre%" -T "PERFORMER=%albuminterpret%" -T"COMPOSER=%composer%" %haslyrics%–tag-fromfile=LYRICS="%lyricsfile%"%haslyrics% -T "ALBUMARTIST=%albumartist%" -T "DISCNUMBER=%cdnumber%" -T "TOTALDISCS=%totalcds%" -T "TOTALTRACKS=%numtracks%" -T "COMMENT=%comment%" %source% -o %dest%


TOC of the extracted CD

Track | Start | Length | Start sector | End sector
––––––––––––––––––––––––––––-
1 | 0:00.00 | 4:02.05 | 0 | 18154
2 | 4:02.05 | 3:41.35 | 18155 | 34764
3 | 7:43.40 | 2:46.58 | 34765 | 47272
4 | 10:30.23 | 3:23.05 | 47273 | 62502
5 | 13:53.28 | 3:35.47 | 62503 | 78674
6 | 17:29.00 | 4:39.32 | 78675 | 99631
7 | 22:08.32 | 3:19.03 | 99632 | 114559
8 | 25:27.35 | 4:08.58 | 114560 | 133217
9 | 29:36.18 | 3:01.37 | 133218 | 146829
10 | 32:37.55 | 3:30.32 | 146830 | 162611
11 | 36:08.12 | 4:52.35 | 162612 | 184546
12 | 41:00.47 | 3:25.20 | 184547 | 199941
13 | 44:25.67 | 3:39.13 | 199942 | 216379
14 | 48:05.05 | 2:46.60 | 216380 | 228889
15 | 50:51.65 | 5:34.37 | 228890 | 253976


Track 1

Filename C:\Documents and Settings\User\Рабочий стол\Blanket\01 - Say You Will.wav

Pre-gap length 0:00:02.00

Peak level 92.1 %
Extraction speed 1.8 X
Track quality 100.0 %
Test CRC D500D42A
Copy CRC D500D42A
Track not present in AccurateRip database
Copy OK

Track 2

Filename C:\Documents and Settings\User\Рабочий стол\Blanket\02 - Young Heart.wav

Pre-gap length 0:00:02.00

Peak level 95.4 %
Extraction speed 2.0 X
Track quality 100.0 %
Test CRC B6A2910F
Copy CRC B6A2910F
Track not present in AccurateRip database
Copy OK

Track 3

Filename C:\Documents and Settings\User\Рабочий стол\Blanket\03 - Love Me Too.wav

Pre-gap length 0:00:02.00

Peak level 91.9 %
Extraction speed 2.0 X
Track quality 100.0 %
Test CRC F6D2DA21
Copy CRC F6D2DA21
Track not present in AccurateRip database
Copy OK

Track 4

Filename C:\Documents and Settings\User\Рабочий стол\Blanket\04 - Remember Me and You.wav

Pre-gap length 0:00:02.00

Peak level 99.9 %
Extraction speed 2.0 X
Track quality 100.0 %
Test CRC 9C052F40
Copy CRC 9C052F40
Track not present in AccurateRip database
Copy OK

Track 5

Filename C:\Documents and Settings\User\Рабочий стол\Blanket\05 - Long Cool Glass.wav

Pre-gap length 0:00:02.00

Peak level 98.8 %
Extraction speed 2.1 X
Track quality 100.0 %
Test CRC B6E0D5F0
Copy CRC B6E0D5F0
Track not present in AccurateRip database
Copy OK

Track 6

Filename C:\Documents and Settings\User\Рабочий стол\Blanket\06 - Photograph.wav

Pre-gap length 0:00:02.00

Peak level 93.8 %
Extraction speed 2.1 X
Track quality 100.0 %
Test CRC 964AD8AF
Copy CRC 964AD8AF
Track not present in AccurateRip database
Copy OK

Track 7

Filename C:\Documents and Settings\User\Рабочий стол\Blanket\07 - Yo Yo.wav

Pre-gap length 0:00:02.00

Peak level 99.8 %
Extraction speed 2.1 X
Track quality 100.0 %
Test CRC 743F2C48
Copy CRC 743F2C48
Track not present in AccurateRip database
Copy OK

Track 8

Filename C:\Documents and Settings\User\Рабочий стол\Blanket\08 - Close to Me.wav

Pre-gap length 0:00:02.00

Peak level 99.9 %
Extraction speed 2.1 X
Track quality 100.0 %
Test CRC 128DCE89
Copy CRC 128DCE89
Track not present in AccurateRip database
Copy OK

Track 9

Filename C:\Documents and Settings\User\Рабочий стол\Blanket\09 - Something I Don't Need.wav

Pre-gap length 0:00:02.00

Peak level 94.1 %
Extraction speed 2.0 X
Track quality 100.0 %
Test CRC D879DF60
Copy CRC D879DF60
Track not present in AccurateRip database
Copy OK

Track 10

Filename C:\Documents and Settings\User\Рабочий стол\Blanket\10 - Tell Me Baby.wav

Pre-gap length 0:00:02.00

Peak level 89.0 %
Extraction speed 2.1 X
Track quality 100.0 %
Test CRC 82174E55
Copy CRC 82174E55
Track not present in AccurateRip database
Copy OK

Track 11

Filename C:\Documents and Settings\User\Рабочий стол\Blanket\11 - Lovers.wav

Pre-gap length 0:00:02.00

Peak level 94.2 %
Extraction speed 2.0 X
Track quality 99.9 %
Test CRC E0B8668A
Copy CRC E0B8668A
Track not present in AccurateRip database
Copy OK

Track 12

Filename C:\Documents and Settings\User\Рабочий стол\Blanket\12 - B.O.S. Theme.wav

Pre-gap length 0:00:02.00

Peak level 94.1 %
Extraction speed 2.1 X
Track quality 100.0 %
Test CRC 6B7ABC9A
Copy CRC 6B7ABC9A
Track not present in AccurateRip database
Copy OK

Track 13

Filename C:\Documents and Settings\User\Рабочий стол\Blanket\13 - Feather in My Hand.wav

Pre-gap length 0:00:02.00

Peak level 99.8 %
Extraction speed 2.0 X
Track quality 100.0 %
Test CRC 38FC5D18
Copy CRC 38FC5D18
Track not present in AccurateRip database
Copy OK

Track 14

Filename C:\Documents and Settings\User\Рабочий стол\Blanket\14 - In the Garden.wav

Pre-gap length 0:00:02.00

Peak level 99.9 %
Extraction speed 2.0 X
Track quality 100.0 %
Test CRC 390248CF
Copy CRC 390248CF
Track not present in AccurateRip database
Copy OK

Track 15

Filename C:\Documents and Settings\User\Рабочий стол\Blanket\15 - Say You Will (extended version).wav

Pre-gap length 0:00:02.00

Peak level 99.6 %
Extraction speed 2.1 X
Track quality 100.0 %
Test CRC 6092C04E
Copy CRC 6092C04E
Track not present in AccurateRip database
Copy OK


None of the tracks are present in the AccurateRip database

No errors occurred

End of status report

–– CUETools DB Plugin V2.1.3

[CTDB TOCID: .3jkCNaMTTRI01ERBRl5WWJjDUc-] found, Submit result: already submitted
[55f4d846] (1/1) Accurately ripped


==== Log checksum 0285AEB8CB29739870DF059DCA4B871C3BAF724AC6A8E8276A9D12B57561278F ====

Thanks to the Original ripper !