Subcategories

Bloodbound - War Of Dragons (Japan Edition) (2017)

Posted By: Domestos
Bloodbound - War Of Dragons (Japan Edition) (2017)

Bloodbound - War Of Dragons (Japan Edition) (2017)
EAC Rip | FLAC (image+.cue, log) ~ 362.26 Mb + 41.58 Mb (Scans) | 49:05
Power Metal | Country: Sweden | Label: Avalon-Marquee - MICP-11337

2017 release. It's been an impressive journey for Bloodbound: The Swedish power metal commando has become more and more popular in recent years. All this falls back on talent and hard work: Since 2005 Bloodbound has not only released six studio albums and a Live DVD/CD, they have also toured with giants such as Sabaton, HammerFall and U.D.O. - in the process winning over a very devoted and loyal fanbase of metalheads. War Of Dragons is basically a continuation of the successful Stormborn (2014), but offering more fast-paced tracks, without lacking the anthemic feel the band is known for. Bloodbound are masters in combining melody with power and War Of Dragons perfectly displays the evolution that the band has gone through since their debut Nosferatu was let loose.

Track List:
01. A New Era Begins
02. Battle in the Sky
03. Tears of a Dragonheart
04. War of Dragons
05. Silver Wings
06. Stand and Fight
07. King of Swords
08. Fallen Heroes
09. Guardians at Heaven's Gate
10. Symphony Satana
11. Starfall
12. Dragons Are Forever
13. The Dark Side Of Life (Demo) (Japan Bonus Track)

Bloodbound - War Of Dragons (Japan Edition) (2017)

Exact Audio Copy V1.0 beta 3 from 29. August 2011

EAC extraction logfile from 28. February 2017, 17:45

BLOODBOUND / War Of Dragons

Used drive : TSSTcorpDVD-ROM TS-H353C Adapter: 1 ID: 0

Read mode : Secure
Utilize accurate stream : Yes
Defeat audio cache : Yes
Make use of C2 pointers : No

Read offset correction : 6
Overread into Lead-In and Lead-Out : No
Fill up missing offset samples with silence : Yes
Delete leading and trailing silent blocks : No
Null samples used in CRC calculations : Yes
Used interface : Native Win32 interface for Win NT & 2000

Used output format : User Defined Encoder
Selected bitrate : 896 kBit/s
Quality : High
Add ID3 tag : No
Command line compressor : I:\Program Files\Exact Audio Copy\Flac\flac.exe
Additional command line options : -V -8 -T "Date=%year%" -T "Genre=%genre%" -T"COMMENT=Ripped by northerking" -8 -V %source%

TOC of the extracted CD

Track | Start | Length | Start sector | End sector
––––––––––––––––––––––––––––-
1 | 0:00.00 | 0:30.01 | 0 | 2250
2 | 0:30.01 | 4:24.42 | 2251 | 22092
3 | 4:54.43 | 3:49.40 | 22093 | 39307
4 | 8:44.08 | 4:08.56 | 39308 | 57963
5 | 12:52.64 | 3:45.43 | 57964 | 74881
6 | 16:38.32 | 3:34.08 | 74882 | 90939
7 | 20:12.40 | 4:05.70 | 90940 | 109384
8 | 24:18.35 | 4:20.23 | 109385 | 128907
9 | 28:38.58 | 3:41.48 | 128908 | 145530
10 | 32:20.31 | 4:57.02 | 145531 | 167807
11 | 37:17.33 | 3:55.41 | 167808 | 185473
12 | 41:12.74 | 3:57.17 | 185474 | 203265
13 | 45:10.16 | 3:54.73 | 203266 | 220888

Range status and errors

Selected range

Filename L:\战争机器666=northerking\BLOODBOUND - War Of Dragons.wav

Peak level 100.0 %
Extraction speed 6.7 X
Range quality 99.9 %
Test CRC 9BAD9FBE
Copy CRC 9BAD9FBE
Copy OK

No errors occurred

AccurateRip summary

Track 1 not present in database
Track 2 not present in database
Track 3 not present in database
Track 4 not present in database
Track 5 not present in database
Track 6 not present in database
Track 7 not present in database
Track 8 not present in database
Track 9 not present in database
Track 10 not present in database
Track 11 not present in database
Track 12 not present in database
Track 13 not present in database

None of the tracks are present in the AccurateRip database

End of status report

–– CUETools DB Plugin V2.1.3

[CTDB TOCID: cpYPM91fwyp8Wghm.3AgZZFN8zw-] disk not present in database, Submit result: database access error: 请求被中止: 请求已被取消。

==== Log checksum 0E789E3B87E852C7B8DDC82D71117723B4D54C9D82AD047F27332947B9D0603F ====

All thanks go to the northerking

More Music in My Blog
Follow My RSS Channel