Subcategories

Blue Mitchell - Blue Soul (1959) {Japan MiniLP JVC 20bit K2 rel 2006}

Posted By: ruskaval
Blue Mitchell - Blue Soul (1959) {Japan MiniLP JVC 20bit K2 rel 2006}

Blue Mitchell - Blue Soul (1959) {Japan MiniLP JVC 20bit K2 rel 2006}
EAC rip (secure mode) | FLAC (tracks)+CUE+LOG -> 278 Mb | MP3 @320 -> 96 Mb
Full Artwork @ 300 dpi (jpg) -> 10 Mb | 5% repair rar
© 1959, 2006 Riverside / JVC Japan | VICJ-41559 | 20bit K2
Jazz / Hard Bop / Trumpet

A strong early winner from Blue – recorded with an all-star group that includes Curtis Fuller, Jimmy Heath, Wynton Kelly, Sam Jones, and Philly Joe Jones. Mitchell's not necessarily the leader – Benny Golson and Jimmy Heath handled the arrangements – but the group overall is great, and the set has a nice mix of lyricality and hard bop groove. 9 numbers in all, including "Minor Vamp", "The Head", "Top Shelf", "Blue Soul", "The Way You Look Tonight", "Park Avenue Petite", "Polka Dots & Moonbeams", "Nica's Dream", and "Waverly Street".
Blue Mitchell - Blue Soul (1959) {Japan MiniLP JVC 20bit K2 rel 2006}


Personnel:
Blue Mitchell (trumpet)
Jimmy Heath (tenor saxophone)
Curtis Fuller (trombone)
Wynton Kelly (piano)
Sam Jones (bass)
Philly Joe Jones (drums)

tracklist:
01 - Minor Vamp
02 - The Head
03 - The Way You Look Tonight
04 - Park Avenue Petite
05 - Top Shelf
06 - Waverley Street
07 - Blue Soul
08 - Polka Dots And Moonbeams
09 - Nica's Dream

Exact Audio Copy V1.0 beta 3 from 29. August 2011

EAC extraction logfile from 15. July 2016, 13:07

Blue Mitchell / Blue Soul

Used drive : ASUS DRW-24B1ST a Adapter: 1 ID: 1

Read mode : Secure
Utilize accurate stream : Yes
Defeat audio cache : Yes
Make use of C2 pointers : No

Read offset correction : 6
Overread into Lead-In and Lead-Out : No
Fill up missing offset samples with silence : Yes
Delete leading and trailing silent blocks : No
Null samples used in CRC calculations : Yes
Used interface : Native Win32 interface for Win NT & 2000
Gap handling : Appended to previous track

Used output format : User Defined Encoder
Selected bitrate : 896 kBit/s
Quality : High
Add ID3 tag : No
Command line compressor : C:\Program Files (x86)\Exact Audio Copy\Flac\flac.exe
Additional command line options : -8 -V -T "ARTIST=%artist%" -T "TITLE=%title%" -T "ALBUM=%albumtitle%" -T "DATE=%year%" -T "TRACKNUMBER=%tracknr%" -T "TOTALTRACKS=%numtracks%" -T "GENRE=%genre%" -T "ALBUMARTIST=%albumartist%" -T "ALBUM ARTIST=%albumartist%" -T "COMMENT=EAC Secure Mode, Test & Copy, AccurateRip, FLAC -8" %source%


TOC of the extracted CD

Track | Start | Length | Start sector | End sector
––––––––––––––––––––––––––––-
1 | 0:00.00 | 3:43.32 | 0 | 16756
2 | 3:43.32 | 4:29.18 | 16757 | 36949
3 | 8:12.50 | 3:22.70 | 36950 | 52169
4 | 11:35.45 | 3:58.22 | 52170 | 70041
5 | 15:33.67 | 4:07.15 | 70042 | 88581
6 | 19:41.07 | 5:00.50 | 88582 | 111131
7 | 24:41.57 | 4:12.08 | 111132 | 130039
8 | 28:53.65 | 5:50.35 | 130040 | 156324
9 | 34:44.25 | 6:33.52 | 156325 | 185851


Track 1

Filename K:\Flac Rips\J\Blue Michell - Blue Soul (1959) [FLAC]\01 - Minor Vamp.wav

Pre-gap length 0:00:02.00

Peak level 97.9 %
Extraction speed 2.7 X
Track quality 99.9 %
Test CRC EB205280
Copy CRC EB205280
Accurately ripped (confidence 2) [05E74CAB] (AR v1)
Copy OK

Track 2

Filename K:\Flac Rips\J\Blue Michell - Blue Soul (1959) [FLAC]\02 - The Head.wav

Pre-gap length 0:00:02.34

Peak level 97.9 %
Extraction speed 3.1 X
Track quality 99.9 %
Test CRC 281DB33A
Copy CRC 281DB33A
Accurately ripped (confidence 2) [D99955D2] (AR v1)
Copy OK

Track 3

Filename K:\Flac Rips\J\Blue Michell - Blue Soul (1959) [FLAC]\03 - The Way You Look Tonight.wav

Pre-gap length 0:00:02.34

Peak level 97.9 %
Extraction speed 4.0 X
Track quality 100.0 %
Test CRC 638E5882
Copy CRC 638E5882
Accurately ripped (confidence 2) [DCBECC4B] (AR v1)
Copy OK

Track 4

Filename K:\Flac Rips\J\Blue Michell - Blue Soul (1959) [FLAC]\04 - Park Avenue Petite.wav

Pre-gap length 0:00:02.34

Peak level 97.9 %
Extraction speed 4.4 X
Track quality 100.0 %
Test CRC 6BDE7EE6
Copy CRC 6BDE7EE6
Accurately ripped (confidence 2) [A6F1E014] (AR v1)
Copy OK

Track 5

Filename K:\Flac Rips\J\Blue Michell - Blue Soul (1959) [FLAC]\05 - Top Shelf.wav

Pre-gap length 0:00:02.31

Peak level 97.9 %
Extraction speed 4.7 X
Track quality 100.0 %
Test CRC 5E3529C5
Copy CRC 5E3529C5
Accurately ripped (confidence 2) [38D694A4] (AR v1)
Copy OK

Track 6

Filename K:\Flac Rips\J\Blue Michell - Blue Soul (1959) [FLAC]\06 - Waverley Street.wav

Pre-gap length 0:00:02.34

Peak level 97.9 %
Extraction speed 5.1 X
Track quality 100.0 %
Test CRC BEA54B09
Copy CRC BEA54B09
Accurately ripped (confidence 2) [988D0ECA] (AR v1)
Copy OK

Track 7

Filename K:\Flac Rips\J\Blue Michell - Blue Soul (1959) [FLAC]\07 - Blue Soul.wav

Pre-gap length 0:00:02.34

Peak level 97.9 %
Extraction speed 5.3 X
Track quality 100.0 %
Test CRC 1B436441
Copy CRC 1B436441
Accurately ripped (confidence 2) [F03C32E3] (AR v1)
Copy OK

Track 8

Filename K:\Flac Rips\J\Blue Michell - Blue Soul (1959) [FLAC]\08 - Polka Dots And Moonbeams.wav

Pre-gap length 0:00:02.34

Peak level 97.9 %
Extraction speed 5.8 X
Track quality 100.0 %
Test CRC 5C52B3E9
Copy CRC 5C52B3E9
Accurately ripped (confidence 2) [D8EEF30D] (AR v1)
Copy OK

Track 9

Filename K:\Flac Rips\J\Blue Michell - Blue Soul (1959) [FLAC]\09 - Nica's Dream.wav

Pre-gap length 0:00:02.34

Peak level 97.9 %
Extraction speed 6.2 X
Track quality 100.0 %
Test CRC C224C315
Copy CRC C224C315
Accurately ripped (confidence 2) [67987FE8] (AR v1)
Copy OK


All tracks accurately ripped

No errors occurred

End of status report

==== Log checksum 9BCEEFD2BC5552B511CC62FAE2342AA8C3ABCB64E50722144B8A24D01621C9CD ====


Blue Mitchell - Blue Soul (1959) {Japan MiniLP JVC 20bit K2 rel 2006}

Blue Mitchell - Blue Soul (1959) {Japan MiniLP JVC 20bit K2 rel 2006}


All thanks goes to the original releaser!