Subcategories

Blur – There's No Other Way (1991) (CD Single)

Posted By: muddboogers
Blur – There's No Other Way (1991) (CD Single)

Blur – There's No Other Way (1991) (CD Single)
EAC | FLAC Image with CUE & LOG | 13:03 mins | Scans | RAR 3% Recovery | 87 MB
Alternative Rock / Brit Pop | 1991 SBK Records #K2-19747

"There's No Other Way" is a song by Blur and was released 15 April 1991 as their second single. The song was the band's first top ten and top 40 hit and was also featured on the band's debut album Leisure. The single was also a minor hit in the United States, reaching number 82 on the Billboard Hot 100 and number five on the Billboard Modern Rock Tracks chart. It was also the opening theme of the Belgian sitcom Dennis. A playable version of the song is available for the Rock Band video game series, and it is available to download for Guitar Hero 5. ~ Wikipedia
There's No Other Way @ Discogs

Tracklist:
1. There's No Other Way
2. Inertia
3. Mr. Briggs
4. I'm All Over

Exact Audio Copy V1.0 beta 2 from 29. April 2011

EAC extraction logfile from 11. August 2011, 21:07

Blur / There's No Other Way

Used drive : TDK CDRW4800B Adapter: 2 ID: 1

Read mode : Secure
Utilize accurate stream : Yes
Defeat audio cache : Yes
Make use of C2 pointers : No

Read offset correction : 6
Overread into Lead-In and Lead-Out : No
Fill up missing offset samples with silence : Yes
Delete leading and trailing silent blocks : No
Null samples used in CRC calculations : Yes
Used interface : Native Win32 interface for Win NT & 2000

Used output format : Internal WAV Routines
Sample format : 44.100 Hz; 16 Bit; Stereo


TOC of the extracted CD

Track | Start | Length | Start sector | End sector
––––––––––––––––––––––––––––-
1 | 0:00.00 | 3:13.70 | 0 | 14544
2 | 3:13.70 | 3:51.02 | 14545 | 31871
3 | 7:04.72 | 3:59.15 | 31872 | 49811
4 | 11:04.12 | 1:59.45 | 49812 | 58781


Range status and errors

Selected range

Filename E:\[# AvaxHome #]\Blur - There's No Other Way.wav

Peak level 92.0 %
Extraction speed 6.6 X
Range quality 100.0 %
Test CRC 9A80877F
Copy CRC 9A80877F
Copy OK

No errors occurred


AccurateRip summary

Track 1 accurately ripped (confidence 2) [38FB1C13] (AR v2)
Track 2 accurately ripped (confidence 2) [0CCB98F1] (AR v2)
Track 3 accurately ripped (confidence 2) [4A3B86CF] (AR v2)
Track 4 accurately ripped (confidence 2) [3B1B5D87] (AR v2)

All tracks accurately ripped

End of status report

==== Log checksum C8E5D462D336B576FE994D6D0C6F697B4F28AB3FBE6844E897A6C6966AA5CBB0 ====

FileServe

FileSonic

Password: www.AvaxHome.ws

All I have is the CD. So, no other scans are included.