Subcategories

Bobby McFerrin - The Best of Bobby McFerrin (1996)

Posted By: SuniR
Bobby McFerrin - The Best of Bobby McFerrin (1996)

Bobby McFerrin - The Best of Bobby McFerrin (1996)
EAC | FLAC (log,tracks+cue) -> 265 Mb (5% Rec.)| Covers included
Funk, Soul, Vocal Jazz | Label: Blue Note, CDP 7243 8 53329 2 0 / EKPD-0557 | 0:55:20

The highlights of vocal acrobat Bobby McFerrin's eclectic career are featured on this collection, which includes samples of his work with the St. Paul Chamber Orchestra, Chick Corea, the Yellowjackets, Manhattan Transfer, and Jon Hendricks. –Jason Ankeny, AllMusic

Tracklist:

01. Don't Worry, Be Happy [04:51]
02. Friends [04:28]
03. Thinkin' About Your Body [03:16]
04. Spain [10:03]
05. Freedom Is a Voice [04:53]
06. Drive My Car [02:43]
07. Another Night in Tunisia [04:14]
08. Blue Bossa [06:20]
09. Turtle Shoes [03:33]
10. Good Lovin' [03:01]
11. From Me to You [02:19]
12. Bang!Zoom [05:32]

Exact Audio Copy V0.99 prebeta 5 from 4. May 2009

EAC extraction logfile from 23. December 2009, 21:56

Bobby McFerrin / The Best of Bobby McFerrin

Used drive : CDWRITERIDE5224 Adapter: 1 ID: 0

Read mode : Secure
Utilize accurate stream : Yes
Defeat audio cache : Yes
Make use of C2 pointers : No

Read offset correction : 6
Overread into Lead-In and Lead-Out : No
Fill up missing offset samples with silence : Yes
Delete leading and trailing silent blocks : No
Null samples used in CRC calculations : Yes
Used interface : Native Win32 interface for Win NT & 2000
Gap handling : Appended to previous track

Used output format : User Defined Encoder
Selected bitrate : 128 kBit/s
Quality : High
Add ID3 tag : No
Command line compressor : C:\Program Files\Exact Audio Copy\Flac\flac.exe
Additional command line options : -V -8 -T "artist=%a" -T "title=%t" -T "album=%g" -T "date=%y" -T "tracknumber=%n" -T "genre=%m" %s


TOC of the extracted CD

Track | Start | Length | Start sector | End sector
––––––––––––––––––––––––––––-
1 | 0:00.00 | 4:51.42 | 0 | 21866
2 | 4:51.42 | 4:28.60 | 21867 | 42026
3 | 9:20.27 | 3:16.48 | 42027 | 56774
4 | 12:37.00 | 10:03.12 | 56775 | 102011
5 | 22:40.12 | 4:53.00 | 102012 | 123986
6 | 27:33.12 | 2:43.28 | 123987 | 136239
7 | 30:16.40 | 4:14.47 | 136240 | 155336
8 | 34:31.12 | 6:20.63 | 155337 | 183899
9 | 40:52.00 | 3:33.35 | 183900 | 199909
10 | 44:25.35 | 3:01.05 | 199910 | 213489
11 | 47:26.40 | 2:19.55 | 213490 | 223969
12 | 49:46.20 | 5:32.72 | 223970 | 248941


Track 1

Filename D:\EAC Rips\Bobby McFerrin - 1996 - The Best of Bobby McFerrin\01 - Don't Worry, Be Happy.wav

Pre-gap length 0:00:02.00

Peak level 91.7 %
Track quality 99.9 %
Test CRC 6D521B62
Copy CRC 6D521B62
Accurately ripped (confidence 13) [38B5864C]
Copy OK

Track 2

Filename D:\EAC Rips\Bobby McFerrin - 1996 - The Best of Bobby McFerrin\02 - Friends.wav

Pre-gap length 0:00:00.96

Peak level 66.8 %
Track quality 100.0 %
Test CRC 6568DE7E
Copy CRC 6568DE7E
Accurately ripped (confidence 13) [62AD9A97]
Copy OK

Track 3

Filename D:\EAC Rips\Bobby McFerrin - 1996 - The Best of Bobby McFerrin\03 - Thinkin' About Your Body.wav

Pre-gap length 0:00:02.36

Peak level 58.5 %
Track quality 100.0 %
Test CRC 20F0FBF7
Copy CRC 20F0FBF7
Accurately ripped (confidence 13) [7DEFA543]
Copy OK

Track 4

Filename D:\EAC Rips\Bobby McFerrin - 1996 - The Best of Bobby McFerrin\04 - Spain.wav

Pre-gap length 0:00:02.73

Peak level 94.4 %
Track quality 100.0 %
Test CRC 706E447D
Copy CRC 706E447D
Accurately ripped (confidence 12) [BCE7770F]
Copy OK

Track 5

Filename D:\EAC Rips\Bobby McFerrin - 1996 - The Best of Bobby McFerrin\05 - Freedom Is a Voice.wav

Pre-gap length 0:00:02.53

Peak level 59.5 %
Track quality 100.0 %
Test CRC 7DFC7669
Copy CRC 7DFC7669
Accurately ripped (confidence 13) [596A1C27]
Copy OK

Track 6

Filename D:\EAC Rips\Bobby McFerrin - 1996 - The Best of Bobby McFerrin\06 - Drive My Car.wav

Pre-gap length 0:00:01.80

Peak level 92.0 %
Track quality 99.9 %
Test CRC 6BBDDAAB
Copy CRC 6BBDDAAB
Accurately ripped (confidence 13) [3AF5F62E]
Copy OK

Track 7

Filename D:\EAC Rips\Bobby McFerrin - 1996 - The Best of Bobby McFerrin\07 - Another Night in Tunisia.wav

Pre-gap length 0:00:02.50

Peak level 75.1 %
Track quality 100.0 %
Test CRC AA17467A
Copy CRC AA17467A
Accurately ripped (confidence 13) [AA716085]
Copy OK

Track 8

Filename D:\EAC Rips\Bobby McFerrin - 1996 - The Best of Bobby McFerrin\08 - Blue Bossa.wav

Pre-gap length 0:00:02.96

Peak level 66.8 %
Track quality 100.0 %
Test CRC 990AAEDE
Copy CRC 990AAEDE
Accurately ripped (confidence 12) [6F7E2950]
Copy OK

Track 9

Filename D:\EAC Rips\Bobby McFerrin - 1996 - The Best of Bobby McFerrin\09 - Turtle Shoes.wav

Pre-gap length 0:00:02.24

Peak level 56.9 %
Track quality 100.0 %
Test CRC 8F35B466
Copy CRC 8F35B466
Accurately ripped (confidence 12) [527AD20D]
Copy OK

Track 10

Filename D:\EAC Rips\Bobby McFerrin - 1996 - The Best of Bobby McFerrin\10 - Good Lovin'.wav

Pre-gap length 0:00:00.46

Peak level 83.7 %
Track quality 100.0 %
Test CRC C83D6BCB
Copy CRC C83D6BCB
Accurately ripped (confidence 12) [4972E7CE]
Copy OK

Track 11

Filename D:\EAC Rips\Bobby McFerrin - 1996 - The Best of Bobby McFerrin\11 - From Me to You.wav

Pre-gap length 0:00:02.84

Peak level 48.9 %
Track quality 100.0 %
Test CRC 5148DEA6
Copy CRC 5148DEA6
Accurately ripped (confidence 12) [7A12BAAE]
Copy OK

Track 12

Filename D:\EAC Rips\Bobby McFerrin - 1996 - The Best of Bobby McFerrin\12 - Bang!Zoom.wav

Pre-gap length 0:00:02.53

Peak level 59.5 %
Track quality 100.0 %
Test CRC AF36BE42
Copy CRC AF36BE42
Accurately ripped (confidence 12) [066D2046]
Copy OK


All tracks accurately ripped

No errors occurred

End of status report

foobar2000 1.3.6 / Dynamic Range Meter 1.1.1
log date: 2017-07-12 11:49:32

––––––––––––––––––––––––––––––––––––––––
Analyzed: Bobby McFerrin / The Best of Bobby McFerrin
––––––––––––––––––––––––––––––––––––––––

DR Peak RMS Duration Track
––––––––––––––––––––––––––––––––––––––––
DR17 -0.75 dB -22.22 dB 4:52 01-Don't Worry, Be Happy
DR13 -3.50 dB -18.22 dB 4:29 02-Friends
DR13 -4.65 dB -21.89 dB 3:17 03-Thinkin' About Your Body
DR15 -0.50 dB -21.42 dB 10:03 04-Spain
DR11 -4.50 dB -18.89 dB 4:53 05-Freedom Is a Voice
DR21 -0.72 dB -23.80 dB 2:43 06-Drive My Car
DR13 -2.48 dB -20.09 dB 4:15 07-Another Night in Tunisia
DR14 -3.50 dB -22.94 dB 6:21 08-Blue Bossa
DR13 -4.89 dB -20.56 dB 3:33 09-Turtle Shoes
DR15 -1.54 dB -19.29 dB 3:01 10-Good Lovin'
DR10 -6.20 dB -20.74 dB 2:20 11-From Me to You
DR11 -4.50 dB -18.94 dB 5:33 12-Bang!Zoom
––––––––––––––––––––––––––––––––––––––––

Number of tracks: 12
Official DR value: DR14

Samplerate: 44100 Hz
Channels: 2
Bits per sample: 16
Bitrate: 723 kbps
Codec: FLAC
================================================================================

Thanks to the original releaser