Subcategories

Bobby Darin - Swing An' Slow (2006) [2CDs set] re-up

Posted By: Justin
Bobby Darin - Swing An' Slow (2006) [2CDs set] re-up

Bobby Darin - Swing An' Slow (2006) [2CDs set]
2x EAC-FLAC with CUE & LOG - 558 MB | Full Scans | MP3 CBR 320 Kbps - 208 MB
Traditional Pop / Easy Listening / Oldies | 90:09 minutes | Label: EMI Gold | Cat. # 370222-2

Exceptional two CD set spotlighting a few of the different musical sides of Bobby Darin. 36 tracks that showcase his ability to tackle any song and style he chose, including 'Mack The Knife', 'Blowin' In The Wind', 'Days Of Wine And Roses', 'Sunday In New York' and many others. EMI Gold release.

Disc One
01. Mack The Knife (Live At The Flamingo)
02. Intro. & Hello Young Lovers (Live)
03. Always
04. I'm Beginning To See The Light
05. Oh! Look At Me Now
06. Hello Dolly
07. Call Me Irresponsible
08. More
09. Charade
10. On The Street Where You Live
11. Sunday In New York
12. Goodbye, Charlie
13. As Long As I'm Singing
14. Standing On The Corner
15. I'm Sitting On Top Of The World
16. That Funny Feeling
17. I Got Rhythm
18. There's A Rainbow 'Round My Shoulder

Disc Two
01. I Left My Heart In San Francisco
02. The Good Life
03. I Wanna Be Around
04. All By Myself
05. My Buddy
06. Roses Of Picardy
07. You'll Never Know
08. Blue Skies
09. You Made Me Love You (I Didn't Want To Do It)
10. The Days Of Wine And Roses
11. Where Love Has Gone
12. You're The Reason I'm Living
13. The End Of The World
14. Blowin'In The Wind
15. Somewhere
16. Softly,As I Leave You
17. Who Can I Turn To (When Nobody Needs Me)
18. The Party's Over

Exact Audio Copy V0.99 prebeta 4 from 23. January 2008

Отчёт EAC об извлечении, выполненном 22. марта 2009, 12:45

Bobby Darin / Swing An' Slow

Дисковод: Optiarc DVD RW AD-7203S Adapter: 3 ID: 1

Режим чтения : Достоверность
Использование точного потока : Да
Отключение кэша аудио : Да
Использование указателей C2 : Нет

Коррекция смещения при чтении : 48
Способность читать области Lead-in и Lead-out : Нет
Заполнение пропущенных сэмплов тишиной : Да
Удаление блоков с тишиной в начале и конце : Нет
При вычислениях CRC использовались нулевые сэмплы : Да
Интерфейс : Встроенный Win32-интерфейс для Win NT/2000

Выходной формат : Пользовательский кодировщик
Выбранный битрейт : 896 kBit/s
Качество : Высокий
Добавление ID3-тэга : Нет
Утилита сжатия : C:\Program Files\Exact Audio Copy\Flac\flac.exe
Дополнительные параметры : -0 -V -T "ARTIST=%a" -T "TITLE=%t" -T "ALBUM=%g" -T "DATE=%y" -T "TRACKNUMBER=%n" -T "GENRE=%m" -T "COMMENT=EAC FLAC -8" %s


TOC извлечённого CD

Трек | Старт | Длительность | Начальный сектор | Конечный сектор
––––––––––––––––––––––––––––––––––-
1 | 0:00.00 | 3:23.58 | 0 | 15282
2 | 3:23.58 | 2:54.60 | 15283 | 28392
3 | 6:18.43 | 2:20.33 | 28393 | 38925
4 | 8:39.01 | 2:19.20 | 38926 | 49370
5 | 10:58.21 | 2:45.60 | 49371 | 61805
6 | 13:44.06 | 3:14.15 | 61806 | 76370
7 | 16:58.21 | 2:04.45 | 76371 | 85715
8 | 19:02.66 | 2:24.42 | 85716 | 96557
9 | 21:27.33 | 1:46.57 | 96558 | 104564
10 | 23:14.15 | 2:07.67 | 104565 | 114156
11 | 25:22.07 | 2:31.00 | 114157 | 125481
12 | 27:53.07 | 2:23.60 | 125482 | 136266
13 | 30:16.67 | 1:33.08 | 136267 | 143249
14 | 31:50.00 | 2:33.29 | 143250 | 154753
15 | 34:23.29 | 1:48.14 | 154754 | 162867
16 | 36:11.43 | 1:55.47 | 162868 | 171539
17 | 38:07.15 | 1:56.60 | 171540 | 180299
18 | 40:04.00 | 2:42.11 | 180300 | 192460


Характеристики диапазона извлечения и сообщения об ошибках

Выбранный диапазон

Имя файла K:\Torrent\Jazz\Bobby Darin - Swing An' Slow\Bobby Darin - Swing An' Slow.wav

Пиковый уровень 100.0 %
Качество диапазона 100.0 %
CRC теста B78006F2
CRC копии B78006F2
Копирование… OK

Ошибок не произошло


AccurateRip: сводка

Трек 1 нет в базе данных
Трек 2 нет в базе данных
Трек 3 нет в базе данных
Трек 4 нет в базе данных
Трек 5 нет в базе данных
Трек 6 нет в базе данных
Трек 7 нет в базе данных
Трек 8 нет в базе данных
Трек 9 нет в базе данных
Трек 10 нет в базе данных
Трек 11 нет в базе данных
Трек 12 нет в базе данных
Трек 13 нет в базе данных
Трек 14 нет в базе данных
Трек 15 нет в базе данных
Трек 16 нет в базе данных
Трек 17 нет в базе данных
Трек 18 нет в базе данных

Ни одного трека нет в базе AccurateRip

Конец отчёта

–––––––––––––––––––––––––-

Exact Audio Copy V0.99 prebeta 4 from 23. January 2008

Отчёт EAC об извлечении, выполненном 22. марта 2009, 14:02

Bobby Darin / Swing An' Slow

Дисковод: Optiarc DVD RW AD-7203S Adapter: 3 ID: 1

Режим чтения : Достоверность
Использование точного потока : Да
Отключение кэша аудио : Да
Использование указателей C2 : Нет

Коррекция смещения при чтении : 48
Способность читать области Lead-in и Lead-out : Нет
Заполнение пропущенных сэмплов тишиной : Да
Удаление блоков с тишиной в начале и конце : Нет
При вычислениях CRC использовались нулевые сэмплы : Да
Интерфейс : Встроенный Win32-интерфейс для Win NT/2000

Выходной формат : Пользовательский кодировщик
Выбранный битрейт : 896 kBit/s
Качество : Высокий
Добавление ID3-тэга : Нет
Утилита сжатия : C:\Program Files\Exact Audio Copy\Flac\flac.exe
Дополнительные параметры : -0 -V -T "ARTIST=%a" -T "TITLE=%t" -T "ALBUM=%g" -T "DATE=%y" -T "TRACKNUMBER=%n" -T "GENRE=%m" -T "COMMENT=EAC FLAC -8" %s


TOC извлечённого CD

Трек | Старт | Длительность | Начальный сектор | Конечный сектор
––––––––––––––––––––––––––––––––––-
1 | 0:00.00 | 2:32.14 | 0 | 11413
2 | 2:32.14 | 2:24.17 | 11414 | 22230
3 | 4:56.31 | 2:10.40 | 22231 | 32020
4 | 7:06.71 | 3:05.12 | 32021 | 45907
5 | 10:12.08 | 2:34.58 | 45908 | 57515
6 | 12:46.66 | 2:10.07 | 57516 | 67272
7 | 14:56.73 | 2:54.15 | 67273 | 80337
8 | 17:51.13 | 2:31.25 | 80338 | 91687
9 | 20:22.38 | 2:51.70 | 91688 | 104582
10 | 23:14.33 | 2:33.65 | 104583 | 116122
11 | 25:48.23 | 2:42.17 | 116123 | 128289
12 | 28:30.40 | 2:27.10 | 128290 | 139324
13 | 30:57.50 | 2:38.01 | 139325 | 151175
14 | 33:35.51 | 3:10.65 | 151176 | 165490
15 | 36:46.41 | 2:32.67 | 165491 | 176957
16 | 39:19.33 | 2:56.03 | 176958 | 190160
17 | 42:15.36 | 2:37.28 | 190161 | 201963
18 | 44:52.64 | 2:30.32 | 201964 | 213245


Характеристики диапазона извлечения и сообщения об ошибках

Выбранный диапазон

Имя файла K:\Torrent\Jazz\Bobby Darin - Swing An' Slow\CD-2\Bobby Darin - Swing An' Slow.wav

Пиковый уровень 95.5 %
Качество диапазона 100.0 %
CRC теста DDF6CD8B
CRC копии DDF6CD8B
Копирование… OK

Ошибок не произошло


AccurateRip: сводка

Трек 1 нет в базе данных
Трек 2 нет в базе данных
Трек 3 нет в базе данных
Трек 4 нет в базе данных
Трек 5 нет в базе данных
Трек 6 нет в базе данных
Трек 7 нет в базе данных
Трек 8 нет в базе данных
Трек 9 нет в базе данных
Трек 10 нет в базе данных
Трек 11 нет в базе данных
Трек 12 нет в базе данных
Трек 13 нет в базе данных
Трек 14 нет в базе данных
Трек 15 нет в базе данных
Трек 16 нет в базе данных
Трек 17 нет в базе данных
Трек 18 нет в базе данных

Ни одного трека нет в базе AccurateRip

Конец отчёта


Thanks to the original ripper!