Subcategories

Bobby Jaspar - Clarinescapade (1956) {2007 Fresh Sound Issue}

Posted By: ruskaval
Bobby Jaspar - Clarinescapade (1956) {2007 Fresh Sound Issue}

Bobby Jaspar - Clarinescapade (1956) {2007 Fresh Sound Issue}
EAC rip (secure mode) | FLAC+CUE+LOG -> 292 Mb | MP3 @320 -> 123 Mb
Full Artwork @ 400 dpi (jpg) -> 39 Mb
© 2007 Fresh Sound | FSR-CD 449
Jazz / Cool / Bop / Saxophone

Belgian multi-instrumentalist Bobby Jaspar was hitting his stride in 1956, with great recognition in Europe and a budding reputation in the U.S. via his membership in the J.J. Johnson combo. This CD, a Fresh Sound compilation derived from French Columbia Records LP and EP releases, shows why he was a well-liked and respected cool-to-bop post-Lester Young-influenced tenor saxophonist. The seven tracks where he emphasizes tenor show him breaking away from his influences and exercising voicings of his own, quite similar at that time to peers Stan Getz and Zoot Sims.

He ably extrapolates on melodies of the standards "How Deep Is the Ocean" and "I Remember You," and Johnson's hard bopper "Wee Dot," while circling the wagons around the line in an unusual rendition of "I Won't Dance." His fluidity and innate melodic sense are impeccable. The numbers on flute, "Tutti Flutti" and "In a Little Provincial Town," also demonstrate his abilities as a composer, the former bright and sunny with clean unison playing astride masterful Detroit pianist Tommy Flanagan, the latter a near third stream ballad with shining, shimmering modal voicings courtesy of Barry Galbraith. The opener is the title track, a nice bop romp on clarinet, the only tune where he plays the black woodwind, making the title of the CD misleading. Drummer Elvin Jones cements the Detroit connection on the first eight tracks in a more popping, heady, restrained (for him) rhythmic fashion, and it's a rare chance to hear the legendary Nabil Totah on bass in an extended setting. The first ten tracks (eight by quintet and two by quartet formations) were originally on LP, and the last two bop quintet numbers were on EP only. One always wonders if the Manny Albam counterpoint-infused composition "They Lock Alike" was/is misspelled. Shouldn't it be "They Look Alike?" At any rate, this is a first-class date from unsung jazz hero Jaspar, sonically a very well-recorded and remastered effort, and highly recommended.
Personnel: Bobby Jaspar (ts, fl, cl), Tommy Flanagan, Eddie Costa (p), Barry Galbraith (g), Nabil Totah, Milt Hinton (b), Elvin Jones, Osie Johnson (d).

tracklist:
01. Clarinescapade
02. How Deep Is The Ocean
03. What’s New
04. Tutti Flutti
05. I Remember You
06. Spring Is Here
07. Wee Dot
08. I Won’t Dance
09. In A Little Provincial Town
10. They Lock Alike
11. Barry’s Tune
12. Minor Drop

Bobby Jaspar - Clarinescapade (1956) {2007 Fresh Sound Issue}

Bobby Jaspar - Clarinescapade (1956) {2007 Fresh Sound Issue}

Exact Audio Copy V0.99 prebeta 5 from 4. May 2009

EAC extraction logfile from 11. June 2011, 13:52

Bobby Jaspar / Clarinescapade

Used drive : TEAC DV-516G Adapter: 3 ID: 1

Read mode : Secure
Utilize accurate stream : Yes
Defeat audio cache : Yes
Make use of C2 pointers : No

Read offset correction : 6
Overread into Lead-In and Lead-Out : No
Fill up missing offset samples with silence : Yes
Delete leading and trailing silent blocks : No
Null samples used in CRC calculations : Yes
Used interface : Native Win32 interface for Win NT & 2000
Gap handling : Appended to previous track

Used output format : User Defined Encoder
Selected bitrate : 1024 kBit/s
Quality : High
Add ID3 tag : No
Command line compressor : C:\Program Files\FLAC\flac.exe
Additional command line options : -8 -V -T "ARTIST=%a" -T "TITLE=%t" -T "ALBUM=%g" -T "DATE=%y" -T "TRACKNUMBER=%n" -T "TOTALTRACKS=%x" -T "GENRE=%m" -T "ALBUMARTIST=%v" -T "ALBUM ARTIST=%v" -T "COMMENT=EAC Secure Mode, Test & Copy, AccurateRip, FLAC -8" %s


TOC of the extracted CD

Track | Start | Length | Start sector | End sector
––––––––––––––––––––––––––––-
1 | 0:00.00 | 3:10.04 | 0 | 14253
2 | 3:10.04 | 4:21.09 | 14254 | 33837
3 | 7:31.13 | 3:45.44 | 33838 | 50756
4 | 11:16.57 | 2:46.01 | 50757 | 63207
5 | 14:02.58 | 4:53.70 | 63208 | 85252
6 | 18:56.53 | 3:37.72 | 85253 | 101599
7 | 22:34.50 | 6:26.64 | 101600 | 130613
8 | 29:01.39 | 3:57.14 | 130614 | 148402
9 | 32:58.53 | 3:38.33 | 148403 | 164785
10 | 36:37.11 | 5:32.57 | 164786 | 189742
11 | 42:09.68 | 5:02.11 | 189743 | 212403
12 | 47:12.04 | 4:27.24 | 212404 | 232452


Track 1

Filename C:\jaspar56\01 - Clarinescapade.wav

Pre-gap length 0:00:02.00

Peak level 100.0 %
Track quality 100.0 %
Test CRC 197285DA
Copy CRC 197285DA
Track not present in AccurateRip database
Copy OK

Track 2

Filename C:\jaspar56\02 - How Deep Is The Ocean.wav

Peak level 100.0 %
Track quality 100.0 %
Test CRC D89A0CEA
Copy CRC D89A0CEA
Track not present in AccurateRip database
Copy OK

Track 3

Filename C:\jaspar56\03 - What's New.wav

Peak level 95.1 %
Track quality 100.0 %
Test CRC 9AFECCBF
Copy CRC 9AFECCBF
Track not present in AccurateRip database
Copy OK

Track 4

Filename C:\jaspar56\04 - Tutti Flutti.wav

Peak level 96.2 %
Track quality 99.9 %
Test CRC D172D127
Copy CRC D172D127
Track not present in AccurateRip database
Copy OK

Track 5

Filename C:\jaspar56\05 - I Remember You.wav

Peak level 100.0 %
Track quality 100.0 %
Test CRC 192C482E
Copy CRC 192C482E
Track not present in AccurateRip database
Copy OK

Track 6

Filename C:\jaspar56\06 - Spring Is Here.wav

Peak level 90.7 %
Track quality 100.0 %
Test CRC 0E46C3A8
Copy CRC 0E46C3A8
Track not present in AccurateRip database
Copy OK

Track 7

Filename C:\jaspar56\07 - Wee Dot.wav

Peak level 100.0 %
Track quality 99.9 %
Test CRC 6702BF5A
Copy CRC 6702BF5A
Track not present in AccurateRip database
Copy OK

Track 8

Filename C:\jaspar56\08 - I Won't Dance.wav

Peak level 98.8 %
Track quality 100.0 %
Test CRC 51EE287B
Copy CRC 51EE287B
Track not present in AccurateRip database
Copy OK

Track 9

Filename C:\jaspar56\09 - In A Little Provincial Town.wav

Peak level 100.0 %
Track quality 100.0 %
Test CRC 91C92571
Copy CRC 91C92571
Track not present in AccurateRip database
Copy OK

Track 10

Filename C:\jaspar56\10 - They Lock Alike.wav

Peak level 100.0 %
Track quality 100.0 %
Test CRC A69EDE20
Copy CRC A69EDE20
Track not present in AccurateRip database
Copy OK

Track 11

Filename C:\jaspar56\11 - Barry's Tune.wav

Peak level 99.1 %
Track quality 99.9 %
Test CRC 75260196
Copy CRC 75260196
Track not present in AccurateRip database
Copy OK

Track 12

Filename C:\jaspar56\12 - Minor Drop.wav

Peak level 96.9 %
Track quality 99.9 %
Test CRC 712E3F93
Copy CRC 712E3F93
Track not present in AccurateRip database
Copy OK


None of the tracks are present in the AccurateRip database

No errors occurred

End of status report


All thanks goes to the original releaser & 0xxa!

dead links -> send me a Private Message…

FileSonic Linkz

or

FileServe Linkz

p.s. the files are interchangeable…

No Mirror, plz!