Subcategories

Bobby Vee - Best Of (1987)

Posted By: firepower
Bobby Vee - Best Of (1987)

Bobby Vee - Best Of (1987)
EAC, Flac tracks, CUE+LOG 150mb | 600dpi jpg
Rock | 1987 EMI | 5% recovery record | Source: internet

He launched his career as a fill-in for the recently deceased Buddy Holly, Bobby Vee scored several pop hits during the early '60s, that notorious period of popular music sandwiched between the birth of rock & roll and the rise of the British Invasion. Though a few of his singles – "Rubber Ball," for one – were as innocuous as anything else from the era, Vee had a knack for infectious Brill Building pop, thanks to his ebullient voice as well as the cadre of songwriters standing behind him.
Bobby Vee - Best Of (1987)

Bobby Vee - Best Of (1987)

Tracklist:
01 - The Night Has A Thousand Eyes
02 - Suzie Baby
03 - Devil or Angel
04 - Punish Her
05 - Take Good Care of My Baby
06 - Rubber Ball
07 - How Many Tears
08 - Please Don't Ask About Barbara
09 - Come Back When You Grow Up
10 - Beautiful People

Exact Audio Copy V0.99 prebeta 4 from 23. January 2008

EAC extraction logfile from 22. April 2009, 14:22

Bobby Vee / The Best of Bobby Vee

Used drive : TSSTcorpDVD+-RW TS-H653F Adapter: 4 ID: 1

Read mode : Secure
Utilize accurate stream : Yes
Defeat audio cache : Yes
Make use of C2 pointers : No

Read offset correction : 6
Overread into Lead-In and Lead-Out : No
Fill up missing offset samples with silence : Yes
Delete leading and trailing silent blocks : No
Null samples used in CRC calculations : No
Used interface : Installed external ASPI interface
Gap handling : Appended to previous track

Used output format : User Defined Encoder
Selected bitrate : 768 kBit/s
Quality : High
Add ID3 tag : No
Command line compressor : C:\Program Files\Exact Audio Copy\FLAC\FLAC.EXE
Additional command line options : -8 -V -T "ARTIST=%a" -T "TITLE=%t" -T "ALBUM=%g" -T "DATE=%y" -T "TRACKNUMBER=%n" -T "GENRE=%m" -T "COMMENT=%e" %s -o %d


TOC of the extracted CD

Track | Start | Length | Start sector | End sector
––––––––––––––––––––––––––––-
1 | 0:00.00 | 2:36.07 | 0 | 11706
2 | 2:36.07 | 2:50.30 | 11707 | 24486
3 | 5:26.37 | 2:19.45 | 24487 | 34956
4 | 7:46.07 | 1:54.45 | 34957 | 43551
5 | 9:40.52 | 2:29.08 | 43552 | 54734
6 | 12:09.60 | 2:19.72 | 54735 | 65231
7 | 14:29.57 | 2:04.68 | 65232 | 74599
8 | 16:34.50 | 2:03.55 | 74600 | 83879
9 | 18:38.30 | 2:17.65 | 83880 | 94219
10 | 20:56.20 | 2:17.40 | 94220 | 104534


Track 1

Filename D:\Temp\(01) The Night Has A Thousand Eyes - Bobby Vee - The Best of Bobby Vee.wav

Pre-gap length 0:00:02.00

Peak level 89.2 %
Track quality 100.0 %
Copy CRC FC110F58
Accurately ripped (confidence 3) [6578745C]
Copy OK

Track 2

Filename D:\Temp\(02) Suzie Baby - Bobby Vee - The Best of Bobby Vee.wav

Pre-gap length 0:00:01.04

Peak level 70.4 %
Track quality 100.0 %
Copy CRC 0A409990
Accurately ripped (confidence 3) [05996546]
Copy OK

Track 3

Filename D:\Temp\(03) Devil or Angel - Bobby Vee - The Best of Bobby Vee.wav

Pre-gap length 0:00:00.62

Peak level 70.9 %
Track quality 100.0 %
Copy CRC AA360E5E
Accurately ripped (confidence 3) [CD0417F8]
Copy OK

Track 4

Filename D:\Temp\(04) Punish Her - Bobby Vee - The Best of Bobby Vee.wav

Pre-gap length 0:00:00.57

Peak level 67.6 %
Track quality 100.0 %
Copy CRC B6CC41FA
Accurately ripped (confidence 3) [4F8B11D9]
Copy OK

Track 5

Filename D:\Temp\(05) Take Good Care of My Baby - Bobby Vee - The Best of Bobby Vee.wav

Pre-gap length 0:00:01.44

Peak level 81.2 %
Track quality 99.9 %
Copy CRC 63D3934D
Accurately ripped (confidence 3) [EA531DFE]
Copy OK

Track 6

Filename D:\Temp\(06) Rubber Ball - Bobby Vee - The Best of Bobby Vee.wav

Pre-gap length 0:00:01.03

Peak level 68.9 %
Track quality 100.0 %
Copy CRC E868DFDD
Accurately ripped (confidence 3) [0D75C996]
Copy OK

Track 7

Filename D:\Temp\(07) How Many Tears - Bobby Vee - The Best of Bobby Vee.wav

Pre-gap length 0:00:01.50

Peak level 72.4 %
Track quality 100.0 %
Copy CRC A46B3A9C
Accurately ripped (confidence 3) [4E53F05F]
Copy OK

Track 8

Filename D:\Temp\(08) Please Don't Ask About Barbara - Bobby Vee - The Best of Bobby Vee.wav

Pre-gap length 0:00:01.48

Peak level 63.3 %
Track quality 100.0 %
Copy CRC 826908FD
Accurately ripped (confidence 3) [C13ED54F]
Copy OK

Track 9

Filename D:\Temp\(09) Come Back When You Grow Up - Bobby Vee - The Best of Bobby Vee.wav

Pre-gap length 0:00:00.50

Peak level 75.8 %
Track quality 100.0 %
Copy CRC D7DA1339
Accurately ripped (confidence 3) [31175B7F]
Copy OK

Track 10

Filename D:\Temp\(10) Beautiful People - Bobby Vee - The Best of Bobby Vee.wav

Pre-gap length 0:00:02.26

Peak level 100.0 %
Track quality 100.0 %
Copy CRC B22E2BE8
Accurately ripped (confidence 3) [D268BD70]
Copy OK


All tracks accurately ripped

No errors occurred

End of status report

Artwork is included in the music archive.
Not my rip or scans. Thanks a lot to the original ripper!

I don't mind if you post any problems you may find in the comments but please send me a pm also.
Links are interchangeable. No Password.
No mirrors and please do not post links in comments.