Subcategories

Andrea Bocelli - Cieli di Toscana (2001)

Posted By: L@ter
Andrea Bocelli - Cieli di Toscana (2001)

Andrea Bocelli - Cieli di Toscana (2001)
EAC Rip | FLAC, IMG+CUE, LOG + MP3 | 355 MB | 61,38 min. | Scans
Label: Polydor/Philips | Classical | October 2001 | RAR 3% Rec.

Cieli di Toscana is an album released by Andrea Bocelli on October 16, 2001. That year, Bocelli received a Platinum Europe Award for over 1 million albums sold worldwide of the album.[1] A DVD of music videos of Bocelli singing the tracks of the album, was released the same year, called Tuscan Skies. Andrea Bocelli, GO OMRI. (born 22 September 1958) is an Italian tenor. To date, he has recorded seven complete operas (La bohème, Tosca, Il trovatore, Werther, Pagliacci, Cavalleria rusticana and Carmen) in addition to various albums in the classical, pop, and operatic pop genres. He has sold over 65 million albums worldwide.
Tracklist

01. Melodramma
02. Mille Lune Mille Onde
03. E Sara' A Settembre
04. Chiara
05. Mascagni
06. Resta Qui
07. Il Mistero Dell'Amore
08. Se La Gente Usasse Il Cuore
09. Si Voltò
10. L'Abitudine
11. L'Incontro
12. E Mi Manchi Tu
13. Il Diavolo E L'Angelo
14. L'Ultimo Re


Exact Audio Copy V0.99 prebeta 4 from 23. January 2008

EAC extraction logfile from 5. May 2009, 13:13

Andrea Bocelli / Cieli di Toscana

Used drive : TSSTcorpCDDVDW SH-S223Q Adapter: 1 ID: 0

Read mode : Secure
Utilize accurate stream : Yes
Defeat audio cache : Yes
Make use of C2 pointers : No

Read offset correction : 6
Overread into Lead-In and Lead-Out : No
Fill up missing offset samples with silence : Yes
Delete leading and trailing silent blocks : No
Null samples used in CRC calculations : Yes
Used interface : Native Win32 interface for Win NT & 2000

Used output format : User Defined Encoder
Selected bitrate : 768 kBit/s
Quality : High
Add ID3 tag : No
Command line compressor : C:\Program Files\Exact Audio Copy\FLAC\FLAC.EXE
Additional command line options : -6 -V -T "ARTIST=%a" -T "TITLE=%t" -T "ALBUM=%g" -T "DATE=%y" -T "TRACKNUMBER=%n" -T "GENRE=%m" -T "COMMENT=%e" %s -o %d


TOC of the extracted CD

Track | Start | Length | Start sector | End sector
––––––––––––––––––––––––––––-
1 | 0:00.00 | 4:09.62 | 0 | 18736
2 | 4:09.62 | 4:00.68 | 18737 | 36804
3 | 8:10.55 | 5:05.69 | 36805 | 59748
4 | 13:16.49 | 4:03.67 | 59749 | 78040
5 | 17:20.41 | 4:12.32 | 78041 | 96972
6 | 21:32.73 | 4:10.29 | 96973 | 115751
7 | 25:43.27 | 4:29.69 | 115752 | 135995
8 | 30:13.21 | 5:00.29 | 135996 | 158524
9 | 35:13.50 | 4:07.05 | 158525 | 177054
10 | 39:20.55 | 4:21.60 | 177055 | 196689
11 | 43:42.40 | 4:52.46 | 196690 | 218635
12 | 48:35.11 | 5:03.05 | 218636 | 241365
13 | 53:38.16 | 4:03.63 | 241366 | 259653
14 | 57:42.04 | 3:48.35 | 259654 | 276788


Range status and errors

Selected range

Filename C:\Andrea Bocelli - Cieli di Toscana.wav

Peak level 100.0 %
Range quality 100.0 %
Copy CRC CE69E23D
Copy OK

No errors occurred

End of status report


REM GENRE Classical
REM DATE 2001
REM DISCID B50E6A0E
REM COMMENT "ExactAudioCopy v0.99pb4"
PERFORMER "Andrea Bocelli"
TITLE "Cieli di Toscana"
FILE "Andrea Bocelli - Cieli di Toscana.flac" WAVE
TRACK 01 AUDIO
TITLE "Melodramma"
PERFORMER "Andrea Bocelli"
INDEX 01 00:00:00
TRACK 02 AUDIO
TITLE "Mille Lune Mille Onde"
PERFORMER "Andrea Bocelli"
INDEX 01 04:09:62
TRACK 03 AUDIO
TITLE "E Sara' A Settembre"
PERFORMER "Andrea Bocelli"
INDEX 01 08:10:55
TRACK 04 AUDIO
TITLE "Chiara"
PERFORMER "Andrea Bocelli"
INDEX 01 13:16:49
TRACK 05 AUDIO
TITLE "Mascagni"
PERFORMER "Andrea Bocelli"
INDEX 01 17:20:41
TRACK 06 AUDIO
TITLE "Resta Qui"
PERFORMER "Andrea Bocelli"
INDEX 01 21:32:73
TRACK 07 AUDIO
TITLE "Il Mistero Dell'Amore"
PERFORMER "Andrea Bocelli"
INDEX 01 25:43:27
TRACK 08 AUDIO
TITLE "Se La Gente Usasse Il Cuore"
PERFORMER "Andrea Bocelli"
INDEX 01 30:13:21
TRACK 09 AUDIO
TITLE "Si Voltò"
PERFORMER "Andrea Bocelli"
INDEX 01 35:13:50
TRACK 10 AUDIO
TITLE "L'Abitudine"
PERFORMER "Andrea Bocelli"
INDEX 01 39:20:55
TRACK 11 AUDIO
TITLE "L'Incontro"
PERFORMER "Andrea Bocelli"
INDEX 01 43:42:40
TRACK 12 AUDIO
TITLE "E Mi Manchi Tu"
PERFORMER "Andrea Bocelli"
INDEX 01 48:35:11
TRACK 13 AUDIO
TITLE "Il Diavolo E L'Angelo"
PERFORMER "Andrea Bocelli"
INDEX 01 53:38:16
TRACK 14 AUDIO
TITLE "L'Ultimo Re"
PERFORMER "Andrea Bocelli"
INDEX 01 57:42:04