Subcategories

Bonnie "Prince" Billy - I Made A Place (2019)

Posted By: delpotro
Bonnie "Prince" Billy - I Made A Place (2019)

Bonnie "Prince" Billy - I Made A Place (2019)
EAC Rip | FLAC (tracks+log+.cue) - 236 Mb | MP3 CBR 320 kbps - 100 Mb | 00:43:40
Alt. Country, Folk Rock | Label: Drag City

Bonnie “Prince” Billy stays busy - in the past five years he has released albums of previously-recorded songs by Susanna Wallumrod, Mekons, Merle Haggard; even himself, and a collaborative record with Bitchin Bajas. The only thing he hasn't done is a new album of Bonny originals - in case you weren't counting, 2011's Wolfroy Goes To Town was the last one. That's from the first half of the Obama presidency!

"Things happen for reasons that are often bigger than ourselves and outside of our control. They happen suddenly or they happen slowly - but they always happen one day at a time and day after day. Here's Will Oldham, on the confluence of marketplace, values, aesthetic and process that slowly built new album I Made A Place: "In recent years, the whole world of recorded music, in the way that such music is conceived, perceived, recorded, released and distributed, has been atomized. I tried holding my breath, waiting for the storm to pass, but this storm is here to stay and its devastation is our new landscape. What else is a person to do except what he knows and feels, which for me is making records built out of songs intended for the intimate listening experiences of wonderful strangers who share something spiritually and musically? I started working on these songs thinking that there was no way I was going to finish them and record and release them. This was a constructive frame-of-mind that protected the songs until this frightening moment when we let go of them and give them to you."

The world has changed. Some things will never change. Some are gone forever. Thankfully, this isn't one of them: the wait for new Bonnie “Prince” Billy is now on a timer. What's more, the new single drops a bit of Apocalypse WOW. Picking up in a sense where last year's "Blueberry Jam" left off, "(At The) Back of the Pit" considers what to do with the things we love when it comes time for the death (and therefore, rebirth) of our painstakingly-built'n'kill't world. It's an affirming country jam: elegiac early moments give way to jaunty roots-rock strides, a horn section soulfully charting the long rays at the end of the day as well as the first rays of the new rising sun as they light on all our hopeful tomorrows."
Tracklist:
1. New Memory Box (03:01)
2. Dream Awhile (03:31)
3. The Devil’s Throat (03:33)
4. Look Backward on You Future, Look Forward to Your Past (03:55)
5. I Have Made a Place (03:39)
6. Squid Eye (02:46)
7. You Know the One (03:37)
8. This Is Far From Over (02:46)
9. Nothing Is Busted (04:33)
10. Mama Mama (02:32)
11. The Glow Pt. 3 (03:22)
12. Thick Air (02:41)
13. Building a Fire (03:38)

Exact Audio Copy V1.3 from 2. September 2016

EAC extraction logfile from 15. November 2019, 13:29

Bonnie "Prince" Billy / I Have Made A Place

Used drive : Optiarc DVD RW AD-7190S Adapter: 1 ID: 2

Read mode : Secure
Utilize accurate stream : Yes
Defeat audio cache : Yes
Make use of C2 pointers : No

Read offset correction : 6
Overread into Lead-In and Lead-Out : No
Fill up missing offset samples with silence : Yes
Delete leading and trailing silent blocks : No
Null samples used in CRC calculations : Yes
Used interface : Native Win32 interface for Win NT & 2000
Gap handling : Appended to previous track

Used output format : User Defined Encoder
Selected bitrate : 1024 kBit/s
Quality : High
Add ID3 tag : No
Command line compressor : C:\Program Files (x86)\Exact Audio Copy\Flac\flac.exe
Additional command line options : -8 -V -T "ARTIST=%artist%" -T "TITLE=%title%" -T "ALBUM=%albumtitle%" -T "DATE=%year%" -T "TRACKNUMBER=%tracknr%" -T "GENRE=%genre%" -T "PERFORMER=%albuminterpret%" -T "COMPOSER=%composer%" %haslyrics%–tag-from-file=LYRICS="%lyricsfile%"%haslyrics% -T "ALBUMARTIST=%albumartist%" -T "DISCNUMBER=%cdnumber%" -T "TOTALDISCS=%totalcds%" -T "TOTALTRACKS=%numtracks%" -T "COMMENT=%comment%" %source% -o %dest%


TOC of the extracted CD

Track | Start | Length | Start sector | End sector
––––––––––––––––––––––––––––-
1 | 0:00.00 | 3:01.28 | 0 | 13602
2 | 3:01.28 | 3:31.30 | 13603 | 29457
3 | 6:32.58 | 3:33.10 | 29458 | 45442
4 | 10:05.68 | 3:55.38 | 45443 | 63105
5 | 14:01.31 | 3:39.25 | 63106 | 79555
6 | 17:40.56 | 2:46.02 | 79556 | 92007
7 | 20:26.58 | 3:37.66 | 92008 | 108348
8 | 24:04.49 | 2:46.52 | 108349 | 120850
9 | 26:51.26 | 4:33.64 | 120851 | 141389
10 | 31:25.15 | 2:32.50 | 141390 | 152839
11 | 33:57.65 | 3:22.63 | 152840 | 168052
12 | 37:20.53 | 2:41.30 | 168053 | 180157
13 | 40:02.08 | 3:38.12 | 180158 | 196519


Track 1

Filename C:\New Rips\Bonnie Prince Billy - 2019 - I Have Made A Place (DC763CD)\01 New Memory Box.wav

Pre-gap length 0:00:02.00

Peak level 96.6 %
Extraction speed 3.1 X
Track quality 100.0 %
Test CRC DD034899
Copy CRC DD034899
Track not present in AccurateRip database
Copy OK

Track 2

Filename C:\New Rips\Bonnie Prince Billy - 2019 - I Have Made A Place (DC763CD)\02 Dream Awhile.wav

Peak level 96.6 %
Extraction speed 1.9 X
Track quality 100.0 %
Test CRC CB78174A
Copy CRC CB78174A
Track not present in AccurateRip database
Copy OK

Track 3

Filename C:\New Rips\Bonnie Prince Billy - 2019 - I Have Made A Place (DC763CD)\03 The Devil's Throat.wav

Peak level 96.6 %
Extraction speed 0.8 X
Track quality 99.9 %
Test CRC 3CA16EF5
Copy CRC 3CA16EF5
Track not present in AccurateRip database
Copy OK

Track 4

Filename C:\New Rips\Bonnie Prince Billy - 2019 - I Have Made A Place (DC763CD)\04 Look Backward On Your Future, Look Forward To Your Past.wav

Peak level 96.6 %
Extraction speed 1.1 X
Track quality 100.0 %
Test CRC 08007493
Copy CRC 08007493
Track not present in AccurateRip database
Copy OK

Track 5

Filename C:\New Rips\Bonnie Prince Billy - 2019 - I Have Made A Place (DC763CD)\05 I Have Made A Place.wav

Peak level 96.6 %
Extraction speed 1.2 X
Track quality 100.0 %
Test CRC 316A3A76
Copy CRC 316A3A76
Track not present in AccurateRip database
Copy OK

Track 6

Filename C:\New Rips\Bonnie Prince Billy - 2019 - I Have Made A Place (DC763CD)\06 Squid Eye.wav

Peak level 96.6 %
Extraction speed 1.2 X
Track quality 100.0 %
Test CRC FCD6E095
Copy CRC FCD6E095
Track not present in AccurateRip database
Copy OK

Track 7

Filename C:\New Rips\Bonnie Prince Billy - 2019 - I Have Made A Place (DC763CD)\07 You Know the One.wav

Peak level 96.6 %
Extraction speed 1.4 X
Track quality 100.0 %
Test CRC 24BC48C5
Copy CRC 24BC48C5
Track not present in AccurateRip database
Copy OK

Track 8

Filename C:\New Rips\Bonnie Prince Billy - 2019 - I Have Made A Place (DC763CD)\08 This Is Far From Over.wav

Peak level 96.6 %
Extraction speed 1.4 X
Track quality 100.0 %
Test CRC F38A2699
Copy CRC F38A2699
Track not present in AccurateRip database
Copy OK

Track 9

Filename C:\New Rips\Bonnie Prince Billy - 2019 - I Have Made A Place (DC763CD)\09 Nothing Is Busted.wav

Peak level 96.6 %
Extraction speed 1.4 X
Track quality 99.9 %
Test CRC B7532A1B
Copy CRC B7532A1B
Track not present in AccurateRip database
Copy OK

Track 10

Filename C:\New Rips\Bonnie Prince Billy - 2019 - I Have Made A Place (DC763CD)\10 Mama Mama.wav

Peak level 96.6 %
Extraction speed 1.4 X
Track quality 100.0 %
Test CRC A1224527
Copy CRC A1224527
Track not present in AccurateRip database
Copy OK

Track 11

Filename C:\New Rips\Bonnie Prince Billy - 2019 - I Have Made A Place (DC763CD)\11 The Glow Pt. 3.wav

Peak level 96.6 %
Extraction speed 1.4 X
Track quality 99.9 %
Test CRC 018D5FAB
Copy CRC 018D5FAB
Track not present in AccurateRip database
Copy OK

Track 12

Filename C:\New Rips\Bonnie Prince Billy - 2019 - I Have Made A Place (DC763CD)\12 Thick Air.wav

Peak level 96.6 %
Extraction speed 1.5 X
Track quality 100.0 %
Test CRC B5C20CFD
Copy CRC B5C20CFD
Track not present in AccurateRip database
Copy OK

Track 13

Filename C:\New Rips\Bonnie Prince Billy - 2019 - I Have Made A Place (DC763CD)\13 Building A Fire.wav

Peak level 96.6 %
Extraction speed 1.5 X
Track quality 99.9 %
Test CRC 4B6907AA
Copy CRC 4B6907AA
Track not present in AccurateRip database
Copy OK


None of the tracks are present in the AccurateRip database

No errors occurred

End of status report

–– CUETools DB Plugin V2.1.6

[CTDB TOCID: sEIlZYzy2LgaNHYVaadYJmWZLTQ-] found
Submit result: sEIlZYzy2LgaNHYVaadYJmWZLTQ- has been confirmed
Track | CTDB Status
1 | (1/1) Accurately ripped
2 | (1/1) Accurately ripped
3 | (1/1) Accurately ripped
4 | (1/1) Accurately ripped
5 | (1/1) Accurately ripped
6 | (1/1) Accurately ripped
7 | (1/1) Accurately ripped
8 | (1/1) Accurately ripped
9 | (1/1) Accurately ripped
10 | (1/1) Accurately ripped
11 | (1/1) Accurately ripped
12 | (1/1) Accurately ripped
13 | (1/1) Accurately ripped


==== Log checksum AD3A7106F45ACDDF982DFDE8ADAF3F4FF0DFCFEB1741B8EFA8333E4E36B06B66 ====

Thanks to the Original ripper !