Subcategories

Julian Bream & John Williams - Together (1993) [Repost]

Posted By: Speedyclick
Julian Bream & John Williams - Together (1993) [Repost]

Julian Bream & John Williams - Together (1993)
EAC Rip | FLAC (image & cue & log) & mp3 @ 320 kbps | tracks: 19 | Full Scans | 1:10:09 | ~ 329 Mb & 196 Mb
Label: BMG | 5% recovery record | Recorded 1971 & 1978 | Classical guitar

A popular and beloved album with the two guitar virtuosi, recorded at 1971 and 1978. Most of the superb works of this masterpiece are first time tanscriptions for guitar by the two performers. To hear these two rivals play together at the same time is enlightening. Enjoy the amazing beauty and harmony of a legendary classical guitar album.

TRACKLIST
01. William Lawes: Suite for Two Guitars: Corant I
02. William Lawes: Suite for Two Guitars: Alman
03. William Lawes: Suite for Two Guitars: Corant II
04. Ferdinando Carulli: Duo in G, Op. 34: Largo
05. Ferdinando Carulli: Duo in G, Op. 34: Rondo
06. Fernando Sor: L'encouragement. Op. 34: Cantabile
07. Fernando Sor: L'encouragement. Op. 34: Theme and Variations
08. Fernando Sor: L'encouragement. Op. 34: Waltz
09. Issac Albéniz: Cantos de Espana, Op. 232, No. 4: Córdoba (Nocturne)
10. Enrique Granados: Goyescas: Intermezzo
11. Mauel de Falla: La vida breve: Spanish Dance No. 1
12. Maurice Ravel: Pavane pour une infante d funte
13. Gabriel Faure : Dolly, Op. 56: Berceuse
14. Gabriel Faure : Dolly, Op. 56: Mi-a-ou
15. Gabriel Faure : Dolly, Op. 56: Dolly's Garden
16. Gabriel Faure : Dolly, Op. 56: Kitty-Valse
17. Gabriel Faure : Dolly, Op. 56: Tendresse
18. Gabriel Faure : Dolly, Op. 56: Spanish Dance
19. Enrique Granados: Danzas espanolas, Op. 37, No. 2: Oriental

Exact Audio Copy V1.0 beta 3 from 29. August 2011

EAC extraction logfile from 29. January 2013, 3:43

Julian Bream & John Williams / Together

Used drive : HL-DT-STDVDRAM GH10N Adapter: 1 ID: 1

Read mode : Secure
Utilize accurate stream : Yes
Defeat audio cache : Yes
Make use of C2 pointers : No

Read offset correction : 667
Overread into Lead-In and Lead-Out : No
Fill up missing offset samples with silence : Yes
Delete leading and trailing silent blocks : No
Null samples used in CRC calculations : Yes
Used interface : Native Win32 interface for Win NT & 2000

Used output format : User Defined Encoder
Selected bitrate : 1024 kBit/s
Quality : High
Add ID3 tag : Yes
Command line compressor : C:\Program Files\Exact Audio Copy New\Flac\flac.exe
Additional command line options : -V -5 -T "artist=%artist%" -T "title=%title%" -T "album=%albumtitle%" -T "tracknumber=%tracknr2%" -T "genre=%genre%" -5 %source%


TOC of the extracted CD

Track | Start | Length | Start sector | End sector
––––––––––––––––––––––––––––-
1 | 0:00.00 | 1:28.10 | 0 | 6609
2 | 1:28.10 | 2:19.12 | 6610 | 17046
3 | 3:47.22 | 1:29.60 | 17047 | 23781
4 | 5:17.07 | 2:58.45 | 23782 | 37176
5 | 8:15.52 | 3:43.70 | 37177 | 53971
6 | 11:59.47 | 5:56.18 | 53972 | 80689
7 | 17:55.65 | 4:58.67 | 80690 | 103106
8 | 22:54.57 | 3:26.63 | 103107 | 118619
9 | 26:21.45 | 6:26.20 | 118620 | 147589
10 | 32:47.65 | 4:49.12 | 147590 | 169276
11 | 37:37.02 | 3:39.18 | 169277 | 185719
12 | 41:16.20 | 6:16.00 | 185720 | 213919
13 | 47:32.20 | 3:15.15 | 213920 | 228559
14 | 50:47.35 | 2:02.57 | 228560 | 237766
15 | 52:50.17 | 3:24.55 | 237767 | 253121
16 | 56:14.72 | 2:24.18 | 253122 | 263939
17 | 58:39.15 | 3:42.57 | 263940 | 280646
18 | 62:21.72 | 2:49.15 | 280647 | 293336
19 | 65:11.12 | 4:57.65 | 293337 | 315676


Range status and errors

Selected range

Filename S:\MUSIC\Uploaded\Julian Bream & John Williams - Together\Julian Bream & John Williams - Together.wav

Peak level 82.7 %
Extraction speed 5.0 X
Range quality 99.9 %
Test CRC DCA12089
Copy CRC DCA12089
Copy OK

No errors occurred


AccurateRip summary

Track 1 accurately ripped (confidence 5) [43845BCE] (AR v1)
Track 2 accurately ripped (confidence 5) [48850A29] (AR v1)
Track 3 accurately ripped (confidence 5) [7A74DFD0] (AR v1)
Track 4 accurately ripped (confidence 5) [C726B19F] (AR v1)
Track 5 accurately ripped (confidence 5) [84CB4AAE] (AR v1)
Track 6 cannot be verified as accurate (confidence 5) [AB8A3D90], AccurateRip returned [E9F03D53] (AR v2)
Track 7 accurately ripped (confidence 5) [55B454CC] (AR v1)
Track 8 cannot be verified as accurate (confidence 5) [9618FA60], AccurateRip returned [AFE08CA2] (AR v2)
Track 9 accurately ripped (confidence 4) [90303209] (AR v1)
Track 10 accurately ripped (confidence 5) [0E6316CE] (AR v1)
Track 11 accurately ripped (confidence 5) [A228A35E] (AR v1)
Track 12 accurately ripped (confidence 5) [F4D4C830] (AR v1)
Track 13 accurately ripped (confidence 5) [30C97FA5] (AR v1)
Track 14 accurately ripped (confidence 5) [03154E2A] (AR v1)
Track 15 accurately ripped (confidence 5) [C06F71B9] (AR v1)
Track 16 accurately ripped (confidence 5) [5EFA73C4] (AR v1)
Track 17 accurately ripped (confidence 5) [A7D536E5] (AR v1)
Track 18 accurately ripped (confidence 5) [F0C7CDBB] (AR v1)
Track 19 accurately ripped (confidence 5) [36094977] (AR v1)

17 track(s) accurately ripped
2 track(s) could not be verified as accurate

Some tracks could not be verified as accurate

End of status report

–– CUETools DB Plugin V2.1.3

[CTDB TOCID: 9Fbg5im6PBdFwyoIUbdAIDJUHcg-] found, Submit result: 9Fbg5im6PBdFwyoIUbdAIDJUHcg- has been uploaded
[c2e2e21d] (16/16) Differs in 107 samples @13:53:53,26:16:06-26:16:07
You can use CUETools to repair this rip.


==== Log checksum 28DAAE4D6F6DEC1D1860895FB59D3D358628D3592EE819C36EE720816E8CF406 ====

All credits to the initial uploader