Subcategories

The Brecker Brothers - The Bottom Line Archive (2015) {The Bottom Line Records-BFD BLRCD011 rec 1976}

Posted By: ruskaval
The Brecker Brothers - The Bottom Line Archive (2015) {The Bottom Line Records-BFD BLRCD011 rec 1976}

The Brecker Brothers - The Bottom Line Archive (2015) {The Bottom Line Records-BFD BLRCD011 rec 1976}
EAC rip (secure mode) | FLAC (tracks)+CUE+LOG -> 459 Mb | MP3 @320 -> 167 Mb
Full Artwork @ 300 dpi (jpg) -> 17 Mb | 5% repair rar
© 1976, 2015 The Bottom Line Records / BFD | BLRCD011
Jazz / Fusion / Jazz Rock / Trumpet / Saxophone

Why is this the first and only official live release by The Brecker Brothers Band, you ask? Perhaps surprisingly, it documents a group that rarely played live, much less toured extensively. This is due in part to a 1970 s music world with the constraints of a vital studio scene, wherein virtuoso musicians were kept busy tracking for television, movies, commercials, and all styles of solo spots and horn sections – regardless of musical style. We were making a living in the recording studios, recalls Brecker. The clubs paid next to nothing, as did ‘opening act’ gigs. Clive Davis was always begging us to go out on the road, but we weren’t going to blow the studio work.

Without a doubt, loud & proud describes this first Brecker Brothers Band in action. The group is put into 4-wheel drive by the sleekly-grooving, well-oiled machine that is the nimble rhythm team of Will Lee, Chris Parker and Sammy Figueroa. They constantly supply the connective tissue and hold down an undeniable and indelible groove. Keyboardist Grolnick s electric piano solos are oh-so-elegant, and he delivers the necessary clavinet funk. Guitarist Steve Khan steps up as yet another of the band s dynamic soloists, and he makes sure to bring the rock when the rock is required. The resultant blend of mayhem and form, abandon and razor-sharp execution, makes for an unparalleled meeting of clan-collective minds.
The Brecker Brothers - The Bottom Line Archive (2015) {The Bottom Line Records-BFD BLRCD011 rec 1976}


Personnel:
Randy Brecker - Electronics, Trumpet, Vocals
Michael Brecker - Electronics, Saxophone, Vocals
David Sanborn - Saxophone
Don Grolnick - Clavinet, Electric Piano, Organ, Vocals
Steve Khan - Guitar, Vocals
Will Lee - Bass, Vocals
Sammy Figueroa - Percussion, Vocals
Chris Parker - Drums

tracklist:
01 - Rocks
02 - Jungle Walk
03 - Cactus
04 - Band Introduction
05 - Night Flight
06 - Keep It Steady
07 - A Creature Of Many Faces
08 - If You Want To Boogie Forget It
09 - It Took A Long Time
10 - Sneakin' Up Behind You
11 - Night Flight (alt tk)

Exact Audio Copy V1.1 from 23. June 2015

EAC extraction logfile from 3. June 2016, 7:23

Brecker Brothers / The Bottom Line Archive

Used drive : MATSHITADVD+-RW SW830 Adapter: 1 ID: 0

Read mode : Secure
Utilize accurate stream : Yes
Defeat audio cache : Yes
Make use of C2 pointers : No

Read offset correction : 6
Overread into Lead-In and Lead-Out : No
Fill up missing offset samples with silence : Yes
Delete leading and trailing silent blocks : No
Null samples used in CRC calculations : Yes
Used interface : Native Win32 interface for Win NT & 2000
Gap handling : Appended to previous track

Used output format : User Defined Encoder
Selected bitrate : 896 kBit/s
Quality : High
Add ID3 tag : No
Command line compressor : C:\Program Files (x86)\Exact Audio Copy\Flac\flac.exe
Additional command line options : -8 -V -T "ARTIST=%artist%" -T "TITLE=%title%" -T "ALBUM=%albumtitle%" -T "DATE=%year%" -T "TRACKNUMBER=%tracknr%" -T "TOTALTRACKS=%numtracks%" -T "GENRE=%genre%" -T "ALBUMARTIST=%albumartist%" -T "ALBUM ARTIST=%albumartist%" -T "COMMENT=EAC Secure Mode, Test & Copy, AccurateRip, FLAC -8" %source%


TOC of the extracted CD

Track | Start | Length | Start sector | End sector
––––––––––––––––––––––––––––-
1 | 0:00.00 | 7:10.74 | 0 | 32323
2 | 7:10.74 | 4:28.59 | 32324 | 52482
3 | 11:39.58 | 9:46.48 | 52483 | 96480
4 | 21:26.31 | 1:46.22 | 96481 | 104452
5 | 23:12.53 | 6:31.18 | 104453 | 133795
6 | 29:43.71 | 4:45.65 | 133796 | 155235
7 | 34:29.61 | 11:10.73 | 155236 | 205558
8 | 45:40.59 | 5:40.36 | 205559 | 231094
9 | 51:21.20 | 3:44.63 | 231095 | 247957
10 | 55:06.08 | 8:55.53 | 247958 | 288135
11 | 64:01.61 | 6:36.33 | 288136 | 317868


Track 1

Filename G:\New Rips\Brecker Brothers - The Bottom Line Archive (1976) [FLAC]\01 - Rocks.wav

Pre-gap length 0:00:02.00

Peak level 100.0 %
Extraction speed 2.1 X
Track quality 100.0 %
Test CRC 08E2337A
Copy CRC 08E2337A
Accurately ripped (confidence 5) [7119BB45] (AR v2)
Copy OK

Track 2

Filename G:\New Rips\Brecker Brothers - The Bottom Line Archive (1976) [FLAC]\02 - Jungle Walk.wav

Peak level 99.5 %
Extraction speed 2.3 X
Track quality 100.0 %
Test CRC 00C13687
Copy CRC 00C13687
Accurately ripped (confidence 5) [DCF3A360] (AR v2)
Copy OK

Track 3

Filename G:\New Rips\Brecker Brothers - The Bottom Line Archive (1976) [FLAC]\03 - Cactus.wav

Peak level 98.7 %
Extraction speed 2.4 X
Track quality 99.9 %
Test CRC 2087FB29
Copy CRC 2087FB29
Accurately ripped (confidence 5) [60B7CE5B] (AR v2)
Copy OK

Track 4

Filename G:\New Rips\Brecker Brothers - The Bottom Line Archive (1976) [FLAC]\04 - Band Introduction.wav

Peak level 97.8 %
Extraction speed 2.4 X
Track quality 100.0 %
Test CRC 8EE0842F
Copy CRC 8EE0842F
Accurately ripped (confidence 5) [BEF05841] (AR v2)
Copy OK

Track 5

Filename G:\New Rips\Brecker Brothers - The Bottom Line Archive (1976) [FLAC]\05 - Night Flight.wav

Peak level 99.8 %
Extraction speed 3.1 X
Track quality 100.0 %
Test CRC 8B865C47
Copy CRC 8B865C47
Accurately ripped (confidence 5) [14DAD9DC] (AR v2)
Copy OK

Track 6

Filename G:\New Rips\Brecker Brothers - The Bottom Line Archive (1976) [FLAC]\06 - Keep It Steady.wav

Peak level 99.0 %
Extraction speed 2.5 X
Track quality 99.9 %
Test CRC 06844130
Copy CRC 06844130
Accurately ripped (confidence 5) [75BBEC2D] (AR v2)
Copy OK

Track 7

Filename G:\New Rips\Brecker Brothers - The Bottom Line Archive (1976) [FLAC]\07 - A Creature Of Many Faces.wav

Peak level 100.0 %
Extraction speed 3.2 X
Track quality 99.9 %
Test CRC 311460BC
Copy CRC 311460BC
Accurately ripped (confidence 5) [5B315C10] (AR v2)
Copy OK

Track 8

Filename G:\New Rips\Brecker Brothers - The Bottom Line Archive (1976) [FLAC]\08 - If You Want To Boogie Forget It.wav

Peak level 99.4 %
Extraction speed 3.6 X
Track quality 100.0 %
Test CRC D4878DE1
Copy CRC D4878DE1
Accurately ripped (confidence 5) [75B85B8A] (AR v2)
Copy OK

Track 9

Filename G:\New Rips\Brecker Brothers - The Bottom Line Archive (1976) [FLAC]\09 - It Took A Long Time.wav

Peak level 98.8 %
Extraction speed 3.6 X
Track quality 100.0 %
Test CRC BFF08347
Copy CRC BFF08347
Accurately ripped (confidence 5) [78505E63] (AR v2)
Copy OK

Track 10

Filename G:\New Rips\Brecker Brothers - The Bottom Line Archive (1976) [FLAC]\10 - Sneakin' Up Behind You.wav

Peak level 100.0 %
Extraction speed 4.1 X
Track quality 100.0 %
Test CRC F32C3202
Copy CRC F32C3202
Accurately ripped (confidence 5) [884861C4] (AR v2)
Copy OK

Track 11

Filename G:\New Rips\Brecker Brothers - The Bottom Line Archive (1976) [FLAC]\11 - Night Flight (alt tk).wav

Peak level 99.8 %
Extraction speed 3.5 X
Track quality 99.9 %
Test CRC 165A07BA
Copy CRC 165A07BA
Accurately ripped (confidence 5) [874A0C73] (AR v2)
Copy OK


All tracks accurately ripped

No errors occurred

End of status report

–– CUETools DB Plugin V2.1.6

[CTDB TOCID: ZOFe8ewzCAuq5q_efRBcEtJmpqo-] found
Submit result: ZOFe8ewzCAuq5q_efRBcEtJmpqo- has been confirmed
Track | CTDB Status
1 | (8/8) Accurately ripped
2 | (8/8) Accurately ripped
3 | (8/8) Accurately ripped
4 | (8/8) Accurately ripped
5 | (8/8) Accurately ripped
6 | (8/8) Accurately ripped
7 | (8/8) Accurately ripped
8 | (8/8) Accurately ripped
9 | (8/8) Accurately ripped
10 | (8/8) Accurately ripped
11 | (8/8) Accurately ripped


==== Log checksum 506B0DB76F351DE19A81BEBF8B64A616019F7A762F7C19B3DAD8695A3F5B317A ====


The Brecker Brothers - The Bottom Line Archive (2015) {The Bottom Line Records-BFD BLRCD011 rec 1976}

The Brecker Brothers - The Bottom Line Archive (2015) {The Bottom Line Records-BFD BLRCD011 rec 1976}


All thanks goes to the original releaser!