Subcategories

Brian Spencer Blues Project - B.S.B.P. (EP) (2017)

Posted By: Domestos
Brian Spencer Blues Project - B.S.B.P. (EP) (2017)

Brian Spencer Blues Project - B.S.B.P. (EP) (2017)
EAC Rip | FLAC (image+.cue, log) ~ 186.33 Mb | 23:23 | Scans included
Blues-Rock | Country: USA | Label: Brian Spencer Blues Project

We're an old school, blues rock power trio based in Ithaca, NY, available for engagements in the region where loud, live jams and good times are desired!

Track List:
01. Baby Please Don't Go (3:38)
02. Purgatory Blues (4:03)
03. Midnight Special (6:08)
04. Hard Times (5:01)
05. Mojo Enough (4:31)

Brian Spencer Blues Project - B.S.B.P. (EP) (2017)

Exact Audio Copy V1.0 beta 3 from 29. August 2011

Отчёт EAC об извлечении, выполненном 6. декабря 2017, 15:47

Brian Spencer Blues Project / B.S.B.P

Дисковод: ATAPI iHAS424 A Adapter: 0 ID: 0

Режим чтения : Достоверность
Использование точного потока : Да
Отключение кэша аудио : Да
Использование указателей C2 : Нет

Коррекция смещения при чтении : 6
Способность читать области Lead-in и Lead-out : Нет
Заполнение пропущенных сэмплов тишиной : Да
Удаление блоков с тишиной в начале и конце : Нет
При вычислениях CRC использовались нулевые сэмплы : Да
Интерфейс : Установленный внешний ASPI-интерфейс

Выходной формат : Пользовательский кодировщик
Выбранный битрейт : 1024 kBit/s
Качество : Высокий
Добавление ID3-тега : Нет
Утилита сжатия : C:\Program Files\Exact Audio Copy\FLAC\FLAC.EXE
Дополнительные параметры : -8 -V -T "ARTIST=%artist%" -T "ALBUM=%albumtitle%" -T "DATE=%year%" -T "GENRE=%genre%" -T "COMMENT=ripped by izia1956" %source%

TOC извлечённого CD

Трек | Старт | Длительность | Начальный сектор | Конечный сектор
––––––––––––––––––––––––––––––––––-
1 | 0:00.00 | 3:38.60 | 0 | 16409
2 | 3:38.60 | 4:03.17 | 16410 | 34651
3 | 7:42.02 | 6:08.35 | 34652 | 62286
4 | 13:50.37 | 5:01.62 | 62287 | 84923
5 | 18:52.24 | 4:31.32 | 84924 | 105280

Характеристики диапазона извлечения и сообщения об ошибках

Выбранный диапазон

Имя файла D:\BitComet\Brian Spencer Blues Project - B.S.B.P (2017)(flac)\Brian Spencer Blues Project - B.S.B.P.wav

Пиковый уровень 100.0 %
Скорость извлечения 2.6 X
Качество диапазона 100.0 %
CRC теста C27276F0
CRC копии C27276F0
Копирование… OK

Ошибок не произошло

AccurateRip: сводка

Трек 1 отсутствует в базе данных
Трек 2 отсутствует в базе данных
Трек 3 отсутствует в базе данных
Трек 4 отсутствует в базе данных
Трек 5 отсутствует в базе данных

Ни одного трека нет в базе AccurateRip

Конец отчёта

==== Контрольная сумма отчёта 1FECEACB92D9B3F49D22AA36967E9CEA767E9B8B72241818FF3C4DD814B05647 ====

All thanks go to the izia1956

More Music in My Blog
Follow My RSS Channel