Subcategories

The Brian Jonestown Massacre - Tepid Peppermint Wonderland: A Retrospective (2004) {2CD Tee Pee Records TPE-059}

Posted By: ruskaval
The Brian Jonestown Massacre - Tepid Peppermint Wonderland: A Retrospective (2004) {2CD Tee Pee Records TPE-059}

The Brian Jonestown Massacre - Tepid Peppermint Wonderland: A Retrospective (2004) {2CD Tee Pee Records TPE-059}
EAC rip (secure mode) | FLAC (tracks)+CUE+LOG -> 952 Mb | MP3 @320 -> 337 Mb
Full Artwork @ 300 dpi (png) -> 76 Mb | 5% repair rar
© 2004 Tee Pee Records | TPE-059
Rock / Alternative / Indie / Neopsychedelic

Over the years, Anton Newcombe and the Brian Jonestown Massacre have gotten more promotional mileage out of their self-sabotage than they have ink spilled on their shambolic musical blend of the Stones, Velvets, and Summer of Love-derived transcendence. Megalomania, drug abuse, internal strife, aborted tours, and frustrated fans – it's a checklist for band destruction. And yet the Brian Jonestown Massacre endure. They got a boost outside of their sizable niche in 2003 with the release of a documentary that traced both their contentious relationship with the Dandy Warhols and Newcombe's mercurial antics/genius.
The Brian Jonestown Massacre - Tepid Peppermint Wonderland: A Retrospective (2004) {2CD Tee Pee Records TPE-059}

Ondi Timoner's Dig! won the Grand Jury Prize for Best Documentary at the 2004 Sundance Film Festival, and it proved a captivating depiction of the group's long strange trip. As the film showed, BJM albums can be a long time coming. So Tee Pee Records has capitalized on the exposure with Tepid Peppermint Wonderland, a two-disc, nearly 40 song set of rare, old, unreleased, and live material. Each track is accompanied by recollections from various band participants (there have been over 40 since the group's 1990 inception), and there's a wealth of photos from that same stretch. But by including album cuts from throughout their career, Tepid Peppermint also re-emphasizes just how great – after all the drama – the Brian Jonestown Massacre can really be. Disc one includes the softly swirling haze of 2004 single "If Love Is the Drug," the Bravery Repetition & Noise highlight "Sailor," and both "Anenome" and "All Around You (Intro)" from the amazing, grimy, and beautiful 1996 effort Their Satanic Majesties' Second Request. "Wisdom" could be an ancient Charlatans UK single, and "Stars" is a brittle, very heavily '60s acoustic number about tortured love – "I warned you I'd kill you/And I love you" – that Anton's notes say is the first song he ever wrote on guitar. Tepid Peppermint's second disc is equally strong, beginning with an unreleased track and moving through the band's first-ever single ("Evergreen"), live versions of "Let Me Stand Next to Your Flower" and "Hide and Seek," the nearly garage rock stomp of 1996's "Oh Lord," and "Not if You Were the Last Dandy on Earth," the Warhols-baiting single that plays a pivotal role in the documentary. The album closes with "Sue," eight minutes that put Newcombe and the Brian Jonestown Massacre's most central themes – drugs, drone, dirt, and melody – into epic relief.
The Brian Jonestown Massacre - Tepid Peppermint Wonderland: A Retrospective (2004) {2CD Tee Pee Records TPE-059}


Track List:

CD1:

01 - All Around You (Intro)
02 - Who
03 - When Jokers Attack
04 - Servo
05 - Open Heart Surgery
06 - If Love Is The Drug
07 - It Girl
08 - Sailor
09 - Straight Up And Down
10 - Anenome
11 - Wisdom
12 - Just For Today
13 - Stars
14 - Vacuum Boots
15 - Prozac Vs. Heroin
16 - She's Gone

The Brian Jonestown Massacre - Tepid Peppermint Wonderland: A Retrospective (2004) {2CD Tee Pee Records TPE-059}


CD2:
01 - Nailing Honey To The Bee
02 - That Girl Suicide
03 - Nevertheless
04 - Evergreen
05 - Starcleaner
06 - Let Me Stand Next To Your Flower [Live]
07 - Hide And Seek [Live]
08 - In My Life
09 - Mary Please
10 - Talk Minus Action Equals Shit
11 - Oh Lord
12 - This Is Why You Love Me
13 - Not If You Were The Last Dandy On Earth
14 - Swallowtail [Live]
15 - Feel So Good
16 - Fucker
17 - No 1 Hit Jam
18 - Ballad Of Jim Jones
19 - Free And Easy Take 2
20 - Stolen
21 - Mansion In The Sky
22 - Sue

The Brian Jonestown Massacre - Tepid Peppermint Wonderland: A Retrospective (2004) {2CD Tee Pee Records TPE-059}


Exact Audio Copy V1.3 from 2. September 2016

EAC extraction logfile from 30. June 2017, 20:03

Brian Jonestown Massacre / Tepid Peppermint Wonderland - A Retrospective (Disc 1)

Used drive : TSSTcorpCDDVDW SH-224DB Adapter: 1 ID: 0

Read mode : Secure
Utilize accurate stream : Yes
Defeat audio cache : Yes
Make use of C2 pointers : No

Read offset correction : 6
Overread into Lead-In and Lead-Out : No
Fill up missing offset samples with silence : Yes
Delete leading and trailing silent blocks : No
Null samples used in CRC calculations : Yes
Used interface : Native Win32 interface for Win NT & 2000
Gap handling : Appended to previous track

Used output format : User Defined Encoder
Selected bitrate : 1024 kBit/s
Quality : High
Add ID3 tag : No
Command line compressor : C:\Program Files (x86)\Exact Audio Copy\Flac\flac.exe
Additional command line options : -8 -V -T "ARTIST=%artist%" -T "TITLE=%title%" -T "ALBUM=%albumtitle%" -T "DATE=%year%" -T "TRACKNUMBER=%tracknr%" -T "TOTALTRACKS=%numtracks%" -T "GENRE=%genre%" -T "ALBUMARTIST=%albumartist%" -T "ALBUM ARTIST=%albumartist%" -T "COMMENT=EAC Secure Mode, Test & Copy, AccurateRip, FLAC -8" %source%


TOC of the extracted CD

Track | Start | Length | Start sector | End sector
––––––––––––––––––––––––––––-
1 | 0:00.00 | 5:36.41 | 0 | 25240
2 | 5:36.41 | 2:54.15 | 25241 | 38305
3 | 8:30.56 | 3:43.33 | 38306 | 55063
4 | 12:14.14 | 3:24.20 | 55064 | 70383
5 | 15:38.34 | 4:14.72 | 70384 | 89505
6 | 19:53.31 | 3:59.35 | 89506 | 107465
7 | 23:52.66 | 2:12.26 | 107466 | 117391
8 | 26:05.17 | 3:44.45 | 117392 | 134236
9 | 29:49.62 | 4:30.17 | 134237 | 154503
10 | 34:20.04 | 5:27.69 | 154504 | 179097
11 | 39:47.73 | 5:17.55 | 179098 | 202927
12 | 45:05.53 | 4:17.30 | 202928 | 222232
13 | 49:23.08 | 3:14.46 | 222233 | 236828
14 | 52:37.54 | 2:55.59 | 236829 | 250012
15 | 55:33.38 | 3:54.14 | 250013 | 267576
16 | 59:27.52 | 7:17.44 | 267577 | 300395


Track 1

Filename C:\Users\biafr_000\Music\Brian Jonestown Massacre - Tepid Peppermint Wonderland (2004) [FLAC]\CD1\01 - All Around You (Intro).wav

Pre-gap length 0:00:02.00

Peak level 98.9 %
Extraction speed 1.9 X
Track quality 100.0 %
Test CRC 0981542E
Copy CRC 0981542E
Accurately ripped (confidence 2) [BD1278DA] (AR v2)
Copy OK

Track 2

Filename C:\Users\biafr_000\Music\Brian Jonestown Massacre - Tepid Peppermint Wonderland (2004) [FLAC]\CD1\02 - Who.wav

Peak level 98.0 %
Extraction speed 1.9 X
Track quality 100.0 %
Test CRC 70F80D55
Copy CRC 70F80D55
Accurately ripped (confidence 2) [5A45029C] (AR v2)
Copy OK

Track 3

Filename C:\Users\biafr_000\Music\Brian Jonestown Massacre - Tepid Peppermint Wonderland (2004) [FLAC]\CD1\03 - When Jokers Attack.wav

Peak level 97.8 %
Extraction speed 1.8 X
Track quality 99.9 %
Test CRC 4D7DAEA8
Copy CRC 4D7DAEA8
Accurately ripped (confidence 2) [0804684A] (AR v2)
Copy OK

Track 4

Filename C:\Users\biafr_000\Music\Brian Jonestown Massacre - Tepid Peppermint Wonderland (2004) [FLAC]\CD1\04 - Servo.wav

Peak level 97.9 %
Extraction speed 2.2 X
Track quality 100.0 %
Test CRC DEE396E5
Copy CRC DEE396E5
Accurately ripped (confidence 2) [58CE3210] (AR v2)
Copy OK

Track 5

Filename C:\Users\biafr_000\Music\Brian Jonestown Massacre - Tepid Peppermint Wonderland (2004) [FLAC]\CD1\05 - Open Heart Surgery.wav

Peak level 98.6 %
Extraction speed 2.0 X
Track quality 99.9 %
Test CRC 5E47FA0D
Copy CRC 5E47FA0D
Accurately ripped (confidence 2) [B70480BA] (AR v2)
Copy OK

Track 6

Filename C:\Users\biafr_000\Music\Brian Jonestown Massacre - Tepid Peppermint Wonderland (2004) [FLAC]\CD1\06 - If Love Is The Drug.wav

Peak level 97.6 %
Extraction speed 2.5 X
Track quality 100.0 %
Test CRC 863789EC
Copy CRC 863789EC
Accurately ripped (confidence 2) [485E2036] (AR v2)
Copy OK

Track 7

Filename C:\Users\biafr_000\Music\Brian Jonestown Massacre - Tepid Peppermint Wonderland (2004) [FLAC]\CD1\07 - It Girl.wav

Pre-gap length 0:00:01.09

Peak level 87.3 %
Extraction speed 2.4 X
Track quality 100.0 %
Test CRC 97FC7A1E
Copy CRC 97FC7A1E
Accurately ripped (confidence 2) [067A476D] (AR v2)
Copy OK

Track 8

Filename C:\Users\biafr_000\Music\Brian Jonestown Massacre - Tepid Peppermint Wonderland (2004) [FLAC]\CD1\08 - Sailor.wav

Peak level 97.0 %
Extraction speed 2.7 X
Track quality 100.0 %
Test CRC 766EB3A7
Copy CRC 766EB3A7
Accurately ripped (confidence 2) [C7E179A7] (AR v2)
Copy OK

Track 9

Filename C:\Users\biafr_000\Music\Brian Jonestown Massacre - Tepid Peppermint Wonderland (2004) [FLAC]\CD1\09 - Straight Up And Down.wav

Pre-gap length 0:00:01.01

Peak level 96.7 %
Extraction speed 2.4 X
Track quality 99.9 %
Test CRC F47C0CD0
Copy CRC F47C0CD0
Accurately ripped (confidence 2) [BE862AFF] (AR v2)
Copy OK

Track 10

Filename C:\Users\biafr_000\Music\Brian Jonestown Massacre - Tepid Peppermint Wonderland (2004) [FLAC]\CD1\10 - Anenome.wav

Peak level 98.0 %
Extraction speed 3.1 X
Track quality 100.0 %
Test CRC 9FCDE17E
Copy CRC 9FCDE17E
Accurately ripped (confidence 2) [BDECAA93] (AR v2)
Copy OK

Track 11

Filename C:\Users\biafr_000\Music\Brian Jonestown Massacre - Tepid Peppermint Wonderland (2004) [FLAC]\CD1\11 - Wisdom.wav

Peak level 98.1 %
Extraction speed 2.7 X
Track quality 99.9 %
Test CRC 9DF0ECC7
Copy CRC 9DF0ECC7
Accurately ripped (confidence 2) [3AB6CC78] (AR v2)
Copy OK

Track 12

Filename C:\Users\biafr_000\Music\Brian Jonestown Massacre - Tepid Peppermint Wonderland (2004) [FLAC]\CD1\12 - Just For Today.wav

Peak level 93.8 %
Extraction speed 3.3 X
Track quality 100.0 %
Test CRC 30182F77
Copy CRC 30182F77
Accurately ripped (confidence 2) [0DF580EC] (AR v2)
Copy OK

Track 13

Filename C:\Users\biafr_000\Music\Brian Jonestown Massacre - Tepid Peppermint Wonderland (2004) [FLAC]\CD1\13 - Stars.wav

Pre-gap length 0:00:01.14

Peak level 83.6 %
Extraction speed 3.3 X
Track quality 100.0 %
Test CRC 673CF0B1
Copy CRC 673CF0B1
Accurately ripped (confidence 2) [04126671] (AR v2)
Copy OK

Track 14

Filename C:\Users\biafr_000\Music\Brian Jonestown Massacre - Tepid Peppermint Wonderland (2004) [FLAC]\CD1\14 - Vacuum Boots.wav

Peak level 97.4 %
Extraction speed 3.2 X
Track quality 100.0 %
Test CRC 25BA7A54
Copy CRC 25BA7A54
Accurately ripped (confidence 2) [86FB63BB] (AR v2)
Copy OK

Track 15

Filename C:\Users\biafr_000\Music\Brian Jonestown Massacre - Tepid Peppermint Wonderland (2004) [FLAC]\CD1\15 - Prozac Vs. Heroin.wav

Peak level 98.3 %
Extraction speed 3.5 X
Track quality 100.0 %
Test CRC 9D63E97C
Copy CRC 9D63E97C
Accurately ripped (confidence 5) [05958E09] (AR v1)
Copy OK

Track 16

Filename C:\Users\biafr_000\Music\Brian Jonestown Massacre - Tepid Peppermint Wonderland (2004) [FLAC]\CD1\16 - She's Gone.wav

Peak level 97.8 %
Extraction speed 3.3 X
Track quality 99.9 %
Test CRC 48A15F29
Copy CRC 48A15F29
Accurately ripped (confidence 2) [538A82E3] (AR v2)
Copy OK


All tracks accurately ripped

No errors occurred

End of status report

–– CUETools DB Plugin V2.1.6

[CTDB TOCID: t27r7V_ytknMebw.Vbi.YnO.5iw-] found
Submit result: t27r7V_ytknMebw.Vbi.YnO.5iw- has been confirmed
Track | CTDB Status
1 | (51/51) Accurately ripped
2 | (51/51) Accurately ripped
3 | (51/51) Accurately ripped
4 | (51/51) Accurately ripped
5 | (51/51) Accurately ripped
6 | (49/51) Accurately ripped
7 | (51/51) Accurately ripped
8 | (51/51) Accurately ripped
9 | (51/51) Accurately ripped
10 | (51/51) Accurately ripped
11 | (51/51) Accurately ripped
12 | (50/51) Accurately ripped
13 | (51/51) Accurately ripped
14 | (50/51) Accurately ripped
15 | (50/51) Accurately ripped
16 | (49/51) Accurately ripped


==== Log checksum 5853472773686608629E76EDE26C94D4A0526B2EC06BB80EFE6AA5A64F58083A ====

––––––––––––––––––––

Exact Audio Copy V1.3 from 2. September 2016

EAC extraction logfile from 30. June 2017, 21:07

Brian Jonestown Massacre / Tepid Peppermint Wonderland - A Retrospective (Disc 2)

Used drive : TSSTcorpCDDVDW SH-224DB Adapter: 1 ID: 0

Read mode : Secure
Utilize accurate stream : Yes
Defeat audio cache : Yes
Make use of C2 pointers : No

Read offset correction : 6
Overread into Lead-In and Lead-Out : No
Fill up missing offset samples with silence : Yes
Delete leading and trailing silent blocks : No
Null samples used in CRC calculations : Yes
Used interface : Native Win32 interface for Win NT & 2000
Gap handling : Appended to previous track

Used output format : User Defined Encoder
Selected bitrate : 1024 kBit/s
Quality : High
Add ID3 tag : No
Command line compressor : C:\Program Files (x86)\Exact Audio Copy\Flac\flac.exe
Additional command line options : -8 -V -T "ARTIST=%artist%" -T "TITLE=%title%" -T "ALBUM=%albumtitle%" -T "DATE=%year%" -T "TRACKNUMBER=%tracknr%" -T "TOTALTRACKS=%numtracks%" -T "GENRE=%genre%" -T "ALBUMARTIST=%albumartist%" -T "ALBUM ARTIST=%albumartist%" -T "COMMENT=EAC Secure Mode, Test & Copy, AccurateRip, FLAC -8" %source%


TOC of the extracted CD

Track | Start | Length | Start sector | End sector
––––––––––––––––––––––––––––-
1 | 0:00.00 | 2:38.21 | 0 | 11870
2 | 2:38.21 | 3:39.48 | 11871 | 28343
3 | 6:17.69 | 3:29.39 | 28344 | 44057
4 | 9:47.33 | 3:23.42 | 44058 | 59324
5 | 13:11.00 | 2:28.36 | 59325 | 70460
6 | 15:39.36 | 3:29.64 | 70461 | 86199
7 | 19:09.25 | 4:18.23 | 86200 | 105572
8 | 23:27.48 | 2:23.14 | 105573 | 116311
9 | 25:50.62 | 4:09.32 | 116312 | 135018
10 | 30:00.19 | 2:01.13 | 135019 | 144106
11 | 32:01.32 | 3:21.29 | 144107 | 159210
12 | 35:22.61 | 1:53.11 | 159211 | 167696
13 | 37:15.72 | 2:46.16 | 167697 | 180162
14 | 40:02.13 | 6:26.68 | 180163 | 209180
15 | 46:29.06 | 4:42.32 | 209181 | 230362
16 | 51:11.38 | 2:14.58 | 230363 | 240470
17 | 53:26.21 | 4:54.53 | 240471 | 262573
18 | 58:20.74 | 2:15.24 | 262574 | 272722
19 | 60:36.23 | 2:30.15 | 272723 | 283987
20 | 63:06.38 | 1:27.21 | 283988 | 290533
21 | 64:33.59 | 2:19.48 | 290534 | 301006
22 | 66:53.32 | 8:29.23 | 301007 | 339204


Track 1

Filename C:\Users\biafr_000\Music\Brian Jonestown Massacre - Tepid Peppermint Wonderland (2004) [FLAC]\CD2\01 - Nailing Honey To The Bee.wav

Pre-gap length 0:00:02.00

Peak level 99.8 %
Extraction speed 1.7 X
Track quality 100.0 %
Test CRC 28904276
Copy CRC 28904276
Accurately ripped (confidence 2) [71BD64D8] (AR v2)
Copy OK

Track 2

Filename C:\Users\biafr_000\Music\Brian Jonestown Massacre - Tepid Peppermint Wonderland (2004) [FLAC]\CD2\02 - That Girl Suicide.wav

Peak level 99.8 %
Extraction speed 2.0 X
Track quality 100.0 %
Test CRC 87A6E477
Copy CRC 87A6E477
Accurately ripped (confidence 2) [64D9A393] (AR v2)
Copy OK

Track 3

Filename C:\Users\biafr_000\Music\Brian Jonestown Massacre - Tepid Peppermint Wonderland (2004) [FLAC]\CD2\03 - Nevertheless.wav

Pre-gap length 0:00:01.15

Peak level 99.8 %
Extraction speed 2.1 X
Track quality 100.0 %
Test CRC 84C947BD
Copy CRC 84C947BD
Accurately ripped (confidence 2) [78A04049] (AR v2)
Copy OK

Track 4

Filename C:\Users\biafr_000\Music\Brian Jonestown Massacre - Tepid Peppermint Wonderland (2004) [FLAC]\CD2\04 - Evergreen.wav

Pre-gap length 0:00:01.16

Peak level 99.8 %
Extraction speed 2.2 X
Track quality 100.0 %
Test CRC 2F216262
Copy CRC 2F216262
Accurately ripped (confidence 2) [3A323919] (AR v2)
Copy OK

Track 5

Filename C:\Users\biafr_000\Music\Brian Jonestown Massacre - Tepid Peppermint Wonderland (2004) [FLAC]\CD2\05 - Starcleaner.wav

Peak level 99.8 %
Extraction speed 2.2 X
Track quality 100.0 %
Test CRC DE122836
Copy CRC DE122836
Accurately ripped (confidence 2) [850D4CD5] (AR v2)
Copy OK

Track 6

Filename C:\Users\biafr_000\Music\Brian Jonestown Massacre - Tepid Peppermint Wonderland (2004) [FLAC]\CD2\06 - Let Me Stand Next To Your Flower [Live].wav

Pre-gap length 0:00:01.11

Peak level 99.8 %
Extraction speed 2.4 X
Track quality 100.0 %
Test CRC 4715E53E
Copy CRC 4715E53E
Accurately ripped (confidence 2) [42CBF6C1] (AR v2)
Copy OK

Track 7

Filename C:\Users\biafr_000\Music\Brian Jonestown Massacre - Tepid Peppermint Wonderland (2004) [FLAC]\CD2\07 - Hide And Seek [Live].wav

Peak level 99.8 %
Extraction speed 2.2 X
Track quality 99.9 %
Test CRC 832BE101
Copy CRC 832BE101
Accurately ripped (confidence 2) [4DB7C284] (AR v2)
Copy OK

Track 8

Filename C:\Users\biafr_000\Music\Brian Jonestown Massacre - Tepid Peppermint Wonderland (2004) [FLAC]\CD2\08 - In My Life.wav

Peak level 98.0 %
Extraction speed 2.5 X
Track quality 100.0 %
Test CRC 99DAEF85
Copy CRC 99DAEF85
Accurately ripped (confidence 2) [6A536B0F] (AR v2)
Copy OK

Track 9

Filename C:\Users\biafr_000\Music\Brian Jonestown Massacre - Tepid Peppermint Wonderland (2004) [FLAC]\CD2\09 - Mary Please.wav

Pre-gap length 0:00:01.23

Peak level 97.6 %
Extraction speed 2.8 X
Track quality 100.0 %
Test CRC 9F044E71
Copy CRC 9F044E71
Accurately ripped (confidence 2) [A2436E22] (AR v2)
Copy OK

Track 10

Filename C:\Users\biafr_000\Music\Brian Jonestown Massacre - Tepid Peppermint Wonderland (2004) [FLAC]\CD2\10 - Talk Minus Action Equals Shit.wav

Pre-gap length 0:00:01.25

Peak level 99.8 %
Extraction speed 1.7 X
Track quality 99.9 %
Test CRC 8ACFCAC6
Copy CRC 8ACFCAC6
Accurately ripped (confidence 2) [0103B40D] (AR v2)
Copy OK

Track 11

Filename C:\Users\biafr_000\Music\Brian Jonestown Massacre - Tepid Peppermint Wonderland (2004) [FLAC]\CD2\11 - Oh Lord.wav

Pre-gap length 0:00:01.09

Peak level 99.8 %
Extraction speed 2.9 X
Track quality 100.0 %
Test CRC 269FF008
Copy CRC 269FF008
Accurately ripped (confidence 2) [C353293E] (AR v2)
Copy OK

Track 12

Filename C:\Users\biafr_000\Music\Brian Jonestown Massacre - Tepid Peppermint Wonderland (2004) [FLAC]\CD2\12 - This Is Why You Love Me.wav

Pre-gap length 0:00:01.07

Peak level 99.0 %
Extraction speed 2.7 X
Track quality 100.0 %
Test CRC D28E5A75
Copy CRC D28E5A75
Accurately ripped (confidence 2) [51F2E64F] (AR v2)
Copy OK

Track 13

Filename C:\Users\biafr_000\Music\Brian Jonestown Massacre - Tepid Peppermint Wonderland (2004) [FLAC]\CD2\13 - Not If You Were The Last Dandy On Earth.wav

Peak level 99.8 %
Extraction speed 2.9 X
Track quality 100.0 %
Test CRC C37BAC3E
Copy CRC C37BAC3E
Accurately ripped (confidence 2) [F99E78AC] (AR v2)
Copy OK

Track 14

Filename C:\Users\biafr_000\Music\Brian Jonestown Massacre - Tepid Peppermint Wonderland (2004) [FLAC]\CD2\14 - Swallowtail [Live].wav

Pre-gap length 0:00:01.25

Peak level 99.8 %
Extraction speed 3.4 X
Track quality 100.0 %
Test CRC 2F0AB1D6
Copy CRC 2F0AB1D6
Accurately ripped (confidence 2) [41B5207C] (AR v2)
Copy OK

Track 15

Filename C:\Users\biafr_000\Music\Brian Jonestown Massacre - Tepid Peppermint Wonderland (2004) [FLAC]\CD2\15 - Feel So Good.wav

Peak level 99.8 %
Extraction speed 3.5 X
Track quality 100.0 %
Test CRC B1433012
Copy CRC B1433012
Accurately ripped (confidence 2) [DB792DFB] (AR v2)
Copy OK

Track 16

Filename C:\Users\biafr_000\Music\Brian Jonestown Massacre - Tepid Peppermint Wonderland (2004) [FLAC]\CD2\16 - Fucker.wav

Peak level 99.8 %
Extraction speed 2.2 X
Track quality 99.9 %
Test CRC CF9FF610
Copy CRC CF9FF610
Accurately ripped (confidence 2) [19FC084F] (AR v2)
Copy OK

Track 17

Filename C:\Users\biafr_000\Music\Brian Jonestown Massacre - Tepid Peppermint Wonderland (2004) [FLAC]\CD2\17 - No 1 Hit Jam.wav

Pre-gap length 0:00:01.36

Peak level 99.8 %
Extraction speed 3.6 X
Track quality 100.0 %
Test CRC 47E32417
Copy CRC 47E32417
Accurately ripped (confidence 2) [8BDA33BA] (AR v2)
Copy OK

Track 18

Filename C:\Users\biafr_000\Music\Brian Jonestown Massacre - Tepid Peppermint Wonderland (2004) [FLAC]\CD2\18 - Ballad Of Jim Jones.wav

Peak level 99.8 %
Extraction speed 3.2 X
Track quality 100.0 %
Test CRC A0BBE9D8
Copy CRC A0BBE9D8
Accurately ripped (confidence 2) [3761B7DC] (AR v2)
Copy OK

Track 19

Filename C:\Users\biafr_000\Music\Brian Jonestown Massacre - Tepid Peppermint Wonderland (2004) [FLAC]\CD2\19 - Free And Easy Take 2.wav

Pre-gap length 0:00:01.17

Peak level 89.4 %
Extraction speed 3.4 X
Track quality 100.0 %
Test CRC 6F4E95B8
Copy CRC 6F4E95B8
Accurately ripped (confidence 2) [DA863526] (AR v2)
Copy OK

Track 20

Filename C:\Users\biafr_000\Music\Brian Jonestown Massacre - Tepid Peppermint Wonderland (2004) [FLAC]\CD2\20 - Stolen.wav

Peak level 99.8 %
Extraction speed 1.8 X
Track quality 99.8 %
Test CRC 53136916
Copy CRC 53136916
Accurately ripped (confidence 2) [BA4BA79C] (AR v2)
Copy OK

Track 21

Filename C:\Users\biafr_000\Music\Brian Jonestown Massacre - Tepid Peppermint Wonderland (2004) [FLAC]\CD2\21 - Mansion In The Sky.wav

Peak level 99.8 %
Extraction speed 3.4 X
Track quality 100.0 %
Test CRC B1826F85
Copy CRC B1826F85
Accurately ripped (confidence 2) [AD3EBFC3] (AR v2)
Copy OK

Track 22

Filename C:\Users\biafr_000\Music\Brian Jonestown Massacre - Tepid Peppermint Wonderland (2004) [FLAC]\CD2\22 - Sue.wav

Pre-gap length 0:00:02.31

Peak level 99.8 %
Extraction speed 3.6 X
Track quality 99.9 %
Test CRC C2056154
Copy CRC C2056154
Accurately ripped (confidence 2) [5C9F2899] (AR v2)
Copy OK


All tracks accurately ripped

No errors occurred

End of status report

–– CUETools DB Plugin V2.1.6

[CTDB TOCID: X7pOEoUXKG88ob2Pxlp8FnOqbUM-] found
Submit result: X7pOEoUXKG88ob2Pxlp8FnOqbUM- has been confirmed
Track | CTDB Status
1 | (48/51) Accurately ripped
2 | (50/51) Accurately ripped
3 | (50/51) Accurately ripped
4 | (50/51) Accurately ripped
5 | (50/51) Accurately ripped
6 | (50/51) Accurately ripped
7 | (50/51) Accurately ripped
8 | (50/51) Accurately ripped
9 | (50/51) Accurately ripped
10 | (50/51) Accurately ripped
11 | (50/51) Accurately ripped
12 | (50/51) Accurately ripped
13 | (50/51) Accurately ripped
14 | (50/51) Accurately ripped
15 | (50/51) Accurately ripped
16 | (50/51) Accurately ripped
17 | (50/51) Accurately ripped
18 | (50/51) Accurately ripped
19 | (50/51) Accurately ripped
20 | (50/51) Accurately ripped
21 | (50/51) Accurately ripped
22 | (45/51) Accurately ripped


==== Log checksum B1F77799EDF4C5FF1377F13656F417AFD37FDE1C247450AD1827A67665B56FFB ====


The Brian Jonestown Massacre - Tepid Peppermint Wonderland: A Retrospective (2004) {2CD Tee Pee Records TPE-059}



===