Subcategories
Tags
Language
Tags

Brian Wilson & Van Dyke Parks - Orange Crate Art (25th Anniversary Deluxe Edition) (1995/2020)

Posted By: delpotro
Brian Wilson & Van Dyke Parks - Orange Crate Art (25th Anniversary Deluxe Edition) (1995/2020)

Brian Wilson & Van Dyke Parks - Orange Crate Art (25th Anniversary Deluxe Edition) (1995/2020)
EAC Rip | FLAC (tracks+log+.cue) - 637 Mb | MP3 CBR 320 kbps - 232 Mb | 01:40:50
Pop Rock, Art Pop | Label: Omnivore Recordings

In 1966, when Brian Wilson prepared the follow up to his masterpiece Pet Sounds, he employed the services of Mississippi born Van Dyke Parks as lyricist for The Beach Boys next album, SMiLE. As history would soon document, SMiLE became the most famous unreleased album in rock history, it’s “completion” not seeing daylight until a Grammy®-award winning box set in 2012. SMiLE’s original plan was to incorporate many different elements of American music in an avant-garde fashion, its musical format leaps and bounds ahead of anything that existed contemporaneously.

As SMiLE quickly grew in legendary terms, Brian and Van Dyke each went their separate musical ways, only to reunite briefly in 1972 for The Beach Boys classic “Sail On Sailor.” So it was perhaps with great apprehension and excitement that these two musical giants should finally reunite in 1994 for some unfinished business. This time, however, the mission would be complete. The musical terrain familiar… a paeon to California… Omnivore Recordings is very proud to announce the release of the 25th anniversary special edition of Orange Crate Art by Brian Wilson and Van Dyke Parks.

By 1994, the roles had been reversed and it was Van Dyke who coaxed Brian into the studio to be the singer of nearly a dozen new songs he had written as a tribute to his home away from home. Parks writes in the liner notes, “Though my roots are somewhere else, far away, my limbs are here in Southern California… it’s here… that I have struggled desperately for a sense of place… Orange Crate Art is a continuum of that which stood, freeze-frame, at the release of SMiLE.

Twenty-five years on, this album which sounds like nothing before or since, has been majestically re-mastered by multi-Grammy® award winner Michael Graves. Available on vinyl for the very first time, the deluxe CD package contains three previously unreleased bonus tracks as well as instrumental track versions of 11 of the album’s songs.
Tracklist:
Disc 1 (58:53)
1. Orange Crate Art (03:04)
2. Sail Away (05:18)
3. My Hobo Heart (03:20)
4. Wings Of A Dove (03:09)
5. Palm Tree And Moon (04:09)
6. Summer In Monterey (04:17)
7. San Francisco (04:32)
8. Hold Back Time (03:44)
9. My Jeanine (03:18)
10. Movies Is Magic (03:59)
11. This Town Goes Down At Sunset (03:25)
12. Lullaby (06:09)
13. Rhapsody In Blue [Outtake] (03:39)
14. Love Is Here To Stay [Outtake] (03:44)
15. What A Wonderful World [Outtake] (03:06)

Disc 2 (41:57)
1. Orange Crate Art [Instrumental] (03:04)
2. Sail Away [Instrumental] (05:17)
3. My Hobo Heart [Instrumental] (03:18)
4. Wings Of A Dove [Instrumental] (03:10)
5. Palm Tree and Moon [Instrumental] (04:08)
6. Summer In Monterey [Instrumental] (04:16)
7. San Francisco [Instrumental] (04:25)
8. Hold Back Time [Instrumental] (03:43)
9. My Jeanine [Instrumental] (03:17)
10. Movies Is Magic [Instrumental] (03:56)
11. This Town Goes Down At Sunset [Instrumental] (03:23)

Exact Audio Copy V1.3 from 2. September 2016

EAC extraction logfile from 26. December 2020, 17:27

Brian Wilson and Van Dyke Parks / Orange Crate Art

Used drive : HL-DT-STDVDRAM GP55EX70 Adapter: 1 ID: 0

Read mode : Secure
Utilize accurate stream : Yes
Defeat audio cache : Yes
Make use of C2 pointers : No

Read offset correction : 6
Overread into Lead-In and Lead-Out : No
Fill up missing offset samples with silence : Yes
Delete leading and trailing silent blocks : No
Null samples used in CRC calculations : Yes
Used interface : Native Win32 interface for Win NT & 2000
Gap handling : Appended to previous track

Used output format : User Defined Encoder
Selected bitrate : 1024 kBit/s
Quality : High
Add ID3 tag : No
Command line compressor : C:\Program Files (x86)\Exact Audio Copy\Flac\flac.exe
Additional command line options : -8 -e -p -V -T "ARTIST=%artist%" -T "TITLE=%title%" -T "ALBUM=%albumtitle%" -T "DATE=%year%" -T "TRACKNUMBER=%tracknr%" -T "GENRE=%genre%" -T "PERFORMER=%albuminterpret%" -T "COMPOSER=%composer%" %haslyrics%–tag-from-file=LYRICS="%lyricsfile%"%haslyrics% -T "ALBUMARTIST=%albumartist%" -T "DISCNUMBER=%cdnumber%" -T "TOTALDISCS=%totalcds%" -T "TOTALTRACKS=%numtracks%" -T "COMMENT=%comment%" %source% -o %dest%


TOC of the extracted CD

Track | Start | Length | Start sector | End sector
––––––––––––––––––––––––––––-
1 | 0:00.00 | 3:03.48 | 0 | 13772
2 | 3:03.48 | 5:17.56 | 13773 | 37603
3 | 8:21.29 | 3:20.13 | 37604 | 52616
4 | 11:41.42 | 3:09.16 | 52617 | 66807
5 | 14:50.58 | 4:09.37 | 66808 | 85519
6 | 19:00.20 | 4:16.62 | 85520 | 104781
7 | 23:17.07 | 4:31.44 | 104782 | 125150
8 | 27:48.51 | 3:43.66 | 125151 | 141941
9 | 31:32.42 | 3:18.13 | 141942 | 156804
10 | 34:50.55 | 3:58.54 | 156805 | 174708
11 | 38:49.34 | 3:24.55 | 174709 | 190063
12 | 42:14.14 | 6:08.49 | 190064 | 217712
13 | 48:22.63 | 3:39.16 | 217713 | 234153
14 | 52:02.04 | 3:44.18 | 234154 | 250971
15 | 55:46.22 | 3:05.58 | 250972 | 264904


Track 1

Filename D:\EACRips\Brian Wilson and Van Dyke Parks - Orange Crate Art (2020) [FLAC] {OVCD-373}\01 - Orange Crate Art.wav

Pre-gap length 0:00:02.00

Peak level 94.3 %
Extraction speed 1.7 X
Track quality 100.0 %
Test CRC B36D84CD
Copy CRC B36D84CD
Accurately ripped (confidence 7) [0EB48130] (AR v2)
Copy OK

Track 2

Filename D:\EACRips\Brian Wilson and Van Dyke Parks - Orange Crate Art (2020) [FLAC] {OVCD-373}\02 - Sail Away.wav

Peak level 94.3 %
Extraction speed 1.7 X
Track quality 99.9 %
Test CRC 3287FD35
Copy CRC 3287FD35
Accurately ripped (confidence 7) [234F24E5] (AR v2)
Copy OK

Track 3

Filename D:\EACRips\Brian Wilson and Van Dyke Parks - Orange Crate Art (2020) [FLAC] {OVCD-373}\03 - My Hobo Heart.wav

Peak level 94.3 %
Extraction speed 1.6 X
Track quality 99.9 %
Test CRC 009C4AB1
Copy CRC 009C4AB1
Accurately ripped (confidence 7) [8D1816EB] (AR v2)
Copy OK

Track 4

Filename D:\EACRips\Brian Wilson and Van Dyke Parks - Orange Crate Art (2020) [FLAC] {OVCD-373}\04 - Wings of a Dove.wav

Peak level 94.1 %
Extraction speed 1.7 X
Track quality 99.9 %
Test CRC 89D5D680
Copy CRC 89D5D680
Accurately ripped (confidence 7) [8D2E40D0] (AR v2)
Copy OK

Track 5

Filename D:\EACRips\Brian Wilson and Van Dyke Parks - Orange Crate Art (2020) [FLAC] {OVCD-373}\05 - Palm Tree and Moon.wav

Peak level 94.3 %
Extraction speed 2.5 X
Track quality 100.0 %
Test CRC 86CEC8BC
Copy CRC 86CEC8BC
Accurately ripped (confidence 7) [B2650C70] (AR v2)
Copy OK

Track 6

Filename D:\EACRips\Brian Wilson and Van Dyke Parks - Orange Crate Art (2020) [FLAC] {OVCD-373}\06 - Summer in Monterey.wav

Peak level 94.3 %
Extraction speed 2.7 X
Track quality 100.0 %
Test CRC AEBF9C80
Copy CRC AEBF9C80
Accurately ripped (confidence 7) [F230CF82] (AR v2)
Copy OK

Track 7

Filename D:\EACRips\Brian Wilson and Van Dyke Parks - Orange Crate Art (2020) [FLAC] {OVCD-373}\07 - San Francisco.wav

Peak level 94.3 %
Extraction speed 2.3 X
Track quality 99.9 %
Test CRC B6DD4FB0
Copy CRC B6DD4FB0
Accurately ripped (confidence 7) [BE256BD0] (AR v2)
Copy OK

Track 8

Filename D:\EACRips\Brian Wilson and Van Dyke Parks - Orange Crate Art (2020) [FLAC] {OVCD-373}\08 - Hold Back Time.wav

Peak level 93.8 %
Extraction speed 2.9 X
Track quality 100.0 %
Test CRC B1FC10C0
Copy CRC B1FC10C0
Accurately ripped (confidence 7) [6E33C1A9] (AR v2)
Copy OK

Track 9

Filename D:\EACRips\Brian Wilson and Van Dyke Parks - Orange Crate Art (2020) [FLAC] {OVCD-373}\09 - My Janine.wav

Peak level 94.3 %
Extraction speed 2.2 X
Track quality 99.9 %
Test CRC 8040DB8E
Copy CRC 8040DB8E
Accurately ripped (confidence 7) [EA3028DA] (AR v2)
Copy OK

Track 10

Filename D:\EACRips\Brian Wilson and Van Dyke Parks - Orange Crate Art (2020) [FLAC] {OVCD-373}\10 - Movies is Magic.wav

Peak level 94.3 %
Extraction speed 2.4 X
Track quality 99.9 %
Test CRC E04F36C4
Copy CRC E04F36C4
Accurately ripped (confidence 7) [0EA3BCA3] (AR v2)
Copy OK

Track 11

Filename D:\EACRips\Brian Wilson and Van Dyke Parks - Orange Crate Art (2020) [FLAC] {OVCD-373}\11 - This Town Goes Down at Sunset.wav

Peak level 94.2 %
Extraction speed 3.2 X
Track quality 100.0 %
Test CRC A70862D8
Copy CRC A70862D8
Accurately ripped (confidence 7) [D58A973A] (AR v2)
Copy OK

Track 12

Filename D:\EACRips\Brian Wilson and Van Dyke Parks - Orange Crate Art (2020) [FLAC] {OVCD-373}\12 - Lullaby.wav

Peak level 69.4 %
Extraction speed 3.5 X
Track quality 100.0 %
Test CRC 1DE2DCDB
Copy CRC 1DE2DCDB
Accurately ripped (confidence 7) [0616CB9D] (AR v2)
Copy OK

Track 13

Filename D:\EACRips\Brian Wilson and Van Dyke Parks - Orange Crate Art (2020) [FLAC] {OVCD-373}\13 - Rhapsody in Blue.wav

Peak level 94.3 %
Extraction speed 3.5 X
Track quality 100.0 %
Test CRC 77313FDF
Copy CRC 77313FDF
Accurately ripped (confidence 7) [9E53C7D0] (AR v2)
Copy OK

Track 14

Filename D:\EACRips\Brian Wilson and Van Dyke Parks - Orange Crate Art (2020) [FLAC] {OVCD-373}\14 - Love is Here to Stay.wav

Peak level 94.3 %
Extraction speed 3.6 X
Track quality 100.0 %
Test CRC 626AB60D
Copy CRC 626AB60D
Accurately ripped (confidence 7) [61AB57F0] (AR v2)
Copy OK

Track 15

Filename D:\EACRips\Brian Wilson and Van Dyke Parks - Orange Crate Art (2020) [FLAC] {OVCD-373}\15 - What a Wonderful World.wav

Peak level 79.8 %
Extraction speed 3.5 X
Track quality 100.0 %
Test CRC A03348B2
Copy CRC A03348B2
Accurately ripped (confidence 7) [5B1FA250] (AR v2)
Copy OK


All tracks accurately ripped

No errors occurred

End of status report

–– CUETools DB Plugin V2.1.6

[CTDB TOCID: asd4eAfuYPmqWYyB6AgPKh7P8Y0-] found
Submit result: asd4eAfuYPmqWYyB6AgPKh7P8Y0- has been confirmed
Track | CTDB Status
1 | (24/24) Accurately ripped
2 | (24/24) Accurately ripped
3 | (24/24) Accurately ripped
4 | (24/24) Accurately ripped
5 | (24/24) Accurately ripped
6 | (24/24) Accurately ripped
7 | (24/24) Accurately ripped
8 | (24/24) Accurately ripped
9 | (24/24) Accurately ripped
10 | (24/24) Accurately ripped
11 | (24/24) Accurately ripped
12 | (24/24) Accurately ripped
13 | (24/24) Accurately ripped
14 | (24/24) Accurately ripped
15 | (24/24) Accurately ripped


==== Log checksum D039A4C244F56C3C8AA5039AF042DE46BCFDD9A8F7F2B4F564BA8AF6D1C16636 ====
Exact Audio Copy V1.3 from 2. September 2016

EAC extraction logfile from 26. December 2020, 19:03

Brian Wilson and Van Dyke Parks / Orange Crate Art

Used drive : HL-DT-STDVDRAM GP55EX70 Adapter: 1 ID: 0

Read mode : Secure
Utilize accurate stream : Yes
Defeat audio cache : Yes
Make use of C2 pointers : No

Read offset correction : 6
Overread into Lead-In and Lead-Out : No
Fill up missing offset samples with silence : Yes
Delete leading and trailing silent blocks : No
Null samples used in CRC calculations : Yes
Used interface : Native Win32 interface for Win NT & 2000
Gap handling : Appended to previous track

Used output format : User Defined Encoder
Selected bitrate : 1024 kBit/s
Quality : High
Add ID3 tag : No
Command line compressor : C:\Program Files (x86)\Exact Audio Copy\Flac\flac.exe
Additional command line options : -8 -e -p -V -T "ARTIST=%artist%" -T "TITLE=%title%" -T "ALBUM=%albumtitle%" -T "DATE=%year%" -T "TRACKNUMBER=%tracknr%" -T "GENRE=%genre%" -T "PERFORMER=%albuminterpret%" -T "COMPOSER=%composer%" %haslyrics%–tag-from-file=LYRICS="%lyricsfile%"%haslyrics% -T "ALBUMARTIST=%albumartist%" -T "DISCNUMBER=%cdnumber%" -T "TOTALDISCS=%totalcds%" -T "TOTALTRACKS=%numtracks%" -T "COMMENT=%comment%" %source% -o %dest%


TOC of the extracted CD

Track | Start | Length | Start sector | End sector
––––––––––––––––––––––––––––-
1 | 0:00.00 | 3:03.52 | 0 | 13776
2 | 3:03.52 | 5:17.01 | 13777 | 37552
3 | 8:20.53 | 3:17.48 | 37553 | 52375
4 | 11:38.26 | 3:09.40 | 52376 | 66590
5 | 14:47.66 | 4:08.35 | 66591 | 85225
6 | 18:56.26 | 4:16.09 | 85226 | 104434
7 | 23:12.35 | 4:24.57 | 104435 | 124291
8 | 27:37.17 | 3:43.09 | 124292 | 141025
9 | 31:20.26 | 3:17.17 | 141026 | 155817
10 | 34:37.43 | 3:57.44 | 155818 | 173636
11 | 38:35.12 | 3:22.65 | 173637 | 188851


Track 1

Filename D:\EACRips\Brian Wilson and Van Dyke Parks - Orange Crate Art (2020) [FLAC] {OVCD-373}\01 - Orange Crate Art [Instrumental].wav

Pre-gap length 0:00:02.00

Peak level 93.8 %
Extraction speed 1.1 X
Track quality 100.0 %
Test CRC 8827BFBA
Copy CRC 8827BFBA
Accurately ripped (confidence 7) [154373C4] (AR v2)
Copy OK

Track 2

Filename D:\EACRips\Brian Wilson and Van Dyke Parks - Orange Crate Art (2020) [FLAC] {OVCD-373}\02 - Sail Away [Instrumental].wav

Peak level 94.3 %
Extraction speed 1.3 X
Track quality 100.0 %
Test CRC 1CF51EA5
Copy CRC 1CF51EA5
Accurately ripped (confidence 7) [204CC7CF] (AR v2)
Copy OK

Track 3

Filename D:\EACRips\Brian Wilson and Van Dyke Parks - Orange Crate Art (2020) [FLAC] {OVCD-373}\03 - My Hobo Heart [Instrumental].wav

Peak level 94.3 %
Extraction speed 1.4 X
Track quality 100.0 %
Test CRC 3B635AC4
Copy CRC 3B635AC4
Accurately ripped (confidence 7) [2EB8A521] (AR v2)
Copy OK

Track 4

Filename D:\EACRips\Brian Wilson and Van Dyke Parks - Orange Crate Art (2020) [FLAC] {OVCD-373}\04 - Wings Of A Dove [Instrumental].wav

Peak level 94.3 %
Extraction speed 1.0 X
Track quality 99.9 %
Test CRC CAF95709
Copy CRC CAF95709
Accurately ripped (confidence 7) [FF5911B3] (AR v2)
Copy OK

Track 5

Filename D:\EACRips\Brian Wilson and Van Dyke Parks - Orange Crate Art (2020) [FLAC] {OVCD-373}\05 - Palm Tree and Moon [Instrumental].wav

Peak level 94.3 %
Extraction speed 1.6 X
Track quality 100.0 %
Test CRC 92161E6A
Copy CRC 92161E6A
Accurately ripped (confidence 7) [A5F73CF1] (AR v2)
Copy OK

Track 6

Filename D:\EACRips\Brian Wilson and Van Dyke Parks - Orange Crate Art (2020) [FLAC] {OVCD-373}\06 - Summer In Monterey [Instrumental].wav

Peak level 94.3 %
Extraction speed 1.7 X
Track quality 100.0 %
Test CRC 11B90697
Copy CRC 11B90697
Accurately ripped (confidence 7) [2A7DADB2] (AR v2)
Copy OK

Track 7

Filename D:\EACRips\Brian Wilson and Van Dyke Parks - Orange Crate Art (2020) [FLAC] {OVCD-373}\07 - San Francisco [Instrumental].wav

Peak level 94.3 %
Extraction speed 1.8 X
Track quality 100.0 %
Test CRC 3605D3CE
Copy CRC 3605D3CE
Accurately ripped (confidence 7) [968A1A77] (AR v2)
Copy OK

Track 8

Filename D:\EACRips\Brian Wilson and Van Dyke Parks - Orange Crate Art (2020) [FLAC] {OVCD-373}\08 - Hold Back Time [Instrumental].wav

Peak level 94.3 %
Extraction speed 1.3 X
Track quality 99.9 %
Test CRC 90F5D987
Copy CRC 90F5D987
Accurately ripped (confidence 7) [CE04C95E] (AR v2)
Copy OK

Track 9

Filename D:\EACRips\Brian Wilson and Van Dyke Parks - Orange Crate Art (2020) [FLAC] {OVCD-373}\09 - My Jeanine [Instrumental].wav

Peak level 94.3 %
Extraction speed 1.3 X
Track quality 99.9 %
Test CRC 7AC86842
Copy CRC 7AC86842
Accurately ripped (confidence 7) [C3361C1B] (AR v2)
Copy OK

Track 10

Filename D:\EACRips\Brian Wilson and Van Dyke Parks - Orange Crate Art (2020) [FLAC] {OVCD-373}\10 - Movies Is Magic [Instrumental].wav

Peak level 94.3 %
Extraction speed 2.0 X
Track quality 100.0 %
Test CRC 6E53D899
Copy CRC 6E53D899
Accurately ripped (confidence 7) [54FAA4D6] (AR v2)
Copy OK

Track 11

Filename D:\EACRips\Brian Wilson and Van Dyke Parks - Orange Crate Art (2020) [FLAC] {OVCD-373}\11 - This Town Goes Down At Sunset [Instrumental].wav

Peak level 94.2 %
Extraction speed 1.4 X
Track quality 99.9 %
Test CRC 33D96D3E
Copy CRC 33D96D3E
Accurately ripped (confidence 7) [9E86F3B7] (AR v2)
Copy OK


All tracks accurately ripped

No errors occurred

End of status report

–– CUETools DB Plugin V2.1.6

[CTDB TOCID: TTVQj7FdLD2CXa1Ng4BhV50OdhE-] found
Submit result: TTVQj7FdLD2CXa1Ng4BhV50OdhE- has been confirmed
Track | CTDB Status
1 | (21/21) Accurately ripped
2 | (21/21) Accurately ripped
3 | (21/21) Accurately ripped
4 | (21/21) Accurately ripped
5 | (21/21) Accurately ripped
6 | (21/21) Accurately ripped
7 | (21/21) Accurately ripped
8 | (21/21) Accurately ripped
9 | (21/21) Accurately ripped
10 | (21/21) Accurately ripped
11 | (21/21) Accurately ripped


==== Log checksum 2DDC69354694E99F6CB1B22DF70A60C3E4C8D1D9EE898495E4CAF0B13454076B ====

Thanks to the Original ripper !