Subcategories

Franz Xaver Brixi - Judas Iscariothes (Oratorium)

Posted By: Kushami
Franz Xaver Brixi - Judas Iscariothes (Oratorium)

Franz Xaver Brixi - Judas Iscariothes (Oratorium)
EAC RIP | WAVPACK + CUE + LOG | HQ Scans
SUPRAPHON | Recorded: 1995 | Released: 2006
Musica Bohemica - Jaroslav Krcek

Judas Iscariot, a new premiere of Frantisek Xaver Brixi’s oratorio for Good Friday in Holy Week.

An original composition of a Czech master of the 18th century, written on an original text by an unknown author.

In the convention of Baroque poetry, three allegorical figures—Justice (bass), Death (alto) and Hope (Soprano) speak to the central character, Judas (tenor).

This Oratorio is a showcase for Brixi’s mastery of counterpoint.

The soloists and Musica Bohemica, conducted by Jaroslav Krcek have prepared a rare artistic experience for their listeners.

Supraphon SU38662

- Judas Iscariot, Oratorio For the Feast of Good Friday
(Judas Iscariothes, Oratorium pro die sacro Parasceves)


Ludmila Vernerova, soprano
Pavla Ksicova, contralto
Jiri Vinklarek, tenore
Miloslav Podskalsky, basso
Musica Bohemica
Jaroslav Krcek


Exact Audio Copy V0.99 prebeta 5 from 4. May 2009

EAC extraction logfile from 11. July 2009, 9:25

Frantisek Xaver Brixi / Judas Iscariotthes. Oratorium pro die sacro Parasceves

Used drive : HL-DT-STDVD-ROM GDR-H30N Adapter: 0 ID: 0

Read mode : Secure
Utilize accurate stream : Yes
Defeat audio cache : No
Make use of C2 pointers : No

Read offset correction : 6
Overread into Lead-In and Lead-Out : No
Fill up missing offset samples with silence : Yes
Delete leading and trailing silent blocks : No
Null samples used in CRC calculations : Yes
Used interface : Installed external ASPI interface

Used output format : Internal WAV Routines
Sample format : 44.100 Hz; 16 Bit; Stereo


TOC of the extracted CD

Track | Start | Length | Start sector | End sector
––––––––––––––––––––––––––––-
1 | 0:00.32 | 3:05.35 | 32 | 13941
2 | 3:05.67 | 9:04.40 | 13942 | 54781
3 | 12:10.32 | 11:52.38 | 54782 | 108219
4 | 24:02.70 | 16:37.45 | 108220 | 183039
5 | 40:40.40 | 7:10.12 | 183040 | 215301
6 | 47:50.52 | 12:49.15 | 215302 | 272991
7 | 60:39.67 | 13:37.60 | 272992 | 334326
8 | 74:17.52 | 5:11.55 | 334327 | 357706


Range status and errors

Selected range

Filename D:\Brixi - Judas Iscariot\Frantisek Xaver Brixi - Judas Iscariotthes. Oratorium pro die sacro Parasceves.wav

Peak level 86.9 %
Range quality 99.9 %
Copy CRC 732D3914
Copy OK

No errors occurred


AccurateRip summary

Track 1 not present in database
Track 2 not present in database
Track 3 not present in database
Track 4 not present in database
Track 5 not present in database
Track 6 not present in database
Track 7 not present in database
Track 8 not present in database

None of the tracks are present in the AccurateRip database

End of status report


http://rapidshare.com/files/254945659/Brixi_-_Judas_Iscariot.part1.rar
http://rapidshare.com/files/254951147/Brixi_-_Judas_Iscariot.part2.rar
http://rapidshare.com/files/254957312/Brixi_-_Judas_Iscariot.part3.rar
http://rapidshare.com/files/254961794/Brixi_-_Judas_Iscariot.part4.rar