Subcategories

Brooklyn Funk Essentials - Stay Good (2019)

Posted By: delpotro
Brooklyn Funk Essentials - Stay Good (2019)

Brooklyn Funk Essentials - Stay Good (2019)
EAC Rip | FLAC (tracks+log+.cue) - 440 Mb | MP3 CBR 320 kbps - 164 Mb | 01:09:55
Funk | Label: Dorado Records

Brooklyn Funk Essentials have been fusing soul, hip hop, spoken word, jazz and, of course, funk for 25 years and over 6 albums, the most recent ’Stay Good’ is released on September 20th. During this time they have made a name for themselves as electric performers, exhilarating their loyal and broad fanbase with performances on every continent. Established in the early ‘90s by Arthur Baker and Lati Kronlund, Brooklyn Funk Essentials were regulars of New York’s vibrant club scene when their debut album, ‘Cool & Steady & Easy’, hit the shelves. Released by pioneering funk and electronic taste-makers Dorado Records and combining classic funk’s raw, mind-bending basslines, peak-era disco’s euphoric vocals and early hip-hop’s observational lyricism, the album and its follow up, ‘Make Em Like It’ topped charts around the world. Fast forward to 2019 and following 2015’s reunion with Dorado and the success of ‘Funk Ain’t Ova’, the band are set to release ‘Stay Good’, a fun, funky and fresh collection of tracks featuring throughout are the powerful and soulful vocals of Alison Limerick, now a full time member of the band. Lati wrote and produced her debut hit ‘Where Love Lives’.
Tracklist:
1. Brooklyn Funk Essentials, Alison Limerick & Desmond Foster – Stay Good (06:49)
2. Brooklyn Funk Essentials, Alison Limerick & Desmond Foster – Ain't Nothing (03:49)
3. Brooklyn Funk Essentials, Alison Limerick & Desmond Foster – No Strings (03:40)
4. Brooklyn Funk Essentials, Alison Limerick & Desmond Foster – Watcha Want from Me (04:28)
5. Brooklyn Funk Essentials – Miss Mess (05:32)
6. Brooklyn Funk Essentials & Alison Limerick – Keep the Love (04:29)
7. Brooklyn Funk Essentials, Alison Limerick & Desmond Foster – Funk Ain't Ova (03:51)
8. Brooklyn Funk Essentials, Alison Limerick & Roy Ayers – Breeze on Me (04:26)
9. Brooklyn Funk Essentials – Bakabana (03:12)
10. Brooklyn Funk Essentials – Y Todavia La Quiero (07:19)
11. Brooklyn Funk Essentials, Alison Limerick & Desmond Foster – Steps (05:23)
12. Brooklyn Funk Essentials & Alison Limerick – Where Love Lives (03:44)

Exact Audio Copy V1.3 from 2. September 2016

EAC extraction logfile from 20. October 2019, 8:58

Brooklyn Funk Essentials / Stay Good

Used drive : PLEXTOR PX-891SAF Adapter: 1 ID: 0

Read mode : Secure
Utilize accurate stream : Yes
Defeat audio cache : Yes
Make use of C2 pointers : No

Read offset correction : 6
Overread into Lead-In and Lead-Out : No
Fill up missing offset samples with silence : Yes
Delete leading and trailing silent blocks : No
Null samples used in CRC calculations : Yes
Used interface : Native Win32 interface for Win NT & 2000
Gap handling : Appended to previous track

Used output format : User Defined Encoder
Selected bitrate : 1024 kBit/s
Quality : High
Add ID3 tag : No
Command line compressor : C:\Program Files (x86)\Exact Audio Copy\Flac\flac.exe
Additional command line options : -8 -V -T "ARTIST=%artist%" -T "TITLE=%title%" -T "ALBUM=%albumtitle%" -T "DATE=%year%" -T "TRACKNUMBER=%tracknr%" -T "GENRE=%genre%" -T "PERFORMER=%albuminterpret%" -T "COMPOSER=%composer%" %haslyrics%–tag-from-file=LYRICS="%lyricsfile%"%haslyrics% -T "ALBUMARTIST=%albumartist%" -T "DISCNUMBER=%cdnumber%" -T "TOTALDISCS=%totalcds%" -T "TOTALTRACKS=%numtracks%" -T "COMMENT=%comment%" %source% -o %dest%


TOC of the extracted CD

Track | Start | Length | Start sector | End sector
––––––––––––––––––––––––––––-
1 | 0:00.00 | 6:49.35 | 0 | 30709
2 | 6:49.35 | 5:06.60 | 30710 | 53719
3 | 11:56.20 | 5:40.26 | 53720 | 79245
4 | 17:36.46 | 7:07.15 | 79246 | 111285
5 | 24:43.61 | 5:32.57 | 111286 | 136242
6 | 30:16.43 | 6:41.02 | 136243 | 166319
7 | 36:57.45 | 3:52.00 | 166320 | 183719
8 | 40:49.45 | 6:30.64 | 183720 | 213033
9 | 47:20.34 | 3:12.22 | 213034 | 227455
10 | 50:32.56 | 7:19.08 | 227456 | 260388
11 | 57:51.64 | 5:23.21 | 260389 | 284634
12 | 63:15.10 | 6:40.32 | 284635 | 314666


Track 1

Filename D:\#cdr\#wav+flac\Brooklyn Funk Essentials - Stay Good\01. Brooklyn Funk Essentials - Stay Good.wav

Pre-gap length 0:00:02.00

Peak level 98.9 %
Extraction speed 5.6 X
Track quality 100.0 %
Test CRC 3F04D7A2
Copy CRC 3F04D7A2
Track not present in AccurateRip database
Copy OK

Track 2

Filename D:\#cdr\#wav+flac\Brooklyn Funk Essentials - Stay Good\02. Brooklyn Funk Essentials - Ain't Nothing.wav

Peak level 98.9 %
Extraction speed 6.2 X
Track quality 100.0 %
Test CRC 96A2A2E4
Copy CRC 96A2A2E4
Track not present in AccurateRip database
Copy OK

Track 3

Filename D:\#cdr\#wav+flac\Brooklyn Funk Essentials - Stay Good\03. Brooklyn Funk Essentials - No Strings.wav

Peak level 98.9 %
Extraction speed 6.8 X
Track quality 100.0 %
Test CRC 83A1E434
Copy CRC 83A1E434
Track not present in AccurateRip database
Copy OK

Track 4

Filename D:\#cdr\#wav+flac\Brooklyn Funk Essentials - Stay Good\04. Brooklyn Funk Essentials - Watcha Want From Me.wav

Peak level 98.9 %
Extraction speed 7.6 X
Track quality 100.0 %
Test CRC D2BA8FF2
Copy CRC D2BA8FF2
Track not present in AccurateRip database
Copy OK

Track 5

Filename D:\#cdr\#wav+flac\Brooklyn Funk Essentials - Stay Good\05. Brooklyn Funk Essentials - Miss Mess.wav

Peak level 98.9 %
Extraction speed 8.0 X
Track quality 100.0 %
Test CRC 5F10FE73
Copy CRC 5F10FE73
Track not present in AccurateRip database
Copy OK

Track 6

Filename D:\#cdr\#wav+flac\Brooklyn Funk Essentials - Stay Good\06. Brooklyn Funk Essentials - Keep The Love.wav

Peak level 98.8 %
Extraction speed 7.6 X
Track quality 99.9 %
Test CRC 97BCA845
Copy CRC 97BCA845
Track not present in AccurateRip database
Copy OK

Track 7

Filename D:\#cdr\#wav+flac\Brooklyn Funk Essentials - Stay Good\07. Brooklyn Funk Essentials - Funk Ain't Ova.wav

Peak level 98.9 %
Extraction speed 8.6 X
Track quality 100.0 %
Test CRC 077F5B6B
Copy CRC 077F5B6B
Track not present in AccurateRip database
Copy OK

Track 8

Filename D:\#cdr\#wav+flac\Brooklyn Funk Essentials - Stay Good\08. Brooklyn Funk Essentials - Breeze On Me.wav

Peak level 98.8 %
Extraction speed 9.4 X
Track quality 100.0 %
Test CRC 8F585D05
Copy CRC 8F585D05
Track not present in AccurateRip database
Copy OK

Track 9

Filename D:\#cdr\#wav+flac\Brooklyn Funk Essentials - Stay Good\09. Brooklyn Funk Essentials - Bahabana.wav

Peak level 98.8 %
Extraction speed 9.0 X
Track quality 100.0 %
Test CRC 8AF6AF3F
Copy CRC 8AF6AF3F
Track not present in AccurateRip database
Copy OK

Track 10

Filename D:\#cdr\#wav+flac\Brooklyn Funk Essentials - Stay Good\10. Brooklyn Funk Essentials - Y Todavia La Quiero.wav

Peak level 98.8 %
Extraction speed 10.1 X
Track quality 100.0 %
Test CRC 8376909C
Copy CRC 8376909C
Track not present in AccurateRip database
Copy OK

Track 11

Filename D:\#cdr\#wav+flac\Brooklyn Funk Essentials - Stay Good\11. Brooklyn Funk Essentials - Steps.wav

Peak level 98.8 %
Extraction speed 10.2 X
Track quality 100.0 %
Test CRC 1053D6B5
Copy CRC 1053D6B5
Track not present in AccurateRip database
Copy OK

Track 12

Filename D:\#cdr\#wav+flac\Brooklyn Funk Essentials - Stay Good\12. Brooklyn Funk Essentials - Where Love Lives.wav

Peak level 98.9 %
Extraction speed 10.8 X
Track quality 100.0 %
Test CRC 48312284
Copy CRC 48312284
Track not present in AccurateRip database
Copy OK


None of the tracks are present in the AccurateRip database

No errors occurred

End of status report

–– CUETools DB Plugin V2.1.6

[CTDB TOCID: CbsgVVSrpyZxqP3wf1G2L10oisE-] found
Submit result: CbsgVVSrpyZxqP3wf1G2L10oisE- has been confirmed
Track | CTDB Status
1 | (3/3) Accurately ripped
2 | (3/3) Accurately ripped
3 | (3/3) Accurately ripped
4 | (3/3) Accurately ripped
5 | (3/3) Accurately ripped
6 | (3/3) Accurately ripped
7 | (3/3) Accurately ripped
8 | (3/3) Accurately ripped
9 | (3/3) Accurately ripped
10 | (3/3) Accurately ripped
11 | (3/3) Accurately ripped
12 | (3/3) Accurately ripped


==== Log checksum 44B07642AEC8CFE524DD040CC7C52967F1F6693330A7F0BC16F6B81A006128D5 ====

––––––––––––––––––––––––––––––

Exact Audio Copy V1.3 from 2. September 2016

EAC extraction logfile from 20. October 2019, 8:58

Brooklyn Funk Essentials / Stay Good

Used drive : PLEXTOR PX-891SAF Adapter: 1 ID: 0

Read mode : Secure
Utilize accurate stream : Yes
Defeat audio cache : Yes
Make use of C2 pointers : No

Read offset correction : 6
Overread into Lead-In and Lead-Out : No
Fill up missing offset samples with silence : Yes
Delete leading and trailing silent blocks : No
Null samples used in CRC calculations : Yes
Used interface : Native Win32 interface for Win NT & 2000
Gap handling : Appended to previous track

Used output format : User Defined Encoder
Selected bitrate : 1024 kBit/s
Quality : High
Add ID3 tag : No
Command line compressor : C:\Program Files (x86)\Exact Audio Copy\Flac\flac.exe
Additional command line options : -8 -V -T "ARTIST=%artist%" -T "TITLE=%title%" -T "ALBUM=%albumtitle%" -T "DATE=%year%" -T "TRACKNUMBER=%tracknr%" -T "GENRE=%genre%" -T "PERFORMER=%albuminterpret%" -T "COMPOSER=%composer%" %haslyrics%–tag-from-file=LYRICS="%lyricsfile%"%haslyrics% -T "ALBUMARTIST=%albumartist%" -T "DISCNUMBER=%cdnumber%" -T "TOTALDISCS=%totalcds%" -T "TOTALTRACKS=%numtracks%" -T "COMMENT=%comment%" %source% -o %dest%


TOC of the extracted CD

Track | Start | Length | Start sector | End sector
––––––––––––––––––––––––––––-
1 | 0:00.00 | 6:49.35 | 0 | 30709
2 | 6:49.35 | 5:06.60 | 30710 | 53719
3 | 11:56.20 | 5:40.26 | 53720 | 79245
4 | 17:36.46 | 7:07.15 | 79246 | 111285
5 | 24:43.61 | 5:32.57 | 111286 | 136242
6 | 30:16.43 | 6:41.02 | 136243 | 166319
7 | 36:57.45 | 3:52.00 | 166320 | 183719
8 | 40:49.45 | 6:30.64 | 183720 | 213033
9 | 47:20.34 | 3:12.22 | 213034 | 227455
10 | 50:32.56 | 7:19.08 | 227456 | 260388
11 | 57:51.64 | 5:23.21 | 260389 | 284634
12 | 63:15.10 | 6:40.32 | 284635 | 314666


Track 1

Filename D:\#cdr\#wav+flac\Brooklyn Funk Essentials - Stay Good\01. Brooklyn Funk Essentials - Stay Good.wav

Pre-gap length 0:00:02.00

Peak level 98.9 %
Extraction speed 5.6 X
Track quality 100.0 %
Test CRC 3F04D7A2
Copy CRC 3F04D7A2
Track not present in AccurateRip database
Copy OK

Track 2

Filename D:\#cdr\#wav+flac\Brooklyn Funk Essentials - Stay Good\02. Brooklyn Funk Essentials - Ain't Nothing.wav

Peak level 98.9 %
Extraction speed 6.2 X
Track quality 100.0 %
Test CRC 96A2A2E4
Copy CRC 96A2A2E4
Track not present in AccurateRip database
Copy OK

Track 3

Filename D:\#cdr\#wav+flac\Brooklyn Funk Essentials - Stay Good\03. Brooklyn Funk Essentials - No Strings.wav

Peak level 98.9 %
Extraction speed 6.8 X
Track quality 100.0 %
Test CRC 83A1E434
Copy CRC 83A1E434
Track not present in AccurateRip database
Copy OK

Track 4

Filename D:\#cdr\#wav+flac\Brooklyn Funk Essentials - Stay Good\04. Brooklyn Funk Essentials - Watcha Want From Me.wav

Peak level 98.9 %
Extraction speed 7.6 X
Track quality 100.0 %
Test CRC D2BA8FF2
Copy CRC D2BA8FF2
Track not present in AccurateRip database
Copy OK

Track 5

Filename D:\#cdr\#wav+flac\Brooklyn Funk Essentials - Stay Good\05. Brooklyn Funk Essentials - Miss Mess.wav

Peak level 98.9 %
Extraction speed 8.0 X
Track quality 100.0 %
Test CRC 5F10FE73
Copy CRC 5F10FE73
Track not present in AccurateRip database
Copy OK

Track 6

Filename D:\#cdr\#wav+flac\Brooklyn Funk Essentials - Stay Good\06. Brooklyn Funk Essentials - Keep The Love.wav

Peak level 98.8 %
Extraction speed 7.6 X
Track quality 99.9 %
Test CRC 97BCA845
Copy CRC 97BCA845
Track not present in AccurateRip database
Copy OK

Track 7

Filename D:\#cdr\#wav+flac\Brooklyn Funk Essentials - Stay Good\07. Brooklyn Funk Essentials - Funk Ain't Ova.wav

Peak level 98.9 %
Extraction speed 8.6 X
Track quality 100.0 %
Test CRC 077F5B6B
Copy CRC 077F5B6B
Track not present in AccurateRip database
Copy OK

Track 8

Filename D:\#cdr\#wav+flac\Brooklyn Funk Essentials - Stay Good\08. Brooklyn Funk Essentials - Breeze On Me.wav

Peak level 98.8 %
Extraction speed 9.4 X
Track quality 100.0 %
Test CRC 8F585D05
Copy CRC 8F585D05
Track not present in AccurateRip database
Copy OK

Track 9

Filename D:\#cdr\#wav+flac\Brooklyn Funk Essentials - Stay Good\09. Brooklyn Funk Essentials - Bahabana.wav

Peak level 98.8 %
Extraction speed 9.0 X
Track quality 100.0 %
Test CRC 8AF6AF3F
Copy CRC 8AF6AF3F
Track not present in AccurateRip database
Copy OK

Track 10

Filename D:\#cdr\#wav+flac\Brooklyn Funk Essentials - Stay Good\10. Brooklyn Funk Essentials - Y Todavia La Quiero.wav

Peak level 98.8 %
Extraction speed 10.1 X
Track quality 100.0 %
Test CRC 8376909C
Copy CRC 8376909C
Track not present in AccurateRip database
Copy OK

Track 11

Filename D:\#cdr\#wav+flac\Brooklyn Funk Essentials - Stay Good\11. Brooklyn Funk Essentials - Steps.wav

Peak level 98.8 %
Extraction speed 10.2 X
Track quality 100.0 %
Test CRC 1053D6B5
Copy CRC 1053D6B5
Track not present in AccurateRip database
Copy OK

Track 12

Filename D:\#cdr\#wav+flac\Brooklyn Funk Essentials - Stay Good\12. Brooklyn Funk Essentials - Where Love Lives.wav

Peak level 98.9 %
Extraction speed 10.8 X
Track quality 100.0 %
Test CRC 48312284
Copy CRC 48312284
Track not present in AccurateRip database
Copy OK


None of the tracks are present in the AccurateRip database

No errors occurred

End of status report

–– CUETools DB Plugin V2.1.6

[CTDB TOCID: CbsgVVSrpyZxqP3wf1G2L10oisE-] found
Submit result: CbsgVVSrpyZxqP3wf1G2L10oisE- has been confirmed
Track | CTDB Status
1 | (3/3) Accurately ripped
2 | (3/3) Accurately ripped
3 | (3/3) Accurately ripped
4 | (3/3) Accurately ripped
5 | (3/3) Accurately ripped
6 | (3/3) Accurately ripped
7 | (3/3) Accurately ripped
8 | (3/3) Accurately ripped
9 | (3/3) Accurately ripped
10 | (3/3) Accurately ripped
11 | (3/3) Accurately ripped
12 | (3/3) Accurately ripped


==== Log checksum 44B07642AEC8CFE524DD040CC7C52967F1F6693330A7F0BC16F6B81A006128D5 ====

Thanks to the Original ripper !