Subcategories

Bud Powell - Ultimate Bud Powell (1998)

Posted By: Bezz
Bud Powell - Ultimate Bud Powell (1998)

Bud Powell - Ultimate Bud Powell (1998)
EAC rip | FLAC + CUE + LOG | Full Scans | 130 Mb (Incl. Recovery)
Genre ~ Bop, Piano Jazz | Label ~ PolyGram Records

Although serious fans and collectors will have little use for the disc, Ultimate Bud Powell is a solid collection of 12 highlights from the pianist's Verve recordings as selected by Chick Corea. For the curious neophyte, the disc offers a good overview of Corea's time at the label, featuring the pianist in a variety of different settings, including combos with Percy Heath, Max Roach, Kenny Clarke, Ray Brown and Art Taylor. Certainly, the disc should be thought of as an introduction, not the final word, but on that level it works very well. Among the featured numbers are "Celia," "I'll Keep Loving You," "Strictly Confidential," "Oblivion," "Hallucinations," "Buttercup," "Fantasy in Blue," "Willow Grove" and "Elegy." ~ AllMusic


Tracklist

01. Tempus Fugit
02. Celia
03. I'll Keep Loving You
04. Strictly Confidential
05. So Sorry, Please
06. Parisian Thoroughfare
07. Oblivion
08. Dusk in Sandi
09. Hallucinations
10. The Fruit
11. Buttercup
12. Fantasy in Blue
13. Mediocre
14. Dance of the Infidels
15. Willow Grove
16. Elegy


Exact Audio Copy V0.99 prebeta 5 from 4. May 2009

EAC extraction logfile from 12. November 2010, 9:01

Bud Powell / Ultimate Bud Powell

Used drive : ASUS DRW-24B1ST Adapter: 0 ID: 0

Read mode : Secure
Utilize accurate stream : Yes
Defeat audio cache : Yes
Make use of C2 pointers : No

Read offset correction : 6
Overread into Lead-In and Lead-Out : No
Fill up missing offset samples with silence : Yes
Delete leading and trailing silent blocks : No
Null samples used in CRC calculations : Yes
Used interface : Installed external ASPI interface
Gap handling : Appended to previous track

Used output format : User Defined Encoder
Selected bitrate : 768 kBit/s
Quality : High
Add ID3 tag : No
Command line compressor : C:\Program Files\Exact Audio Copy\Flac\flac.exe
Additional command line options : -V -8 -T "artist=%a" -T "title=%t" -T "album=%g" -T "date=%y" -T "tracknumber=%n" -T "genre=%m" %s


TOC of the extracted CD

Track | Start | Length | Start sector | End sector
––––––––––––––––––––––––––––-
1 | 0:00.00 | 2:28.20 | 0 | 11119
2 | 2:28.20 | 3:00.30 | 11120 | 24649
3 | 5:28.50 | 2:42.52 | 24650 | 36851
4 | 8:11.27 | 3:10.37 | 36852 | 51138
5 | 11:21.64 | 3:17.16 | 51139 | 65929
6 | 14:39.05 | 2:30.70 | 65930 | 77249
7 | 17:10.00 | 2:11.00 | 77250 | 87074
8 | 19:21.00 | 2:15.40 | 87075 | 97239
9 | 21:36.40 | 2:27.17 | 97240 | 108281
10 | 24:03.57 | 3:19.23 | 108282 | 123229
11 | 27:23.05 | 3:01.65 | 123230 | 136869
12 | 30:24.70 | 3:07.30 | 136870 | 150924
13 | 33:32.25 | 2:58.20 | 150925 | 164294
14 | 36:30.45 | 2:19.30 | 164295 | 174749
15 | 38:50.00 | 4:26.05 | 174750 | 194704
16 | 43:16.05 | 2:56.15 | 194705 | 207919


Track 1

Filename C:\Bud Powell - Ultimate Bud Powell (1998) [FLAC]\01. Tempus Fugit.wav

Pre-gap length 0:00:02.00

Peak level 88.1 %
Track quality 100.0 %
Test CRC 154FBB9E
Copy CRC 154FBB9E
Accurately ripped (confidence 1) [EDE5E0CB]
Copy OK

Track 2

Filename C:\Bud Powell - Ultimate Bud Powell (1998) [FLAC]\02. Celia.wav

Pre-gap length 0:00:02.45

Peak level 66.7 %
Track quality 100.0 %
Test CRC 16CDA64E
Copy CRC 16CDA64E
Accurately ripped (confidence 1) [BE8731DC]
Copy OK

Track 3

Filename C:\Bud Powell - Ultimate Bud Powell (1998) [FLAC]\03. I'll Keep Loving You.wav

Pre-gap length 0:00:02.43

Peak level 79.8 %
Track quality 99.9 %
Test CRC 191F79E0
Copy CRC 191F79E0
Accurately ripped (confidence 1) [75854F1E]
Copy OK

Track 4

Filename C:\Bud Powell - Ultimate Bud Powell (1998) [FLAC]\04. Strictly Confidential.wav

Pre-gap length 0:00:02.40

Peak level 71.7 %
Track quality 100.0 %
Test CRC 94E37990
Copy CRC 94E37990
Accurately ripped (confidence 1) [1B36EDD0]
Copy OK

Track 5

Filename C:\Bud Powell - Ultimate Bud Powell (1998) [FLAC]\05. So Sorry, Please.wav

Pre-gap length 0:00:02.39

Peak level 71.6 %
Track quality 99.9 %
Test CRC 3CAA9F32
Copy CRC 3CAA9F32
Accurately ripped (confidence 1) [70501750]
Copy OK

Track 6

Filename C:\Bud Powell - Ultimate Bud Powell (1998) [FLAC]\06. Parisian Thoroughfare.wav

Pre-gap length 0:00:02.73

Peak level 70.7 %
Track quality 100.0 %
Test CRC BBA4B79F
Copy CRC BBA4B79F
Accurately ripped (confidence 1) [98ECA458]
Copy OK

Track 7

Filename C:\Bud Powell - Ultimate Bud Powell (1998) [FLAC]\07. Oblivion.wav

Pre-gap length 0:00:02.40

Peak level 71.8 %
Track quality 100.0 %
Test CRC 2EFD3807
Copy CRC 2EFD3807
Accurately ripped (confidence 1) [08655948]
Copy OK

Track 8

Filename C:\Bud Powell - Ultimate Bud Powell (1998) [FLAC]\08. Dusk In Sandi.wav

Pre-gap length 0:00:02.38

Peak level 74.4 %
Track quality 100.0 %
Test CRC B1504BAD
Copy CRC B1504BAD
Accurately ripped (confidence 1) [DE480EBE]
Copy OK

Track 9

Filename C:\Bud Powell - Ultimate Bud Powell (1998) [FLAC]\09. Hallucinations.wav

Pre-gap length 0:00:02.43

Peak level 72.2 %
Track quality 100.0 %
Test CRC 65472BEF
Copy CRC 65472BEF
Accurately ripped (confidence 1) [CCB18EEA]
Copy OK

Track 10

Filename C:\Bud Powell - Ultimate Bud Powell (1998) [FLAC]\10. The Fruit.wav

Pre-gap length 0:00:01.65

Peak level 72.8 %
Track quality 100.0 %
Test CRC 862CE1EA
Copy CRC 862CE1EA
Accurately ripped (confidence 1) [018E10AA]
Copy OK

Track 11

Filename C:\Bud Powell - Ultimate Bud Powell (1998) [FLAC]\11. Buttercup.wav

Pre-gap length 0:00:02.43

Peak level 81.8 %
Track quality 100.0 %
Test CRC E8428FEE
Copy CRC E8428FEE
Accurately ripped (confidence 1) [E5889642]
Copy OK

Track 12

Filename C:\Bud Powell - Ultimate Bud Powell (1998) [FLAC]\12. Fantasy In Blue.wav

Pre-gap length 0:00:02.30

Peak level 84.7 %
Track quality 100.0 %
Test CRC 46E20FA2
Copy CRC 46E20FA2
Accurately ripped (confidence 1) [552F4BA6]
Copy OK

Track 13

Filename C:\Bud Powell - Ultimate Bud Powell (1998) [FLAC]\13. Mediocre.wav

Pre-gap length 0:00:02.43

Peak level 78.3 %
Track quality 100.0 %
Test CRC FAC00635
Copy CRC FAC00635
Accurately ripped (confidence 1) [5596AA9A]
Copy OK

Track 14

Filename C:\Bud Powell - Ultimate Bud Powell (1998) [FLAC]\14. Dance Of The Infidels.wav

Pre-gap length 0:00:02.40

Peak level 77.3 %
Track quality 100.0 %
Test CRC AFEE39E8
Copy CRC AFEE39E8
Accurately ripped (confidence 1) [4EAFC49C]
Copy OK

Track 15

Filename C:\Bud Powell - Ultimate Bud Powell (1998) [FLAC]\15. Willow Grove.wav

Pre-gap length 0:00:02.38

Peak level 62.3 %
Track quality 100.0 %
Test CRC 3B201F93
Copy CRC 3B201F93
Accurately ripped (confidence 1) [9F24C636]
Copy OK

Track 16

Filename C:\Bud Powell - Ultimate Bud Powell (1998) [FLAC]\16. Elegy.wav

Pre-gap length 0:00:02.46

Peak level 72.7 %
Track quality 100.0 %
Test CRC EA2A8848
Copy CRC EA2A8848
Accurately ripped (confidence 1) [8DCF1A97]
Copy OK


All tracks accurately ripped

No errors occurred

End of status report



Bud Powell - Ultimate Bud Powell (1998)


Bud Powell - Ultimate Bud Powell (1998)



Special thanks to the original uploader, LittleMuzzy!