The Bud Powell Trio - Strictly Powell (1956) {2014 Japan Jazz Collection 1000 Columbia-RCA Series}

Posted By: ruskaval
The Bud Powell Trio - Strictly Powell (1956) {2014 Japan Jazz Collection 1000 Columbia-RCA Series}

The Bud Powell Trio - Strictly Powell (1956) {2014 Japan Jazz Collection 1000 Columbia-RCA Series}
EAC rip (secure mode) | FLAC (tracks)+CUE+LOG -> 211 Mb | MP3 @320 -> 95 Mb
Full Artwork @ 600 dpi (png) -> 261 Mb | 5% repair rar
© 1956, 2014 RCA / Sony Music Japan | SICP 4033
Jazz / Bop / Piano Trio

Reissue with the latest remastering. Comes with liner notes. Strictly Bud Powell, in the best sense of the word – as the album's a sharp batch of trio tracks recorded for RCA in the 50s, and a great showcase for Bud's firey talents on the piano! The rhythm combo features bold work on drums from Art Taylor, alongside the bass of George Duvivier – but Powell's definitely the leading light here, as the album features some of his tremendously deft work on the keys throughout. There's a nice tension to the material – played with a strength that matches most of Bud's other work from the time – but a bit different than some of his other recordings for Verve and Blue Note. The set features 11 tracks in all – and titles include "Time Was", "Jump City", "Elegy", "Coscrane", and "Topsy Turvy".
The Bud Powell Trio - Strictly Powell (1956) {2014 Japan Jazz Collection 1000 Columbia-RCA Series}


Personnel:
Bud Powell – piano
George Duvivier – bass
Art Taylor – drums

tracklist:
01 - There'll Never Be Another You
02 - Coscrane
03 - Over The Rainbow
04 - Blues For Bessie
05 - Time Was
06 - Topsy Turvy
07 - Lush Life
08 - Elegy
09 - They Didn't Believe Me
10 - I Cover The Waterfront
11 - Jump City

Exact Audio Copy V1.1 from 23. June 2015

EAC extraction logfile from 31. March 2016, 18:46

The Bud Powell Trio / Strictly Powell

Used drive : TSSTcorpCDDVDW SE-208DB Adapter: 1 ID: 0

Read mode : Secure
Utilize accurate stream : Yes
Defeat audio cache : Yes
Make use of C2 pointers : No

Read offset correction : 6
Overread into Lead-In and Lead-Out : No
Fill up missing offset samples with silence : Yes
Delete leading and trailing silent blocks : No
Null samples used in CRC calculations : Yes
Used interface : Native Win32 interface for Win NT & 2000
Gap handling : Appended to previous track

Used output format : User Defined Encoder
Selected bitrate : 1024 kBit/s
Quality : High
Add ID3 tag : No
Command line compressor : C:\Program Files (x86)\FLAC Frontend\tools\flac.exe
Additional command line options : -8 -V -T "ARTIST=%artist%" -T "TITLE=%title%" -T "ALBUM=%albumtitle%" -T "DATE=%year%" -T "TRACKNUMBER=%tracknr%" -T "TOTALTRACKS=%numtracks%" -T "GENRE=%genre%" -T "ALBUMARTIST=%albumartist%" -T "ALBUM ARTIST=%albumartist%" -T "COMMENT=EAC Secure Mode, Test & Copy, AccurateRip, FLAC -8" %source%


TOC of the extracted CD

Track | Start | Length | Start sector | End sector
––––––––––––––––––––––––––––-
1 | 0:00.00 | 3:41.57 | 0 | 16631
2 | 3:41.57 | 3:45.70 | 16632 | 33576
3 | 7:27.52 | 3:22.43 | 33577 | 48769
4 | 10:50.20 | 5:41.42 | 48770 | 74386
5 | 16:31.62 | 3:09.05 | 74387 | 88566
6 | 19:40.67 | 4:37.68 | 88567 | 109409
7 | 24:18.60 | 2:54.20 | 109410 | 122479
8 | 27:13.05 | 3:49.27 | 122480 | 139681
9 | 31:02.32 | 3:20.40 | 139682 | 154721
10 | 34:22.72 | 2:33.23 | 154722 | 166219
11 | 36:56.20 | 3:19.70 | 166220 | 181214


Track 1

Filename D:\_EAC\The Bud Powell Trio - Strictly Powell (1956) [FLAC] {SICP 4033}\01 - There'll Never Be Another You.wav

Pre-gap length 0:00:02.00

Peak level 98.8 %
Extraction speed 0.8 X
Track quality 99.9 %
Test CRC 8B809C58
Copy CRC 8B809C58
Accurately ripped (confidence 2) [5BC6640D] (AR v2)
Copy OK

Track 2

Filename D:\_EAC\The Bud Powell Trio - Strictly Powell (1956) [FLAC] {SICP 4033}\02 - Coscrane.wav

Pre-gap length 0:00:01.69

Peak level 98.8 %
Extraction speed 1.0 X
Track quality 100.0 %
Test CRC B3290633
Copy CRC B3290633
Accurately ripped (confidence 2) [745ECA27] (AR v2)
Copy OK

Track 3

Filename D:\_EAC\The Bud Powell Trio - Strictly Powell (1956) [FLAC] {SICP 4033}\03 - Over The Rainbow.wav

Pre-gap length 0:00:01.59

Peak level 98.8 %
Extraction speed 1.1 X
Track quality 100.0 %
Test CRC 4AF2D0F3
Copy CRC 4AF2D0F3
Accurately ripped (confidence 2) [3A7E00D7] (AR v2)
Copy OK

Track 4

Filename D:\_EAC\The Bud Powell Trio - Strictly Powell (1956) [FLAC] {SICP 4033}\04 - Blues For Bessie.wav

Pre-gap length 0:00:01.72

Peak level 93.4 %
Extraction speed 1.3 X
Track quality 100.0 %
Test CRC 75422A09
Copy CRC 75422A09
Accurately ripped (confidence 2) [E4BC3384] (AR v2)
Copy OK

Track 5

Filename D:\_EAC\The Bud Powell Trio - Strictly Powell (1956) [FLAC] {SICP 4033}\05 - Time Was.wav

Pre-gap length 0:00:02.09

Peak level 98.8 %
Extraction speed 1.3 X
Track quality 100.0 %
Test CRC 34F4318D
Copy CRC 34F4318D
Accurately ripped (confidence 2) [1BF4FC95] (AR v2)
Copy OK

Track 6

Filename D:\_EAC\The Bud Powell Trio - Strictly Powell (1956) [FLAC] {SICP 4033}\06 - Topsy Turvy.wav

Pre-gap length 0:00:02.27

Peak level 96.1 %
Extraction speed 1.2 X
Track quality 99.9 %
Test CRC 4B7096D6
Copy CRC 4B7096D6
Accurately ripped (confidence 2) [D5BF60C3] (AR v2)
Copy OK

Track 7

Filename D:\_EAC\The Bud Powell Trio - Strictly Powell (1956) [FLAC] {SICP 4033}\07 - Lush Life.wav

Pre-gap length 0:00:01.57

Peak level 90.1 %
Extraction speed 1.1 X
Track quality 99.9 %
Test CRC 0763674D
Copy CRC 0763674D
Accurately ripped (confidence 2) [0EE720C9] (AR v2)
Copy OK

Track 8

Filename D:\_EAC\The Bud Powell Trio - Strictly Powell (1956) [FLAC] {SICP 4033}\08 - Elegy.wav

Pre-gap length 0:00:01.67

Peak level 98.8 %
Extraction speed 1.5 X
Track quality 100.0 %
Test CRC A7052B61
Copy CRC A7052B61
Accurately ripped (confidence 2) [A6B45446] (AR v2)
Copy OK

Track 9

Filename D:\_EAC\The Bud Powell Trio - Strictly Powell (1956) [FLAC] {SICP 4033}\09 - They Didn't Believe Me.wav

Pre-gap length 0:00:01.62

Peak level 97.5 %
Extraction speed 1.2 X
Track quality 99.9 %
Test CRC 7AD3C4A6
Copy CRC 7AD3C4A6
Accurately ripped (confidence 2) [89610EFA] (AR v2)
Copy OK

Track 10

Filename D:\_EAC\The Bud Powell Trio - Strictly Powell (1956) [FLAC] {SICP 4033}\10 - I Cover The Waterfront.wav

Pre-gap length 0:00:02.19

Peak level 98.6 %
Extraction speed 1.4 X
Track quality 100.0 %
Test CRC CAA4E900
Copy CRC CAA4E900
Accurately ripped (confidence 2) [697514B6] (AR v2)
Copy OK

Track 11

Filename D:\_EAC\The Bud Powell Trio - Strictly Powell (1956) [FLAC] {SICP 4033}\11 - Jump City.wav

Pre-gap length 0:00:01.57

Peak level 94.4 %
Extraction speed 1.5 X
Track quality 100.0 %
Test CRC 36956DB7
Copy CRC 36956DB7
Accurately ripped (confidence 2) [279D2364] (AR v2)
Copy OK


All tracks accurately ripped

No errors occurred

End of status report

==== Log checksum DEE8DADC65FE1D6670E71818691778BAA3ABA5EE201BFCC415FD222FE1E7D8CC ====


The Bud Powell Trio - Strictly Powell (1956) {2014 Japan Jazz Collection 1000 Columbia-RCA Series}

The Bud Powell Trio - Strictly Powell (1956) {2014 Japan Jazz Collection 1000 Columbia-RCA Series}


Miles Davis - At Plugged Nickel, Chicago (1965) [2CD] {2014 Japan Jazz Collection 1000 Columbia-RCA Series}
Miles Davis - Black Beauty (1970) [2CD] {2014 Japan Jazz Collection 1000 Columbia-RCA Series}
Miles Davis - Live At The Fillmore East (March 7, 1970). It's About That Time [2CD] {2014 Japan Jazz Collection 1000 Columbia-RCA Series}
Miles Davis - Dark Magus: Live At Carnegie Hall (1974) [2CD] {2014 Japan Jazz Collection 1000 Columbia-RCA Series}
Miles Davis - In Person Friday Night At The Blackhawk, San Francisco Vol.1 (1961) {2014 Japan Jazz Collection 1000 Columbia-RCA Series}

Miles Davis - In Person Saturday Night At The Blackhawk, San Francisco Vol.2 (1961) {2014 Japan Jazz Collection 1000 Columbia-RCA Series}
Miles Davis - Miles Davis At Carnegie Hall (1961) {2014 Japan Jazz Collection 1000 Columbia-RCA Series}
Miles Davis - More Music From The Legendary Carnegie Hall Concert (1961) {2014 Japan Jazz Collection 1000 Columbia-RCA Series}
Ornette Coleman - Chappaqua Suite (1965) [2CD] {2014 Japan Jazz Collection 1000 Columbia-RCA Series}
Herbie Hancock & Chick Corea - An Evening With… In Concert (1978) [2CD] {2014 Japan Jazz Collection 1000 Columbia-RCA Series}
Art Blakey's Jazz Messengers - Play Lerner And Loewe (1957) {2014 Japan Jazz Collection 1000 Columbia-RCA Series}
Charlie Parker - One Night In Birdland (1950) [2CD] {2014 Japan Jazz Collection 1000 Columbia-RCA Series}

John Lewis - Sensitive Scenery (1976) {2014 Japan Jazz Collection 1000 Columbia-RCA Series}
Keith Jarrett - Expectations (1972) {2014 Japan Jazz Collection 1000 Columbia-RCA Series}
Herbie Hancock - Mr. Hands (1979) {2014 Japan Jazz Collection 1000 Columbia-RCA Series}
Miles Davis - We Want Miles (1981) [2CD] {2014 Japan Jazz Collection 1000 Columbia-RCA Series}
Arista All Stars - Blue Montreux (1978) {2014 Japan Jazz Collection 1000 Columbia-RCA Series}

Miles Davis - Jazz At The Plaza, Vol. I (1958) {2014 Japan Jazz Collection 1000 Columbia-RCA Series}
Duke Ellington - Jazz At The Plaza, Vol. II (1958) {2014 Japan Jazz Collection 1000 Columbia-RCA Series}
Charles Mingus and His Jazz Groups - Mingus Dynasty (1959) {2014 Japan Jazz Collection 1000 Columbia-RCA Series}

Weather Report - Weather Report (1971) {2014 Japan Jazz Collection 1000 Columbia-RCA Series}
Weather Report - I Sing The Body Electric (1972) {2014 Japan Jazz Collection 1000 Columbia-RCA Series}
Weather Report - Sweetnighter (1973) {2014 Japan Jazz Collection 1000 Columbia-RCA Series}
Ornette Coleman - Skies Of America (1972) {2014 Japan Jazz Collection 1000 Columbia-RCA Series}

Art Blakey & Les Jazz-Messengers - Au Club Saint-Germain Vol.1 (1959) {2014 Japan Jazz Collection 1000 Columbia-RCA Series}
Art Blakey & Les Jazz-Messengers - Au Club Saint-Germain Vol.2 (1959) {2014 Japan Jazz Collection 1000 Columbia-RCA Series}
Art Blakey & Les Jazz-Messengers - Au Club Saint-Germain Vol.3 (1959) {2014 Japan Jazz Collection 1000 Columbia-RCA Series}
Weather Report - Live In Tokyo (1972) [2CD] {2014 Japan Jazz Collection 1000 Columbia-RCA Series}
Curtis Fuller - The Magnificent Trombone Of Curtis Fuller (1961) {2014 Japan Jazz Collection 1000 Columbia-RCA Series}
Curtis Fuller - South American Cookin' (1961) {2014 Japan Jazz Collection 1000 Columbia-RCA Series}

Barney Wilen - Barney (1959) {2014 Japan Jazz Collection 1000 Columbia-RCA Series}
Barney Wilen - More From Barney At The Club Saint-Germain (1959) {2014 Japan Jazz Collection 1000 Columbia-RCA Series}
Quintetto Basso-Valdambrini - Walking In The Night (1960) {2014 Japan Jazz Collection 1000 Columbia-RCA Series}
Sestetto Basso-Valdambrini - Sestetto Basso-Valdambrini (1962) {2014 Japan Jazz Collection 1000 Columbia-RCA Series}
Charles Lloyd - Discovery! (1964) {2014 Japan Jazz Collection 1000 Columbia-RCA Series}

Charles Lloyd - Nirvana (1968) {2014 Japan Jazz Collection 1000 Columbia-RCA Series}
Phil Woods - Warm Woods (1957) {2014 Japan Jazz Collection 1000 Columbia-RCA Series}
Ray Bryant - Ray Bryant Trio (1956) {2014 Japan Jazz Collection 1000 Columbia-RCA Series}
Barney Wilen - Tilt+6 (1957) {2014 Japan Jazz Collection 1000 Columbia-RCA Series}
Louis Armstrong - The Complete Town Hall Concert (1947) [2CD] {2014 Japan Jazz Collection 1000 Columbia-RCA Series}

Duke Ellington - Ellington At Newport 1956 Complete (1956) [2CD] {2014 Japan Jazz Collection 1000 Columbia-RCA Series}
The Lenny Hambro Quintet - Message From Hambro (1955) {2015 Japan Jazz Collection 1000 Columbia-RCA Series}
The Lenny Hambro Quintet - The Nature Of Things (1956) {2015 Japan Jazz Collection 1000 Columbia-RCA Series}
Herbie Hancock - Dedication (1974) {2014 Japan Jazz Collection 1000 Columbia-RCA Series}
J. J. Johnson - Blue Trombone (1957) {2014 Japan Jazz Collection 1000 Columbia-RCA Series}

J.J. Johnson - J.J. Inc. (1960) {2014 Japan Jazz Collection 1000 Columbia-RCA Series}
Shorty Rogers - Courts The Count (1954) {2014 Japan Jazz Collection 1000 Columbia-RCA Series}
Charlie Rouse & Seldon Powell - We Paid Our Dues! (1961) {2014 Japan Jazz Collection 1000 Columbia-RCA Series}
Herbie Hancock - Quartet (1981) {2014 Japan Jazz Collection 1000 Columbia-RCA Series}
The Dave Bailey Sextet - Gettin' Into Somethin' (1960) {2015 Japan Jazz Collection 1000 Columbia-RCA Series}

The Dave Bailey Sextet - One Foot In The Gutter (1960) {2015 Japan Jazz Collection 1000 Columbia-RCA Series}
The Dave Bailey Quintet - Two Feet In The Gutter (1961) {2015 Japan Jazz Collection 1000 Columbia-RCA Series}
V.S.O.P. The Quintet - The Quintet (1977) {2014 Japan Jazz Collection 1000 Columbia-RCA Series}


NEXT -> More 2014-2015 Japan Jazz Collection 1000 Columbia-RCA Series on the way…