Subcategories

Bud Shank & Bill Perkins - Bud Shank/Bill Perkins (1958) [Remastered 1998]

Posted By: Bezz
Bud Shank & Bill Perkins - Bud Shank/Bill Perkins (1958) [Remastered 1998]

Bud Shank & Bill Perkins - Bud Shank/Bill Perkins (1958) [Remastered 1998]
EAC rip | FLAC+CUE+LOG | Scans | 323 Mb(Incl. Recovery)
Genre ~ Cool, Hard Bop, West Coast Jazz | Label ~ Blue Note Records

Two of the stars of cool jazz, Bud Shank and Bill Perkins, are featured to various degrees throughout this session. Shank in the 1950s was practically the epitome of West Coast jazz. His cool tones on alto and his fluid flute were utilized on many dates; the main set here also finds him switching in spots to tenor and baritone. Perkins, always a versatile reed soloist, is best known for his tenor playing but during that date he also plays alto, and (on two versions of "Fluted Columns") there are some rare examples of his flute. Shank and Perkins team up quite effectively with pianist Hampton Hawes, bassist Red Mitchell, and drummer Mel Lewis for the May 2, 1955 session, which includes a trio feature for Hawes ("I Hear Music"). Four numbers from February 19, 1956 (with Shank on flute and alto, pianist Russ Freeman, bassist Carson Smith, drummer Shelly Manne, and, on "Brother, Can You Spare a Dime?," Perkins on tenor) are actually from a session led by Freeman but never completed, and were only put out previously on samplers. "Angel Eyes" (by a quartet with Perkins and pianist Jimmy Rowles) is a leftover track from a later date, as is "Sonny Speaks," which showcases Rowles in a trio without Perkins. This set concludes with the one surviving number ("Ain't Got a Dime to My Name") surviving from a truncated Perkins quartet set from 1958. Taken as a whole, there are many rewarding solos to be heard by Shank, Perkins, and the piano players on these formerly rare selections, even if the collection falls short of being classic. ~ AllMusic
Tracklist

1. PARADISE (3:03) (G. Ctifford-N.H. Brown)
2. FLUTED COLUMNS (4:18) (Bud Shank)
3. I HEAR MUSIC (3:31) (F. Loesser-B. Lane)
4. ROYAL GARDEN BLUES (3-56) (S. Williams-C. Williams)
5. A SINNER KISSED AN ANGEL (3:17) (M. David-R. Joseph)
6. IT HAD TO BE YOU (3:16) (G. Kabn-L Jones)
7. FLUTED COLUMNS (alt tk) (3:31) (Bud Shank)
8. I HEAR MUSIC (trio version) (3:25) (F. Loesser-B. Lane)
9. BROTHER, CAN YOU SPARE A DIME (4:42) (J. Gorney-E. Y. Harburg)
10. BLUES IN THE NIGHT (7-21) (H. Arlen -J. Mercer)
11. BOJANGLES OF HARLEM (2:46) (J. Kern-D. Fields)
12. IT'S A NEW WORLD (4:40) (H. Arlen-I. Gershwin)
13. ANGEL EYES (3:38) (M. Dennis-E. Brent)
14. SONNY SPEAKS (3:44) (Sonny Berman)
15. AIN'T GOT A DIME TO MY NAME (3:36) (J. Burke-J. Van Heusen)

Exact Audio Copy V0.99 prebeta 5 from 4. May 2009

EAC extraction logfile from 11. March 2011, 8:59

Bud Shank & Bill Perkins / Bud Shank & Bill Perkins

Used drive : HL-DT-STDVDRAM GSA-T50N Adapter: 1 ID: 0

Read mode : Secure
Utilize accurate stream : Yes
Defeat audio cache : Yes
Make use of C2 pointers : No

Read offset correction : 667
Overread into Lead-In and Lead-Out : No
Fill up missing offset samples with silence : Yes
Delete leading and trailing silent blocks : No
Null samples used in CRC calculations : Yes
Used interface : Native Win32 interface for Win NT & 2000
Gap handling : Appended to previous track

Used output format : User Defined Encoder
Selected bitrate : 1024 kBit/s
Quality : High
Add ID3 tag : No
Command line compressor : C:\Program Files\Exact Audio Copy\Flac\flac.exe
Additional command line options : -8 -V -T "ARTIST=%a" -T "TITLE=%t" -T "ALBUM=%g" -T "DATE=%y" -T "TRACKNUMBER=%n" -T "GENRE=%m" -T "COMMENT=EAC FLAC -8" %s

TOC of the extracted CD

Track | Start | Length | Start sector | End sector
––––––––––––––––––––––––––––-
1 | 0:00.00 | 3:06.52 | 0 | 14001
2 | 3:06.52 | 4:21.18 | 14002 | 33594
3 | 7:27.70 | 3:34.05 | 33595 | 49649
4 | 11:02.00 | 3:59.07 | 49650 | 67581
5 | 15:01.07 | 3:20.45 | 67582 | 82626
6 | 18:21.52 | 3:19.70 | 82627 | 97621
7 | 21:41.47 | 3:35.05 | 97622 | 113751
8 | 25:16.52 | 3:28.20 | 113752 | 129371
9 | 28:44.72 | 4:45.60 | 129372 | 150806
10 | 33:30.57 | 7:25.18 | 150807 | 184199
11 | 40:56.00 | 2:43.67 | 184200 | 196491
12 | 43:39.67 | 4:42.73 | 196492 | 217714
13 | 48:22.65 | 3:41.50 | 217715 | 234339
14 | 52:04.40 | 3:47.60 | 234340 | 251424
15 | 55:52.25 | 3:36.45 | 251425 | 267669

Track 1

Filename C:\Musicgate's rips\Bud Shank & Bill Perkins - Bud Shank & Bill Perkins - 1998\01 - Paradise.wav

Pre-gap length 0:00:02.00

Peak level 98.8 %
Track quality 100.0 %
Test CRC 5871BCE0
Copy CRC 5871BCE0
Track not present in AccurateRip database
Copy OK

Track 2

Filename C:\Musicgate's rips\Bud Shank & Bill Perkins - Bud Shank & Bill Perkins - 1998\02 - Fluted Columns.wav

Peak level 97.0 %
Track quality 100.0 %
Test CRC 8257F5EE
Copy CRC 8257F5EE
Track not present in AccurateRip database
Copy OK

Track 3

Filename C:\Musicgate's rips\Bud Shank & Bill Perkins - Bud Shank & Bill Perkins - 1998\03 - I Hear Music.wav

Pre-gap length 0:00:02.34

Peak level 98.8 %
Track quality 100.0 %
Test CRC 4007CFFB
Copy CRC 4007CFFB
Track not present in AccurateRip database
Copy OK

Track 4

Filename C:\Musicgate's rips\Bud Shank & Bill Perkins - Bud Shank & Bill Perkins - 1998\04 - Royal Garden Blues.wav

Pre-gap length 0:00:02.05

Peak level 93.3 %
Track quality 99.9 %
Test CRC 26566E05
Copy CRC 26566E05
Track not present in AccurateRip database
Copy OK

Track 5

Filename C:\Musicgate's rips\Bud Shank & Bill Perkins - Bud Shank & Bill Perkins - 1998\05 - A Sinner Kissed An Angel.wav

Peak level 96.0 %
Track quality 100.0 %
Test CRC 19D04DF7
Copy CRC 19D04DF7
Track not present in AccurateRip database
Copy OK

Track 6

Filename C:\Musicgate's rips\Bud Shank & Bill Perkins - Bud Shank & Bill Perkins - 1998\06 - It Had To Be You.wav

Peak level 98.8 %
Track quality 100.0 %
Test CRC 84FE0927
Copy CRC 84FE0927
Track not present in AccurateRip database
Copy OK

Track 7

Filename C:\Musicgate's rips\Bud Shank & Bill Perkins - Bud Shank & Bill Perkins - 1998\07 - Fluted Colums (alt. take).wav

Peak level 95.3 %
Track quality 100.0 %
Test CRC 0750A54D
Copy CRC 0750A54D
Track not present in AccurateRip database
Copy OK

Track 8

Filename C:\Musicgate's rips\Bud Shank & Bill Perkins - Bud Shank & Bill Perkins - 1998\08 - I Hear Music (trio version).wav

Peak level 95.8 %
Track quality 100.0 %
Test CRC 25E11B43
Copy CRC 25E11B43
Track not present in AccurateRip database
Copy OK

Track 9

Filename C:\Musicgate's rips\Bud Shank & Bill Perkins - Bud Shank & Bill Perkins - 1998\09 - Brother, Can You Spare A Dime .wav

Peak level 97.1 %
Track quality 100.0 %
Test CRC CAC40E01
Copy CRC CAC40E01
Track not present in AccurateRip database
Copy OK

Track 10

Filename C:\Musicgate's rips\Bud Shank & Bill Perkins - Bud Shank & Bill Perkins - 1998\10 - Blues In The Night.wav

Peak level 98.8 %
Track quality 100.0 %
Test CRC B44200CE
Copy CRC B44200CE
Track not present in AccurateRip database
Copy OK

Track 11

Filename C:\Musicgate's rips\Bud Shank & Bill Perkins - Bud Shank & Bill Perkins - 1998\11 - Bojangles of Harlem.wav

Peak level 86.4 %
Track quality 100.0 %
Test CRC 714D4C6D
Copy CRC 714D4C6D
Track not present in AccurateRip database
Copy OK

Track 12

Filename C:\Musicgate's rips\Bud Shank & Bill Perkins - Bud Shank & Bill Perkins - 1998\12 - It's A New World.wav

Peak level 91.2 %
Track quality 100.0 %
Test CRC AAE3D384
Copy CRC AAE3D384
Track not present in AccurateRip database
Copy OK

Track 13

Filename C:\Musicgate's rips\Bud Shank & Bill Perkins - Bud Shank & Bill Perkins - 1998\13 - Angel Eyes.wav

Peak level 77.7 %
Track quality 100.0 %
Test CRC 664F7F41
Copy CRC 664F7F41
Track not present in AccurateRip database
Copy OK

Track 14

Filename C:\Musicgate's rips\Bud Shank & Bill Perkins - Bud Shank & Bill Perkins - 1998\14 - Sonny Speaks.wav

Peak level 91.1 %
Track quality 99.9 %
Test CRC D61409AD
Copy CRC D61409AD
Track not present in AccurateRip database
Copy OK

Track 15

Filename C:\Musicgate's rips\Bud Shank & Bill Perkins - Bud Shank & Bill Perkins - 1998\15 - Ain't Got A Dime To My Name.wav

Peak level 98.8 %
Track quality 100.0 %
Test CRC 49727F34
Copy CRC 49727F34
Track not present in AccurateRip database
Copy OK

None of the tracks are present in the AccurateRip database

No errors occurred

End of status report

Bud Shank & Bill Perkins - Bud Shank/Bill Perkins (1958) [Remastered 1998]

Bud Shank & Bill Perkins - Bud Shank/Bill Perkins (1958) [Remastered 1998]

Special thanks to Musicgate!

Welcome to my blog for more wonderful music

PLEASE DO NOT PROVIDE MIRROR LINKS!