Subcategories

Buddy Collette - Bossa Nova (1961) {P-Vine Japan Mini LP PCD-20175 rel 2012}

Posted By: ruskaval
Buddy Collette - Bossa Nova (1961) {P-Vine Japan Mini LP PCD-20175 rel 2012}

Buddy Collette - Bossa Nova (1961) {P-Vine Japan Mini LP PCD-20175 rel 2012}
EAC rip (secure mode) | FLAC (tracks)+CUE+LOG -> 152 Mb | MP3 @320 -> 66 Mb
Full Artwork @ 300 dpi (jpg) -> 10 Mb | 5% repair rar
© 1961, 2012 Crown Jazz / P-Vine Japan | PCD-20175 | Mini LP
Jazz / Bossa Nova / Samba Jazz / Latin Jazz / Saxophone / Flute

A really cool bit of bossa jazz from reedman Buddy Collette – an artist who's not as well associated with the genre as Stan Getz or Paul Desmond – but who really cooks nicely here! The setting is relatively lean and groovy – with guitar from Howard Roberts, bass from Mel Pollan, and percussion from Leo Acosta and Darias – both of whom bring a nice sort of west coast vibe to the set, one that's different from some of the Verve bossa modes of the time. Jim Helms handled the arrangements, with a nice airy sort of mode – and Buddy plays both tenor and flute, on titles that include "Nao Pode Ser", "Porque De Moras", "A Pele Do Marfin", "A Meie Noite", "Samba Da Tartaruga", and "Amor Levado".
One of the least known jazz-bossa albums was Buddy Collette's Bossa Nova, recorded in 1962 for Los Angeles's Crown label. The flutist and saxophonist was joined by Howard Roberts (g), Jim Helms (g,arr,cond), Mel Pollan (b), Leo Acosta (d,perc) and Darias (cga). Acosta was a Mexican drummer with bossa nova experience and Rogelio Darias was from Cuba and worked extensively in Las Vegas. Helms, who died in 1991, was a West Coast composer, arranger, conductor and producer who worked on a ton of B-films and is probably best known for the theme to TV's Kung Fu in the 1970s.

On Bossa Nova, Helms had a golden touch, but his arrangements were greatly enhanced by Buddy's warm and engaging playing on the flute and tenor saxophone. Buddy was among the busiest artists in L.A.'s movie and recording studios. His command, technique and musical elegance were exceptional, even in a town where every other musician was considered extraordinary. Bossa Nova has a soft and driving feel, and it was recorded before Getz's monster hit, The Girl From Ipanema, was released in 1964. So the ensemble is feeling its way through the genre with Buddy playing plenty of jazz. Best of all, there are no American standards or familiar bossa novas on here. It's all brand new to the ear.
Buddy Collette - Bossa Nova (1961) {P-Vine Japan Mini LP PCD-20175 rel 2012}


Musicians

Flute, Saxophone Buddy Collette
Guitar Howard Roberts
Bass Mel Pollan
Drums, Percussion Leo Acosta
Congas (Rogelio) Darias
Arrangements, Conductor Jim Helms

Track Listing

01 Nгo Pode Ser (It Can Never Be) 04:07
02 O Barulho Da Noite (Noise Of The Night) 02:37
03 Samba Da Tartaruga (Turtle Samba) 03:47
04 Amor Levado (Mischievous Love) 02:26
05 A Meia-Noite (At Midnight) 02:53
06 Samba Un Pouco Azul (Blue Samba) 04:24
07 A Pele Do Marfin (Skin Of Ivory) 04:47
08 Porque De Moras? (Why Do You Linger?) 03:24

Exact Audio Copy V1.1 from 23. June 2015

EAC extraction logfile from 20. November 2017, 9:07

Buddy Collette / Bossa Nova

Used drive : MATSHITADVD+-RW SW830 Adapter: 1 ID: 0

Read mode : Secure
Utilize accurate stream : Yes
Defeat audio cache : Yes
Make use of C2 pointers : No

Read offset correction : 6
Overread into Lead-In and Lead-Out : No
Fill up missing offset samples with silence : Yes
Delete leading and trailing silent blocks : No
Null samples used in CRC calculations : Yes
Used interface : Native Win32 interface for Win NT & 2000
Gap handling : Appended to previous track

Used output format : User Defined Encoder
Selected bitrate : 896 kBit/s
Quality : High
Add ID3 tag : No
Command line compressor : C:\Program Files (x86)\Exact Audio Copy\Flac\flac.exe
Additional command line options : -8 -V -T "ARTIST=%artist%" -T "TITLE=%title%" -T "ALBUM=%albumtitle%" -T "DATE=%year%" -T "TRACKNUMBER=%tracknr%" -T "TOTALTRACKS=%numtracks%" -T "GENRE=%genre%" -T "ALBUMARTIST=%albumartist%" -T "ALBUM ARTIST=%albumartist%" -T "COMMENT=EAC Secure Mode, Test & Copy, AccurateRip, FLAC -8" %source%


TOC of the extracted CD

Track | Start | Length | Start sector | End sector
––––––––––––––––––––––––––––-
1 | 0:00.00 | 4:07.32 | 0 | 18556
2 | 4:07.32 | 2:37.27 | 18557 | 30358
3 | 6:44.59 | 3:46.65 | 30359 | 47373
4 | 10:31.49 | 2:25.49 | 47374 | 58297
5 | 12:57.23 | 2:53.08 | 58298 | 71280
6 | 15:50.31 | 4:23.50 | 71281 | 91055
7 | 20:14.06 | 4:47.00 | 91056 | 112580
8 | 25:01.06 | 3:24.09 | 112581 | 127889


Track 1

Filename G:\New Rips\Buddy Collette - Bossa Nova (1961) [FLAC]\01 - Nao Pode Ser.wav

Pre-gap length 0:00:02.00

Peak level 100.0 %
Extraction speed 4.3 X
Track quality 100.0 %
Test CRC 6DE5E60C
Copy CRC 6DE5E60C
Accurately ripped (confidence 3) [E038CA0C] (AR v2)
Copy OK

Track 2

Filename G:\New Rips\Buddy Collette - Bossa Nova (1961) [FLAC]\02 - O Barulho Da Noite.wav

Pre-gap length 0:00:02.72

Peak level 100.0 %
Extraction speed 3.0 X
Track quality 99.9 %
Test CRC B704C715
Copy CRC B704C715
Accurately ripped (confidence 3) [C3A06398] (AR v2)
Copy OK

Track 3

Filename G:\New Rips\Buddy Collette - Bossa Nova (1961) [FLAC]\03 - Samba Da Tartaruga.wav

Pre-gap length 0:00:01.64

Peak level 100.0 %
Extraction speed 5.0 X
Track quality 100.0 %
Test CRC 7A098D48
Copy CRC 7A098D48
Accurately ripped (confidence 3) [AE9B9CD0] (AR v2)
Copy OK

Track 4

Filename G:\New Rips\Buddy Collette - Bossa Nova (1961) [FLAC]\04 - Amor Levado.wav

Pre-gap length 0:00:01.46

Peak level 100.0 %
Extraction speed 4.8 X
Track quality 100.0 %
Test CRC 8DBB6EEB
Copy CRC 8DBB6EEB
Accurately ripped (confidence 3) [ACF6F064] (AR v2)
Copy OK

Track 5

Filename G:\New Rips\Buddy Collette - Bossa Nova (1961) [FLAC]\05 - A Meia Noite.wav

Pre-gap length 0:00:01.43

Peak level 100.0 %
Extraction speed 5.3 X
Track quality 100.0 %
Test CRC 52D5D7BE
Copy CRC 52D5D7BE
Accurately ripped (confidence 3) [6E08B36C] (AR v2)
Copy OK

Track 6

Filename G:\New Rips\Buddy Collette - Bossa Nova (1961) [FLAC]\06 - Samba Un Pouco Azul.wav

Pre-gap length 0:00:02.18

Peak level 100.0 %
Extraction speed 6.0 X
Track quality 100.0 %
Test CRC 744C45B5
Copy CRC 744C45B5
Accurately ripped (confidence 3) [3992292D] (AR v2)
Copy OK

Track 7

Filename G:\New Rips\Buddy Collette - Bossa Nova (1961) [FLAC]\07 - A Pele Do Marfin.wav

Pre-gap length 0:00:03.31

Peak level 100.0 %
Extraction speed 6.4 X
Track quality 100.0 %
Test CRC B5FFBEF8
Copy CRC B5FFBEF8
Accurately ripped (confidence 3) [CA36543F] (AR v2)
Copy OK

Track 8

Filename G:\New Rips\Buddy Collette - Bossa Nova (1961) [FLAC]\08 - Porque De Moras.wav

Pre-gap length 0:00:01.26

Peak level 100.0 %
Extraction speed 6.4 X
Track quality 100.0 %
Test CRC EA1E4382
Copy CRC EA1E4382
Accurately ripped (confidence 3) [0DD74699] (AR v2)
Copy OK


All tracks accurately ripped

No errors occurred

End of status report

–– CUETools DB Plugin V2.1.6

[CTDB TOCID: 93RkY7B0_56yNAIDtZlQwAgVKWE-] found
Submit result: 93RkY7B0_56yNAIDtZlQwAgVKWE- has been confirmed
Track | CTDB Status
1 | (4/4) Accurately ripped
2 | (4/4) Accurately ripped
3 | (4/4) Accurately ripped
4 | (4/4) Accurately ripped
5 | (4/4) Accurately ripped
6 | (4/4) Accurately ripped
7 | (4/4) Accurately ripped
8 | (4/4) Accurately ripped


==== Log checksum F309C60955F93E5E246A11349808F3AE10858D32C95FF2042B902725A46B178D ====


Buddy Collette - Bossa Nova (1961) {P-Vine Japan Mini LP PCD-20175 rel 2012}

Buddy Collette - Bossa Nova (1961) {P-Vine Japan Mini LP PCD-20175 rel 2012}



===